osu file format v14

[General]
AudioFilename: audio.mp3
AudioLeadIn: 0
PreviewTime: 50248
Countdown: 0
SampleSet: Normal
StackLeniency: 0.7
Mode: 0
LetterboxInBreaks: 0
WidescreenStoryboard: 0

[Editor]
DistanceSpacing: 1.2
BeatDivisor: 2
GridSize: 4
TimelineZoom: 1

[Metadata]
Title:Hawaii (Stay Awake)
TitleUnicode:Hawaii (Stay Awake)
Artist:Waterparks
ArtistUnicode:Waterparks
Creator:Dashyy-
Version:Normal
Source:
Tags:pop punk alt rock double dare otto wood awsten knight geoff wigington equal vision records
BeatmapID:1333150
BeatmapSetID:626065

[Difficulty]
HPDrainRate:4.4
CircleSize:3.7
OverallDifficulty:4.4
ApproachRate:5
SliderMultiplier:1
SliderTickRate:1

[Events]
//Background and Video events
0,0,"tokyo_street_by_arsenixc-daj4ocm.jpg",0,0
//Break Periods
2,17447,26635
//Storyboard Layer 0 (Background)
//Storyboard Layer 1 (Fail)
//Storyboard Layer 2 (Pass)
//Storyboard Layer 3 (Foreground)
//Storyboard Sound Samples

[TimingPoints]
5953,352.941176470588,4,1,1,80,1,0
14688,-100,4,1,1,5,0,0
14776,-100,4,1,1,80,0,0
15747,-100,4,1,1,5,0,0
15835,-100,4,1,1,80,0,0
28541,-100,4,1,1,60,0,0
28542,-100,4,1,1,60,0,0
48306,-100,4,1,1,40,0,0
48659,-100,4,1,1,55,0,0
49012,-100,4,1,1,70,0,0
49365,-100,4,1,1,85,0,0
49718,-100,4,1,1,100,0,0
51129,-100,4,1,1,90,0,1
51394,-100,4,1,1,5,0,1
51482,-100,4,1,1,90,0,1
51923,-100,4,1,1,5,0,1
52011,-100,4,1,1,90,0,1
52452,-100,4,1,1,5,0,1
52541,-100,4,1,1,90,0,1
54217,-100,4,1,1,5,0,1
54305,-100,4,1,1,90,0,1
54747,-100,4,1,1,5,0,1
54835,-100,4,1,1,90,0,1
55276,-100,4,1,1,5,0,1
55364,-100,4,1,1,90,0,1
61717,-100,4,1,1,90,0,0
62071,-100,4,1,1,70,0,0
62423,-100,4,1,1,90,0,1
62688,-100,4,1,1,5,0,1
62776,-100,4,1,1,90,0,1
63217,-100,4,1,1,5,0,1
63305,-100,4,1,1,90,0,1
63747,-100,4,1,1,5,0,1
63835,-100,4,1,1,90,0,1
65511,-100,4,1,1,5,0,1
65600,-100,4,1,1,90,0,1
66041,-100,4,1,1,5,0,1
66129,-100,4,1,1,90,0,1
66570,-100,4,1,1,5,0,1
66658,-100,4,1,1,90,0,1
71158,-100,4,1,1,5,0,1
71247,-100,4,1,1,90,0,1
72217,-100,4,1,1,5,0,1
72305,-100,4,1,1,90,0,1
73717,-100,4,1,1,100,0,0
76541,-100,4,1,1,100,0,0
79364,-100,4,1,1,15,0,0

[Colours]
Combo1 : 192,192,192
Combo2 : 0,160,255
Combo3 : 0,255,255
Combo4 : 232,232,232

[HitObjects]
364,52,5601,5,2,0:0:0:0:
332,167,5953,6,0,L|213:175,1,100,6|8,0:0|0:0,0:0:0:0:
184,137,6482,1,2,0:0:0:0:
184,137,6658,2,0,P|131:128|84:151,1,100,0|8,0:0|0:0,0:0:0:0:
5,231,7364,2,0,L|10:339,1,100,0|8,0:0|0:0,0:0:0:0:
57,368,7894,1,0,0:0:0:0:
57,368,8070,2,0,L|137:357,1,50,2|2,0:0|0:0,0:0:0:0:
162,337,8423,1,8,0:0:0:0:
256,263,8776,6,0,L|361:271,1,100,6|8,0:0|0:0,0:0:0:0:
407,240,9305,1,2,0:0:0:0:
407,240,9482,2,0,P|426:192|415:122,1,100,0|8,0:0|0:0,0:0:0:0:
361,40,10188,2,0,L|246:32,1,100,0|8,0:0|0:0,0:0:0:0:
201,38,10717,1,0,0:0:0:0:
201,38,10894,2,0,L|211:107,1,50,2|2,0:0|0:0,0:0:0:0:
243,135,11247,2,0,L|253:204,1,50,8|0,0:0|0:0,0:0:0:0:
271,240,11600,6,0,L|379:259,1,100,6|8,0:0|0:0,0:0:0:0:
403,308,12129,1,2,0:0:0:0:
403,308,12305,2,0,P|373:334|310:340,1,100,0|8,0:0|0:0,0:0:0:0:
196,324,13011,2,0,L|79:315,1,100,0|8,0:0|0:0,0:0:0:0:
40,292,13541,1,0,0:0:0:0:
40,292,13717,2,0,L|46:220,1,50,2|2,0:0|0:0,0:0:0:0:
68,188,14070,2,0,L|74:116,1,50,8|0,0:0|0:0,0:0:0:0:
124,104,14423,6,0,L|224:105,1,100,6|2,0:0|0:0,0:0:0:0:
277,78,14952,1,8,0:0:0:0:
360,240,15482,2,0,L|233:247,1,100,6|2,0:0|0:0,0:0:0:0:
203,266,16011,1,8,0:0:0:0:
124,104,16541,5,8,0:0:0:0:
243,112,16894,1,2,0:0:0:0:
362,120,17247,1,2,0:0:0:0:
135,189,27835,6,0,P|165:182|195:182,1,50,8|8,0:0|0:0,0:0:0:0:
238,208,28188,2,0,P|265:217|301:219,1,50,2|8,0:0|0:0,0:0:0:0:
344,203,28541,6,0,L|354:95,1,100,4|8,0:0|0:0,0:0:0:0:
318,54,29070,1,0,0:0:0:0:
318,54,29247,2,0,P|257:34|201:60,1,100,0|8,0:0|0:0,0:0:0:0:
200,160,29952,2,0,L|193:272,2,100,0|8|2,0:0|0:0|0:0,0:0:0:0:
219,41,31011,1,10,0:0:0:0:
129,120,31364,6,0,L|25:124,1,100,0|8,0:0|0:0,0:0:0:0:
2,178,31894,1,2,0:0:0:0:
2,178,32070,2,0,P|-4:246|16:287,1,100,0|8,0:0|0:0,0:0:0:0:
121,313,32776,2,0,L|128:205,2,100,0|8|2,0:0|0:0|0:0,0:0:0:0:
232,357,33835,1,10,0:0:0:0:
341,308,34188,6,0,P|354:246|343:200,1,100,2|8,0:0|0:0,0:0:0:0:
316,159,34717,1,2,0:0:0:0:
316,159,34894,2,0,L|184:149,1,100,0|8,0:0|0:0,0:0:0:0:
104,105,35600,2,0,P|36:112|-7:99,2,100,0|8|2,0:0|0:0|0:0,0:0:0:0:
230,71,36658,1,10,0:0:0:0:
160,169,37011,6,0,P|132:216|139:285,1,100,2|8,0:0|0:0,0:0:0:0:
226,333,37717,2,0,L|338:329,1,100,0|8,0:0|0:0,0:0:0:0:
409,242,38423,2,0,L|282:247,1,100,0|8,0:0|0:0,0:0:0:0:
208,185,39129,2,0,L|266:181,1,50,8|2,0:0|0:0,0:0:0:0:
307,147,39482,2,0,L|365:143,1,50,8|2,0:0|0:0,0:0:0:0:
416,147,39835,6,0,P|456:224|370:320,1,200,6|2,0:0|0:0,0:0:0:0:
285,327,40894,1,8,0:0:0:0:
221,224,41247,2,0,L|105:218,1,100,2|8,0:0|0:0,0:0:0:0:
62,230,41776,1,2,0:0:0:0:
62,230,41952,2,0,P|33:280|39:338,1,100,2|8,0:0|0:0,0:0:0:0:
146,360,42658,6,0,B|139:299|139:299|158:248|158:248|148:134,1,200,2|2,0:0|0:0,0:0:0:0:
140,44,43717,1,10,0:0:0:0:
229,124,44070,2,0,P|286:138|349:118,1,100,2|10,0:0|0:0,0:0:0:0:
425,63,44776,2,0,L|415:168,1,100,2|10,0:0|0:0,0:0:0:0:
367,272,45482,6,0,B|316:278|316:278|276:260|276:260|160:277,1,200,6|2,0:0|0:0,0:0:0:0:
58,313,46541,1,10,0:0:0:0:
165,365,46894,2,0,P|219:367|264:324,1,100,2|10,0:0|0:0,0:0:0:0:
283,288,47423,1,2,0:0:0:0:
283,288,47600,2,0,L|289:184,1,100,2|10,0:0|0:0,0:0:0:0:
233,75,48305,6,0,L|228:22,2,50,10|2|10,0:0|0:0|0:0,0:0:0:0:
159,170,49011,2,0,L|155:232,2,50,10|2|10,0:0|0:0|0:0,0:0:0:0:
117,57,49717,1,10,0:0:0:0:
45,320,51129,6,0,P|100:335|155:318,1,100,6|8,0:0|0:0,0:0:0:0:
190,292,51658,2,0,P|245:276|312:302,1,100,2|2,0:0|0:0,0:0:0:0:
334,320,52188,2,0,B|350:269|350:269|342:188,1,100,8|0,0:0|0:0,0:0:0:0:
327,165,52717,1,2,0:0:0:0:
327,165,52894,1,8,0:0:0:0:
212,202,53247,2,0,L|139:199,1,50,2|2,0:0|0:0,0:0:0:0:
111,232,53600,2,0,L|54:229,1,50,10|0,0:0|0:0,0:0:0:0:
23,182,53952,6,0,P|-2:124|8:61,1,100,2|8,0:0|0:0,0:0:0:0:
49,54,54482,2,0,L|157:44,1,100,2|2,0:0|0:0,0:0:0:0:
206,61,55011,2,0,B|256:82|256:82|336:72,1,100,8|0,0:0|0:0,0:0:0:0:
356,51,55541,1,2,0:0:0:0:
356,51,55717,1,8,0:0:0:0:
449,126,56070,2,0,L|445:181,1,50,2|2,0:0|0:0,0:0:0:0:
488,218,56423,2,0,L|485:280,1,50,10|0,0:0|0:0,0:0:0:0:
493,327,56776,6,0,P|446:352|386:343,1,100,6|0,0:0|0:0,0:0:0:0:
351,314,57305,2,0,L|240:316,1,100,2|2,0:0|0:0,0:0:0:0:
195,293,57835,1,8,0:0:0:0:
157,178,58188,6,0,P|105:157|46:181,1,100,2|0,0:0|0:0,0:0:0:0:
24,212,58717,2,0,B|38:174|38:174|29:88,1,100,2|2,0:0|0:0,0:0:0:0:
22,55,59247,2,0,L|83:59,1,50,8|0,0:0|0:0,0:0:0:0:
125,85,59600,6,0,L|237:90,1,100,6|8,0:0|0:0,0:0:0:0:
273,124,60129,1,2,0:0:0:0:
273,124,60305,2,0,L|390:128,1,100,0|8,0:0|0:0,0:0:0:0:
413,172,60835,1,0,0:0:0:0:
413,172,61011,2,0,L|530:176,1,100,0|8,0:0|0:0,0:0:0:0:
475,289,61717,2,0,P|438:286|407:294,1,50,8|8,0:0|0:0,0:0:0:0:
373,319,62070,2,0,P|335:328|302:322,1,50,2|2,0:0|0:0,0:0:0:0:
273,295,62423,6,0,L|268:179,1,100,6|8,0:0|0:0,0:0:0:0:
295,141,62952,2,0,P|339:114|397:122,1,100,2|2,0:0|0:0,0:0:0:0:
431,156,63482,2,0,L|438:263,1,100,8|0,0:0|0:0,0:0:0:0:
420,313,64011,1,2,0:0:0:0:
420,313,64188,1,8,0:0:0:0:
308,268,64541,2,0,L|228:269,1,50,2|2,0:0|0:0,0:0:0:0:
210,232,64894,2,0,L|130:233,1,50,10|0,0:0|0:0,0:0:0:0:
104,209,65247,6,0,P|74:252|89:318,1,100,2|8,0:0|0:0,0:0:0:0:
114,344,65776,2,0,L|226:349,1,100,2|2,0:0|0:0,0:0:0:0:
257,307,66305,2,0,L|246:188,1,100,8|0,0:0|0:0,0:0:0:0:
279,156,66835,1,2,0:0:0:0:
279,156,67011,1,8,0:0:0:0:
203,62,67364,2,0,L|142:57,1,50,2|2,0:0|0:0,0:0:0:0:
104,93,67717,2,0,L|43:88,1,50,10|0,0:0|0:0,0:0:0:0:
7,127,68070,6,0,P|-10:183|4:232,1,100,6|8,0:0|0:0,0:0:0:0:
40,265,68600,2,0,L|154:270,1,100,2|2,0:0|0:0,0:0:0:0:
191,241,69129,1,8,0:0:0:0:
296,182,69482,6,0,P|356:169|414:219,1,100,2|8,0:0|0:0,0:0:0:0:
429,229,70011,2,0,L|423:338,1,100,2|2,0:0|0:0,0:0:0:0:
396,382,70541,1,8,0:0:0:0:
292,321,70894,6,0,B|275:269|275:269|282:201,1,100,6|2,0:0|0:0,0:0:0:0:
302,168,71423,1,8,0:0:0:0:
433,45,71952,2,0,B|381:62|381:62|313:55,1,100,6|2,0:0|0:0,0:0:0:0:
280,39,72481,1,8,0:0:0:0:
100,53,73011,6,0,L|95:122,1,50,8|0,0:0|0:0,0:0:0:0:
76,159,73364,2,0,L|71:223,1,50,8|8,0:0|0:0,0:0:0:0:
55,266,73717,5,6,0:0:0:0:
374,272,75129,5,6,0:0:0:0:
155,37,76541,5,12,0:0:0:0:
