osu file format v14

[General]
AudioFilename: audio.mp3
AudioLeadIn: 0
PreviewTime: 50248
Countdown: 0
SampleSet: Normal
StackLeniency: 0.7
Mode: 0
LetterboxInBreaks: 0
WidescreenStoryboard: 0

[Editor]
DistanceSpacing: 1.2
BeatDivisor: 4
GridSize: 4
TimelineZoom: 2.6

[Metadata]
Title:Hawaii (Stay Awake)
TitleUnicode:Hawaii (Stay Awake)
Artist:Waterparks
ArtistUnicode:Waterparks
Creator:Dashyy-
Version:Insane
Source:
Tags:pop punk alt rock double dare otto wood awsten knight geoff wigington equal vision records
BeatmapID:1319699
BeatmapSetID:626065

[Difficulty]
HPDrainRate:6.7
CircleSize:4
OverallDifficulty:8
ApproachRate:9
SliderMultiplier:1.5
SliderTickRate:1

[Events]
//Background and Video events
0,0,"tokyo_street_by_arsenixc-daj4ocm.jpg",0,0
//Break Periods
2,17447,27235
//Storyboard Layer 0 (Background)
//Storyboard Layer 1 (Fail)
//Storyboard Layer 2 (Pass)
//Storyboard Layer 3 (Foreground)
//Storyboard Sound Samples

[TimingPoints]
5953,352.941176470588,4,1,1,80,1,0
14688,-100,4,1,1,5,0,0
14776,-100,4,1,1,80,0,0
15747,-100,4,1,1,5,0,0
15835,-100,4,1,1,80,0,0
28541,-125,4,1,1,60,0,0
39835,-166.666666666667,4,1,1,60,0,0
48306,-125,4,1,1,40,0,0
48659,-125,4,1,1,55,0,0
49012,-125,4,1,1,70,0,0
49365,-125,4,1,1,85,0,0
49718,-125,4,1,1,100,0,0
51129,-83.3333333333333,4,1,1,90,0,1
51394,-83.3333333333333,4,1,1,5,0,1
51482,-83.3333333333333,4,1,1,90,0,1
51923,-83.3333333333333,4,1,1,5,0,1
52011,-83.3333333333333,4,1,1,90,0,1
52452,-83.3333333333333,4,1,1,5,0,1
52541,-83.3333333333333,4,1,1,90,0,1
54217,-83.3333333333333,4,1,1,5,0,1
54305,-83.3333333333333,4,1,1,90,0,1
54747,-83.3333333333333,4,1,1,5,0,1
54835,-83.3333333333333,4,1,1,90,0,1
55276,-83.3333333333333,4,1,1,5,0,1
55364,-83.3333333333333,4,1,1,90,0,1
61717,-83.3333333333333,4,1,1,90,0,0
62071,-83.3333333333333,4,1,1,70,0,0
62423,-83.3333333333333,4,1,1,90,0,1
62688,-83.3333333333333,4,1,1,5,0,1
62776,-83.3333333333333,4,1,1,90,0,1
63217,-83.3333333333333,4,1,1,5,0,1
63305,-83.3333333333333,4,1,1,90,0,1
63747,-83.3333333333333,4,1,1,5,0,1
63835,-83.3333333333333,4,1,1,90,0,1
65511,-83.3333333333333,4,1,1,5,0,1
65600,-83.3333333333333,4,1,1,90,0,1
66041,-83.3333333333333,4,1,1,5,0,1
66129,-83.3333333333333,4,1,1,90,0,1
66570,-83.3333333333333,4,1,1,5,0,1
66658,-83.3333333333333,4,1,1,90,0,1
71158,-83.3333333333333,4,1,1,5,0,1
71247,-83.3333333333333,4,1,1,90,0,1
72217,-83.3333333333333,4,1,1,5,0,1
72305,-83.3333333333333,4,1,1,90,0,1
73717,-200,4,1,1,100,0,0
76541,-83.3333333333333,4,1,1,100,0,0
79364,-100,4,1,1,15,0,0

[Colours]
Combo1 : 159,159,159
Combo2 : 0,160,255
Combo3 : 0,255,255
Combo4 : 232,232,232

[HitObjects]
117,199,5601,5,2,0:0:0:0:
112,217,5953,6,0,B|169:215|169:215|187:199|187:199|277:195,1,150,6|8,0:0|0:0,0:0:0:0:
380,255,6482,1,2,0:0:0:0:
322,107,6658,1,0,0:0:0:0:
276,281,6835,1,2,0:0:0:0:
428,174,7011,6,0,L|415:17,1,150,8|0,0:0|0:0,0:0:0:0:
509,121,7541,1,2,0:0:0:0:
313,51,7717,2,0,P|257:40|220:40,1,75,8|0,0:0|0:0,0:0:0:0:
176,187,8070,1,2,0:0:0:0:
306,137,8247,1,2,0:0:0:0:
74,61,8423,2,0,L|69:147,1,75,8|0,0:0|0:0,0:0:0:0:
132,313,8776,6,0,P|135:270|34:234,1,150,6|8,0:0|0:0,0:0:0:0:
14,332,9305,1,2,0:0:0:0:
153,228,9482,2,0,P|190:218|243:215,1,75,0|2,0:0|0:0,0:0:0:0:
448,324,9835,6,0,B|405:318|405:318|372:293|372:293|284:278,1,150,8|0,0:0|0:0,0:0:0:0:
330,373,10364,1,2,0:0:0:0:
441,226,10541,2,0,P|453:182|456:129,1,75,8|0,0:0|0:0,0:0:0:0:
309,75,10894,1,2,0:0:0:0:
351,206,11070,1,2,0:0:0:0:
429,75,11247,2,0,L|421:-16,1,75,8|0,0:0|0:0,0:0:0:0:
288,158,11600,6,0,B|251:162|251:162|225:153|225:153|170:169|115:153,1,150,6|8,0:0|0:0,0:0:0:0:
21,110,12129,1,2,0:0:0:0:
163,14,12305,2,0,P|178:68|176:108,1,75,0|2,0:0|0:0,0:0:0:0:
70,241,12658,6,0,P|106:223|194:279,1,150,8|0,0:0|0:0,0:0:0:0:
143,361,13188,1,2,0:0:0:0:
235,197,13364,2,0,L|241:104,1,75,8|0,0:0|0:0,0:0:0:0:
318,304,13717,1,2,0:0:0:0:
146,246,13894,1,2,0:0:0:0:
383,232,14070,2,0,P|406:279|413:309,1,75,8|0,0:0|0:0,0:0:0:0:
323,103,14423,6,0,P|363:94|444:141,1,112.5,6|0,0:0|0:0,0:0:0:0:
448,141,14776,1,2,0:0:0:0:
216,71,14952,1,8,0:0:0:0:
216,71,15305,1,2,0:0:0:0:
265,186,15482,6,0,L|257:315,1,112.5,6|0,0:0|0:0,0:0:0:0:
259,322,15835,1,2,0:0:0:0:
77,248,16011,1,8,0:0:0:0:
77,248,16364,1,2,0:0:0:0:
181,129,16541,6,4,P|228:116|268:115,1,75,8|2,0:0|0:0,0:0:0:0:
344,268,16894,2,0,P|384:280|428:284,1,75,2|2,0:0|0:0,0:0:0:0:
506,248,17247,1,2,0:0:0:0:
147,242,27835,5,8,0:0:0:0:
334,211,28011,1,8,0:0:0:0:
217,112,28188,1,2,0:0:0:0:
245,254,28364,1,8,0:0:0:0:
313,91,28541,6,0,P|324:58|329:18,1,60,4|0,0:0|0:0,0:0:0:0:
224,101,28894,2,0,L|237:185,1,60,8|0,0:0|0:0,0:0:0:0:
246,253,29247,1,0,0:0:0:0:
335,205,29423,1,2,0:0:0:0:
152,152,29600,2,0,L|84:149,1,60,8|0,0:0|0:0,0:0:0:0:
251,265,29952,6,0,P|259:298|258:331,1,60,0|2,0:0|0:0,0:0:0:0:
149,297,30305,2,0,L|156:230,1,60,8|0,0:0|0:0,0:0:0:0:
157,145,30658,1,2,0:0:0:0:
248,189,30835,1,2,0:0:0:0:
71,122,31011,1,10,0:0:0:0:
234,46,31188,1,0,0:0:0:0:
234,46,31276,1,0,0:0:0:0:
234,46,31364,6,0,P|275:48|314:60,1,60
373,146,31717,2,0,P|415:150|451:147,1,60,8|2,0:0|0:0,0:0:0:0:
283,136,32070,1,0,0:0:0:0:
340,219,32247,1,2,0:0:0:0:
398,74,32423,2,0,L|387:-5,1,60,8|0,0:0|0:0,0:0:0:0:
348,234,32776,6,0,P|342:276|341:317,1,60,0|2,0:0|0:0,0:0:0:0:
428,370,33129,2,0,L|421:304,1,60,8|0,0:0|0:0,0:0:0:0:
348,371,33482,1,2,0:0:0:0:
505,340,33658,1,2,0:0:0:0:
418,211,33835,1,10,0:0:0:0:
257,320,34011,1,0,0:0:0:0:
257,320,34100,1,0,0:0:0:0:
257,320,34188,6,0,P|210:330|185:331,1,60,2|0,0:0|0:0,0:0:0:0:
61,265,34541,2,0,L|-11:261,1,60,8|2,0:0|0:0,0:0:0:0:
105,339,34894,1,0,0:0:0:0:
165,231,35070,1,2,0:0:0:0:
72,146,35247,2,0,P|25:138|-9:138,1,60,8|0,0:0|0:0,0:0:0:0:
192,118,35600,6,0,L|260:117,1,60,0|2,0:0|0:0,0:0:0:0:
143,28,35952,2,0,P|102:31|66:40,1,60,8|0,0:0|0:0,0:0:0:0:
136,172,36305,1,2,0:0:0:0:
218,41,36482,1,2,0:0:0:0:
63,120,36658,2,0,L|58:199,1,60,10|0,0:0|0:0,0:0:0:0:
141,295,37011,6,0,B|176:304|176:304|210:308,1,60,2|0,0:0|0:0,0:0:0:0:
59,265,37364,2,0,L|-14:269,1,60,8|2,0:0|0:0,0:0:0:0:
211,178,37717,2,0,P|223:138|227:111,1,60,0|2,0:0|0:0,0:0:0:0:
134,45,38070,2,0,L|141:123,1,60,8|0,0:0|0:0,0:0:0:0:
334,268,38423,2,0,L|339:187,1,60,0|2,0:0|0:0,0:0:0:0:
214,295,38776,2,0,P|221:345|230:368,1,60,8|2,0:0|0:0,0:0:0:0:
283,142,39129,5,8,0:0:0:0:
283,142,39217,1,8,0:0:0:0:
283,142,39305,1,2,0:0:0:0:
415,338,39482,1,8,0:0:0:0:
415,338,39570,1,8,0:0:0:0:
415,338,39658,1,2,0:0:0:0:
250,227,39835,5,6,0:0:0:0:
365,182,40011,1,0,0:0:0:0:
276,317,40188,2,0,L|217:320,1,44.999998626709,8|2,0:0|0:0,0:0:0:0:
324,244,40541,1,2,0:0:0:0:
350,364,40717,1,0,0:0:0:0:
159,257,40894,2,0,L|105:252,1,44.999998626709,8|0,0:0|0:0,0:0:0:0:
78,117,41247,5,2,0:0:0:0:
247,156,41423,1,0,0:0:0:0:
43,211,41600,1,8,0:0:0:0:
160,129,41776,1,2,0:0:0:0:
160,129,41864,1,2,0:0:0:0:
160,129,41952,2,0,L|156:72,1,44.999998626709,2|2,0:0|0:0,0:0:0:0:
218,300,42305,2,0,L|210:349,1,44.999998626709,8|2,0:0|0:0,0:0:0:0:
268,217,42658,5,2,0:0:0:0:
419,243,42835,1,2,0:0:0:0:
328,123,43011,2,0,P|296:120|263:122,1,44.999998626709,10|2,0:0|0:0,0:0:0:0:
344,228,43364,1,2,0:0:0:0:
440,103,43541,1,2,0:0:0:0:
263,199,43717,2,0,L|269:260,1,44.999998626709,10|2,0:0|0:0,0:0:0:0:
336,340,44070,5,2,0:0:0:0:
425,201,44247,1,2,0:0:0:0:
231,316,44423,1,10,0:0:0:0:
419,300,44600,1,2,0:0:0:0:
235,239,44776,2,0,L|181:234,1,44.999998626709,2|2,0:0|0:0,0:0:0:0:
400,306,45129,2,0,L|448:306,1,44.999998626709,10|0,0:0|0:0,0:0:0:0:
293,166,45482,5,6,0:0:0:0:
241,255,45658,1,2,0:0:0:0:
187,128,45835,2,0,L|181:75,1,44.999998626709,10|2,0:0|0:0,0:0:0:0:
287,160,46188,1,2,0:0:0:0:
179,209,46364,1,2,0:0:0:0:
320,70,46541,2,0,P|349:71|369:76,1,44.999998626709,10|2,0:0|0:0,0:0:0:0:
148,96,46894,5,2,0:0:0:0:
241,233,47070,1,2,0:0:0:0:
214,34,47247,1,10,0:0:0:0:
101,196,47423,1,2,0:0:0:0:
101,196,47511,1,2,0:0:0:0:
101,196,47600,2,0,L|48:200,1,44.999998626709,2|2,0:0|0:0,0:0:0:0:
229,141,47952,2,0,L|281:146,1,44.999998626709,10|2,0:0|0:0,0:0:0:0:
102,96,48305,5,10,0:0:0:0:
198,203,48482,1,2,0:0:0:0:
262,72,48658,1,10,0:0:0:0:
109,240,48835,1,2,0:0:0:0:
182,43,49011,1,10,0:0:0:0:
316,232,49188,1,2,0:0:0:0:
107,251,49364,1,10,0:0:0:0:
356,84,49541,1,2,0:0:0:0:
232,344,49717,5,10,0:0:0:0:
227,104,51129,6,0,P|169:84|100:143,1,134.999995880127,6|0,0:0|0:0,0:0:0:0:
84,168,51482,1,8,0:0:0:0:
237,257,51658,2,0,L|383:246,1,134.999995880127,2|0,0:0|0:0,0:0:0:0:
425,237,52011,1,2,0:0:0:0:
174,164,52188,2,0,P|160:207|166:301,1,134.999995880127,8|0,0:0|0:0,0:0:0:0:
191,342,52541,5,0,0:0:0:0:
239,239,52717,1,2,0:0:0:0:
90,282,52894,2,0,L|-6:271,1,89.9999972534181,8|0,0:0|0:0,0:0:0:0:
240,215,53247,1,2,0:0:0:0:
306,378,53423,1,2,0:0:0:0:
162,349,53600,1,10,0:0:0:0:
253,310,53776,1,0,0:0:0:0:
218,108,53952,6,0,P|161:81|80:105,1,134.999995880127,2|0,0:0|0:0,0:0:0:0:
53,132,54305,1,8,0:0:0:0:
127,205,54482,2,0,P|139:251|132:348,1,134.999995880127,2|0,0:0|0:0,0:0:0:0:
122,371,54835,1,2,0:0:0:0:
316,384,55011,2,0,L|295:240,1,134.999995880127,8|0,0:0|0:0,0:0:0:0:
278,200,55364,5,0,0:0:0:0:
438,225,55541,1,2,0:0:0:0:
324,96,55717,2,0,P|263:95|214:108,1,89.9999972534181,8|0,0:0|0:0,0:0:0:0:
350,240,56070,1,2,0:0:0:0:
422,120,56247,1,2,0:0:0:0:
348,163,56423,1,10,0:0:0:0:
447,224,56600,1,0,0:0:0:0:
264,144,56776,6,0,P|246:97|340:17,1,179.999994506836,6|0,0:0|0:0,0:0:0:0:
320,234,57305,2,0,B|274:266|222:246|222:246|182:259|182:259|121:250,1,179.999994506836,2|2,0:0|0:0,0:0:0:0:
33,148,57835,2,0,L|133:161,1,89.9999972534181,8|0,0:0|0:0,0:0:0:0:
360,303,58188,6,0,P|404:264|359:163,1,179.999994506836,2|0,0:0|0:0,0:0:0:0:
250,369,58717,2,0,B|297:364|297:364|340:382|340:382|433:374,1,179.999994506836,2|2,0:0|0:0,0:0:0:0:
226,267,59247,2,0,L|134:255,1,89.9999972534181,8|0,0:0|0:0,0:0:0:0:
312,122,59600,5,6,0:0:0:0:
342,265,59776,1,0,0:0:0:0:
201,129,59952,2,0,P|207:79|218:33,1,89.9999972534181,8|2,0:0|0:0,0:0:0:0:
336,108,60305,5,0,0:0:0:0:
366,251,60481,1,2,0:0:0:0:
227,116,60658,2,0,P|233:66|246:16,1,89.9999972534181,8|0,0:0|0:0,0:0:0:0:
352,92,61011,5,0,0:0:0:0:
382,235,61187,1,2,0:0:0:0:
241,99,61364,2,0,P|247:49|258:3,1,89.9999972534181,8|0,0:0|0:0,0:0:0:0:
314,150,61717,5,8,0:0:0:0:
274,171,61805,1,8,0:0:0:0:
230,175,61893,1,8,0:0:0:0:
187,162,61981,1,8,0:0:0:0:
151,144,62070,1,2,0:0:0:0:
108,132,62158,1,2,0:0:0:0:
65,146,62247,1,2,0:0:0:0:
37,179,62334,1,2,0:0:0:0:
18,218,62423,6,0,B|13:273|29:354,1,134.999995880127,6|0,0:0|0:0,0:0:0:0:
75,380,62776,1,8,0:0:0:0:
268,227,62952,2,0,L|118:221,1,134.999995880127,2|0,0:0|0:0,0:0:0:0:
82,242,63305,1,2,0:0:0:0:
342,302,63482,2,0,P|292:334|205:324,1,134.999995880127,8|0,0:0|0:0,0:0:0:0:
170,305,63835,5,0,0:0:0:0:
290,199,64011,1,2,0:0:0:0:
138,136,64188,2,0,L|40:127,1,89.9999972534181,8|0,0:0|0:0,0:0:0:0:
280,191,64541,1,2,0:0:0:0:
217,49,64717,1,2,0:0:0:0:
149,145,64894,1,10,0:0:0:0:
261,116,65070,1,0,0:0:0:0:
348,297,65247,6,0,B|411:357|493:316,1,134.999995880127,2|0,0:0|0:0,0:0:0:0:
508,293,65600,1,8,0:0:0:0:
233,205,65776,2,0,P|222:258|229:348,1,134.999995880127,2|0,0:0|0:0,0:0:0:0:
257,383,66129,1,2,0:0:0:0:
332,105,66305,2,0,L|350:246,1,134.999995880127,8|0,0:0|0:0,0:0:0:0:
356,286,66658,5,0,0:0:0:0:
243,133,66835,1,2,0:0:0:0:
423,198,67011,2,0,L|519:205,1,89.9999972534181,8|0,0:0|0:0,0:0:0:0:
350,117,67364,1,2,0:0:0:0:
291,261,67541,1,2,0:0:0:0:
424,209,67717,1,10,0:0:0:0:
300,183,67894,1,0,0:0:0:0:
229,6,68070,6,0,P|184:-8|89:87,1,179.999994506836,6|8,0:0|0:0,0:0:0:0:
175,251,68600,2,0,B|183:206|183:206|175:168|175:168|188:125|174:67,1,179.999994506836,2|2,0:0|0:0,0:0:0:0:
80,208,69129,2,0,B|78:206|82:212|70:307,1,89.9999972534181,8|0,0:0|0:0,0:0:0:0:
25,154,69482,6,0,P|90:133|157:235,1,179.999994506836,2|8,0:0|0:0,0:0:0:0:
83,384,70012,2,0,B|75:339|75:339|83:301|83:301|59:259|84:200,1,179.999994506836,2|2,0:0|0:0,0:0:0:0:
189,172,70541,2,0,L|195:286,1,89.9999972534181,8|0,0:0|0:0,0:0:0:0:
163,350,70894,6,0,P|221:306|286:319,1,134.999995880127,6|0,0:0|0:0,0:0:0:0:
326,341,71247,1,2,0:0:0:0:
371,150,71423,1,8,0:0:0:0:
371,150,71776,1,2,0:0:0:0:
166,51,71952,6,0,P|145:98|164:194,1,134.999995880127,6|0,0:0|0:0,0:0:0:0:
183,225,72305,1,2,0:0:0:0:
371,159,72481,1,8,0:0:0:0:
371,159,72835,1,2,0:0:0:0:
226,313,73011,5,8,0:0:0:0:
433,311,73188,1,0,0:0:0:0:
287,109,73364,1,8,0:0:0:0:
324,367,73541,1,8,0:0:0:0:
457,151,73717,6,0,B|488:93|462:44|412:28|412:28|358:48|358:48|311:44|259:26,1,300,6|6,0:0|0:0,0:0:0:0:
132,255,76541,1,12,0:0:0:0:
