osu file format v14

[General]
AudioFilename: audio.mp3
AudioLeadIn: 0
PreviewTime: 50248
Countdown: 0
SampleSet: Normal
StackLeniency: 0.7
Mode: 0
LetterboxInBreaks: 0
WidescreenStoryboard: 0

[Editor]
DistanceSpacing: 2
BeatDivisor: 4
GridSize: 4
TimelineZoom: 1

[Metadata]
Title:Hawaii (Stay Awake)
TitleUnicode:Hawaii (Stay Awake)
Artist:Waterparks
ArtistUnicode:Waterparks
Creator:Dashyy-
Version:Hard
Source:
Tags:pop punk alt rock double dare otto wood awsten knight geoff wigington equal vision records
BeatmapID:1333149
BeatmapSetID:626065

[Difficulty]
HPDrainRate:5.5
CircleSize:4
OverallDifficulty:6
ApproachRate:7.5
SliderMultiplier:1.3
SliderTickRate:1

[Events]
//Background and Video events
0,0,"tokyo_street_by_arsenixc-daj4ocm.jpg",0,0
//Break Periods
2,17447,27010
//Storyboard Layer 0 (Background)
//Storyboard Layer 1 (Fail)
//Storyboard Layer 2 (Pass)
//Storyboard Layer 3 (Foreground)
//Storyboard Sound Samples

[TimingPoints]
5953,352.941176470588,4,1,1,80,1,0
14688,-100,4,1,1,5,0,0
14776,-100,4,1,1,80,0,0
15747,-100,4,1,1,5,0,0
15835,-100,4,1,1,80,0,0
28541,-100,4,1,1,60,0,0
28542,-100,4,1,1,60,0,0
39130,-100,4,1,1,60,0,0
39836,-100,4,1,1,60,0,0
48306,-100,4,1,1,40,0,0
48659,-100,4,1,1,55,0,0
49012,-100,4,1,1,70,0,0
49365,-100,4,1,1,85,0,0
49718,-100,4,1,1,100,0,0
51129,-83.3333333333333,4,1,1,90,0,1
51394,-83.3333333333333,4,1,1,5,0,1
51482,-83.3333333333333,4,1,1,90,0,1
51923,-83.3333333333333,4,1,1,5,0,1
52011,-83.3333333333333,4,1,1,90,0,1
52452,-83.3333333333333,4,1,1,5,0,1
52541,-83.3333333333333,4,1,1,90,0,1
54217,-83.3333333333333,4,1,1,5,0,1
54305,-83.3333333333333,4,1,1,90,0,1
54747,-83.3333333333333,4,1,1,5,0,1
54835,-83.3333333333333,4,1,1,90,0,1
55276,-83.3333333333333,4,1,1,5,0,1
55364,-83.3333333333333,4,1,1,90,0,1
61717,-83.3333333333333,4,1,1,90,0,0
62071,-83.3333333333333,4,1,1,70,0,0
62423,-83.3333333333333,4,1,1,90,0,1
62688,-83.3333333333333,4,1,1,5,0,1
62776,-83.3333333333333,4,1,1,90,0,1
63217,-83.3333333333333,4,1,1,5,0,1
63305,-83.3333333333333,4,1,1,90,0,1
63747,-83.3333333333333,4,1,1,5,0,1
63835,-83.3333333333333,4,1,1,90,0,1
65511,-83.3333333333333,4,1,1,5,0,1
65600,-83.3333333333333,4,1,1,90,0,1
66041,-83.3333333333333,4,1,1,5,0,1
66129,-83.3333333333333,4,1,1,90,0,1
66570,-83.3333333333333,4,1,1,5,0,1
66658,-83.3333333333333,4,1,1,90,0,1
71158,-83.3333333333333,4,1,1,5,0,1
71247,-83.3333333333333,4,1,1,90,0,1
72217,-83.3333333333333,4,1,1,5,0,1
72305,-83.3333333333333,4,1,1,90,0,1
73717,-142.857142857143,4,1,1,100,0,0
76541,-100,4,1,1,100,0,0
79364,-100,4,1,1,15,0,0

[Colours]
Combo1 : 192,192,192
Combo2 : 0,160,255
Combo3 : 0,255,255
Combo4 : 232,232,232

[HitObjects]
149,230,5601,5,2,0:0:0:0:
149,230,5953,6,0,L|285:227,1,130,6|8,0:0|0:0,0:0:0:0:
344,172,6482,1,2,0:0:0:0:
419,227,6658,2,0,P|432:267|430:298,1,65,0|2,0:0|0:0,0:0:0:0:
323,384,7011,6,0,B|327:336|327:336|341:305|341:305|346:229,1,130,8|0,0:0|0:0,0:0:0:0:
349,179,7541,1,2,0:0:0:0:
280,126,7717,2,0,P|240:115|206:115,1,65,8|0,0:0|0:0,0:0:0:0:
168,182,8070,2,0,P|130:192|96:194,1,65,2|2,0:0|0:0,0:0:0:0:
39,149,8423,2,0,L|46:75,1,65,8|0,0:0|0:0,0:0:0:0:
136,0,8776,6,0,P|157:40|89:111,1,130,6|8,0:0|0:0,0:0:0:0:
45,159,9305,1,2,0:0:0:0:
64,234,9482,2,0,L|63:305,1,65,0|2,0:0|0:0,0:0:0:0:
124,352,9835,6,0,P|163:369|246:344,1,130,8|0,0:0|0:0,0:0:0:0:
272,272,10364,1,2,0:0:0:0:
346,297,10541,2,0,L|337:210,1,65,8|0,0:0|0:0,0:0:0:0:
305,161,10894,1,2,0:0:0:0:
242,115,11070,1,2,0:0:0:0:
310,77,11247,2,0,P|348:80|376:90,1,65,8|0,0:0|0:0,0:0:0:0:
494,218,11600,6,0,L|362:227,1,130,6|8,0:0|0:0,0:0:0:0:
291,198,12129,1,2,0:0:0:0:
244,260,12305,2,0,P|207:268|171:265,1,65,0|2,0:0|0:0,0:0:0:0:
94,212,12658,6,0,B|94:173|94:173|81:142|81:142|83:106|98:71,1,130,8|0,0:0|0:0,0:0:0:0:
149,32,13188,1,2,0:0:0:0:
210,79,13364,2,0,P|254:87|283:84,1,65,8|0,0:0|0:0,0:0:0:0:
343,49,13717,2,0,P|382:39|414:44,1,65,2|2,0:0|0:0,0:0:0:0:
467,90,14070,2,0,L|484:171,1,65,8|0,0:0|0:0,0:0:0:0:
479,282,14423,6,0,P|444:294|357:264,1,130,6|2,0:0|0:0,0:0:0:0:
318,199,14952,1,8,0:0:0:0:
178,69,15482,6,0,L|177:206,1,130,6|2,0:0|0:0,0:0:0:0:
190,276,16011,1,8,0:0:0:0:
418,327,16541,6,0,L|410:248,1,65,8|2,0:0|0:0,0:0:0:0:
334,225,16894,2,0,L|340:310,1,65,2|2,0:0|0:0,0:0:0:0:
286,344,17247,1,2,0:0:0:0:
105,0,27835,5,8,0:0:0:0:
161,53,28011,1,8,0:0:0:0:
134,126,28188,1,2,0:0:0:0:
194,175,28364,1,8,0:0:0:0:
122,207,28541,6,0,L|46:203,1,65,4|0,0:0|0:0,0:0:0:0:
3,260,28894,2,0,P|-1:302|12:346,1,65,8|0,0:0|0:0,0:0:0:0:
77,347,29247,2,0,L|85:268,2,65,0|2|8,0:0|0:0|0:0,0:0:0:0:
151,369,29776,1,0,0:0:0:0:
222,338,29952,6,0,P|265:327|294:328,1,65,0|2,0:0|0:0,0:0:0:0:
360,350,30305,2,0,P|399:356|441:352,1,65,8|0,0:0|0:0,0:0:0:0:
445,279,30658,2,0,L|521:274,2,65,2|2|10,0:0|0:0|0:0,0:0:0:0:
367,263,31188,1,0,0:0:0:0:
367,263,31276,1,0,0:0:0:0:
367,263,31364,6,0,P|349:217|356:175,1,65,0|0,0:0|0:0,0:0:0:0:
385,132,31717,2,0,P|394:86|390:53,1,65,8|2,0:0|0:0,0:0:0:0:
323,32,32070,2,0,L|239:26,2,65,0|2|8,0:0|0:0|0:0,0:0:0:0:
291,104,32600,1,0,0:0:0:0:
214,92,32776,6,0,L|143:101,1,65,0|2,0:0|0:0,0:0:0:0:
72,106,33129,2,0,P|58:148|64:194,1,65,8|0,0:0|0:0,0:0:0:0:
103,234,33482,2,0,L|109:325,2,65,2|2|10,0:0|0:0|0:0,0:0:0:0:
177,181,34011,1,0,0:0:0:0:
177,181,34100,1,0,0:0:0:0:
177,181,34188,6,0,P|186:228|184:261,1,65,2|0,0:0|0:0,0:0:0:0:
183,321,34541,2,0,L|271:325,1,65,8|2,0:0|0:0,0:0:0:0:
316,362,34894,2,0,L|399:357,2,65,0|2|8,0:0|0:0|0:0,0:0:0:0:
310,280,35423,1,0,0:0:0:0:
304,201,35600,6,0,P|348:184|392:189,1,65,0|2,0:0|0:0,0:0:0:0:
423,237,35952,2,0,P|467:248|500:242,1,65,8|0,0:0|0:0,0:0:0:0:
511,164,36305,2,0,L|499:90,2,65,2|2|10,0:0|0:0|0:0,0:0:0:0:
511,241,36835,1,0,0:0:0:0:
481,316,37011,6,0,L|403:312,1,65,2|0,0:0|0:0,0:0:0:0:
346,277,37364,2,0,L|268:273,1,65,8|2,0:0|0:0,0:0:0:0:
216,229,37717,2,0,L|138:225,1,65,0|2,0:0|0:0,0:0:0:0:
81,190,38070,2,0,L|3:186,1,65,8|0,0:0|0:0,0:0:0:0:
48,115,38423,6,0,P|91:113|124:126,1,65,0|2,0:0|0:0,0:0:0:0:
167,173,38776,2,0,P|212:180|254:168,1,65,8|2,0:0|0:0,0:0:0:0:
275,112,39129,2,0,L|278:68,2,32.5,8|8|2,0:0|0:0|0:0,0:0:0:0:
313,179,39482,2,0,L|317:221,2,32.5,8|8|2,0:0|0:0|0:0,0:0:0:0:
357,114,39835,6,0,P|390:98|473:141,1,130,6|8,0:0|0:0,0:0:0:0:
496,207,40364,1,2,0:0:0:0:
464,278,40541,2,0,L|386:282,1,65,2|0,0:0|0:0,0:0:0:0:
322,265,40894,2,0,P|286:263|250:278,1,65,8|0,0:0|0:0,0:0:0:0:
174,334,41247,6,0,P|128:347|52:299,1,130,2|8,0:0|0:0,0:0:0:0:
42,230,41776,1,2,0:0:0:0:
42,230,41864,1,2,0:0:0:0:
42,230,41952,2,0,L|46:152,1,65,2|2,0:0|0:0,0:0:0:0:
53,87,42305,2,0,B|63:45|63:45|75:17,1,65,8|2,0:0|0:0,0:0:0:0:
193,64,42658,6,0,L|201:202,1,130,2|10,0:0|0:0,0:0:0:0:
192,272,43188,1,2,0:0:0:0:
118,244,43364,2,0,P|104:201|108:165,1,65,2|2,0:0|0:0,0:0:0:0:
160,133,43717,2,0,L|234:129,1,65,10|2,0:0|0:0,0:0:0:0:
319,153,44070,6,0,B|372:150|372:150|397:134|397:134|459:131,1,130,2|10,0:0|0:0,0:0:0:0:
511,170,44600,1,2,0:0:0:0:
447,217,44776,2,0,P|437:256|450:292,1,65,2|2,0:0|0:0,0:0:0:0:
482,357,45129,2,0,L|413:353,1,65,10|0,0:0|0:0,0:0:0:0:
305,301,45482,6,0,B|255:297|255:297|229:284|229:284|199:287|165:309,1,130,6|10,0:0|0:0,0:0:0:0:
119,347,46011,1,2,0:0:0:0:
81,278,46188,2,0,L|88:208,1,65,2|2,0:0|0:0,0:0:0:0:
114,140,46541,2,0,P|149:148|177:167,1,65,10|2,0:0|0:0,0:0:0:0:
298,261,46894,6,0,P|354:257|381:182,1,130,2|10,0:0|0:0,0:0:0:0:
346,127,47423,1,2,0:0:0:0:
346,127,47511,1,2,0:0:0:0:
346,127,47600,2,0,L|271:122,1,65,2|2,0:0|0:0,0:0:0:0:
188,89,47952,2,0,P|172:126|167:162,1,65,10|2,0:0|0:0,0:0:0:0:
99,246,48305,6,0,L|168:242,1,65,10|2,0:0|0:0,0:0:0:0:
238,219,48658,2,0,L|307:215,1,65,10|2,0:0|0:0,0:0:0:0:
380,210,49011,1,10,0:0:0:0:
437,262,49188,1,2,0:0:0:0:
343,281,49364,1,10,0:0:0:0:
490,318,49541,1,2,0:0:0:0:
315,352,49717,1,10,0:0:0:0:
210,105,51129,6,0,P|159:80|68:122,1,155.999995239258,6|8,0:0|0:0,0:0:0:0:
32,203,51658,2,0,B|35:249|35:249|56:280|56:280|66:367,1,155.999995239258,2|2,0:0|0:0,0:0:0:0:
158,324,52188,2,0,L|145:161,1,155.999995239258,8|0,0:0|0:0,0:0:0:0:
194,88,52717,1,2,0:0:0:0:
272,138,52894,2,0,P|316:153|354:153,1,77.999997619629,8|0,0:0|0:0,0:0:0:0:
425,128,53247,1,2,0:0:0:0:
403,213,53423,1,2,0:0:0:0:
449,306,53600,2,0,L|461:405,1,77.999997619629,10|0,0:0|0:0,0:0:0:0:
337,309,53952,6,0,B|281:309|281:309|257:320|257:320|180:319,1,155.999995239258,2|8,0:0|0:0,0:0:0:0:
110,259,54482,2,0,B|106:213|106:213|88:185|88:185|89:146|111:108,1,155.999995239258,2|2,0:0|0:0,0:0:0:0:
191,66,55011,2,0,P|242:87|236:188,1,155.999995239258,8|0,0:0|0:0,0:0:0:0:
194,256,55541,1,2,0:0:0:0:
292,307,55717,2,0,L|379:310,1,77.999997619629,8|0,0:0|0:0,0:0:0:0:
451,263,56070,1,2,0:0:0:0:
385,195,56247,1,2,0:0:0:0:
462,104,56423,2,0,P|470:61|464:14,1,77.999997619629,10|0,0:0|0:0,0:0:0:0:
352,2,56776,6,0,L|178:12,1,155.999995239258,6|0,0:0|0:0,0:0:0:0:
115,58,57305,2,0,P|96:115|140:202,1,155.999995239258,2|2,0:0|0:0,0:0:0:0:
215,247,57835,1,8,0:0:0:0:
362,129,58188,6,0,P|418:113|477:208,1,155.999995239258,2|0,0:0|0:0,0:0:0:0:
452,266,58717,2,0,L|283:269,1,155.999995239258,2|2,0:0|0:0,0:0:0:0:
224,329,59247,1,8,0:0:0:0:
90,198,59600,6,0,L|106:104,1,77.999997619629,6|0,0:0|0:0,0:0:0:0:
204,32,59952,2,0,P|260:28|294:41,1,77.999997619629,8|2,0:0|0:0,0:0:0:0:
335,98,60305,1,0,0:0:0:0:
360,187,60482,1,2,0:0:0:0:
214,259,60658,2,0,L|123:256,1,77.999997619629,8|0,0:0|0:0,0:0:0:0:
48,223,61011,1,0,0:0:0:0:
75,133,61188,1,2,0:0:0:0:
209,169,61364,2,0,L|309:173,1,77.999997619629,8|0,0:0|0:0,0:0:0:0:
367,200,61717,6,0,L|372:241,3,38.9999988098145,8|8|8|8,0:0|0:0|0:0|0:0,0:0:0:0:
361,284,62070,2,0,L|366:325,3,38.9999988098145,2|2|2|2,0:0|0:0|0:0|0:0,0:0:0:0:
338,361,62423,6,0,P|296:368|257:270,1,155.999995239258,6|8,0:0|0:0,0:0:0:0:
311,210,62952,2,0,B|369:213|369:213|396:198|396:198|470:202,1,155.999995239258,2|2,0:0|0:0,0:0:0:0:
481,108,63482,2,0,L|320:99,1,155.999995239258,8|0,0:0|0:0,0:0:0:0:
250,61,64011,1,2,0:0:0:0:
153,139,64188,2,0,P|138:182|139:218,1,77.999997619629,8|0,0:0|0:0,0:0:0:0:
202,290,64541,1,2,0:0:0:0:
238,197,64717,1,2,0:0:0:0:
104,281,64894,2,0,L|18:272,1,77.999997619629,10|0,0:0|0:0,0:0:0:0:
135,353,65247,6,0,P|190:379|272:343,1,155.999995239258,2|8,0:0|0:0,0:0:0:0:
300,253,65776,2,0,B|294:204|294:204|308:170|308:170|299:83,1,155.999995239258,2|2,0:0|0:0,0:0:0:0:
207,90,66305,2,0,B|213:139|213:139|199:173|199:173|208:260,1,155.999995239258,8|0,0:0|0:0,0:0:0:0:
222,335,66835,1,2,0:0:0:0:
293,232,67011,2,0,P|341:221|377:232,1,77.999997619629,8|0,0:0|0:0,0:0:0:0:
436,301,67364,1,2,0:0:0:0:
340,314,67541,1,2,0:0:0:0:
452,212,67717,2,0,L|460:115,1,77.999997619629,10|0,0:0|0:0,0:0:0:0:
415,20,68070,6,0,P|362:60|276:45,1,155.999995239258,6|8,0:0|0:0,0:0:0:0:
191,8,68600,2,0,B|134:11|134:11|105:27|105:27|25:28,1,155.999995239258,2|2,0:0|0:0,0:0:0:0:
0,105,69129,1,8,0:0:0:0:
111,255,69482,6,0,P|111:295|26:374,1,155.999995239258,2|8,0:0|0:0,0:0:0:0:
21,282,70011,2,0,B|78:277|78:277|107:293|107:293|187:281,1,155.999995239258,2|2,0:0|0:0,0:0:0:0:
257,244,70541,1,8,0:0:0:0:
414,340,70894,6,0,P|438:281|421:183,1,155.999995239258,6|2,0:0|0:0,0:0:0:0:
373,113,71423,1,8,0:0:0:0:
60,26,71952,6,0,L|78:197,1,155.999995239258,6|2,0:0|0:0,0:0:0:0:
46,270,72482,1,8,0:0:0:0:
186,263,72835,5,8,0:0:0:0:
241,338,73012,1,8,0:0:0:0:
281,253,73188,1,0,0:0:0:0:
335,329,73365,1,8,0:0:0:0:
369,242,73541,1,2,0:0:0:0:
433,306,73717,6,0,B|450:257|450:257|438:220|438:220|514:138|496:37|392:15|367:9,1,363.999988891602,6|6,0:0|0:0,0:0:0:0:
140,66,76541,1,12,0:0:0:0:
