osu file format v14

[General]
AudioFilename: audio.mp3
AudioLeadIn: 0
PreviewTime: 50248
Countdown: 0
SampleSet: Normal
StackLeniency: 0.7
Mode: 0
LetterboxInBreaks: 0
WidescreenStoryboard: 1

[Editor]
DistanceSpacing: 1
BeatDivisor: 2
GridSize: 4
TimelineZoom: 1

[Metadata]
Title:Hawaii (Stay Awake)
TitleUnicode:Hawaii (Stay Awake)
Artist:Waterparks
ArtistUnicode:Waterparks
Creator:Dashyy-
Version:Easy
Source:
Tags:pop punk alt rock double dare otto wood awsten knight geoff wigington equal vision records
BeatmapID:1416951
BeatmapSetID:626065

[Difficulty]
HPDrainRate:2
CircleSize:3.2
OverallDifficulty:2
ApproachRate:3.5
SliderMultiplier:0.8
SliderTickRate:1

[Events]
//Background and Video events
0,0,"tokyo_street_by_arsenixc-daj4ocm.jpg",0,0
//Break Periods
2,17446,26455
//Storyboard Layer 0 (Background)
//Storyboard Layer 1 (Fail)
//Storyboard Layer 2 (Pass)
//Storyboard Layer 3 (Foreground)
//Storyboard Sound Samples

[TimingPoints]
5953,352.941176470588,4,1,1,80,1,0
14688,-100,4,1,1,5,0,0
14776,-100,4,1,1,80,0,0
15747,-100,4,1,1,5,0,0
15835,-100,4,1,1,80,0,0
28541,-100,4,1,1,60,0,0
28542,-100,4,1,1,60,0,0
48306,-100,4,1,1,40,0,0
48659,-100,4,1,1,55,0,0
49012,-100,4,1,1,70,0,0
49365,-100,4,1,1,85,0,0
49718,-100,4,1,1,100,0,0
51129,-100,4,1,1,90,0,1
51394,-100,4,1,1,5,0,1
51482,-100,4,1,1,90,0,1
51923,-100,4,1,1,5,0,1
52011,-100,4,1,1,90,0,1
52452,-100,4,1,1,5,0,1
52541,-100,4,1,1,90,0,1
54217,-100,4,1,1,5,0,1
54305,-100,4,1,1,90,0,1
54747,-100,4,1,1,5,0,1
54835,-100,4,1,1,90,0,1
55276,-100,4,1,1,5,0,1
55364,-100,4,1,1,90,0,1
61717,-100,4,1,1,90,0,0
62070,-100,4,1,1,90,0,0
62071,-100,4,1,1,70,0,0
62423,-100,4,1,1,90,0,1
62688,-100,4,1,1,5,0,1
62776,-100,4,1,1,90,0,1
63217,-100,4,1,1,5,0,1
63305,-100,4,1,1,90,0,1
63747,-100,4,1,1,5,0,1
63835,-100,4,1,1,90,0,1
65511,-100,4,1,1,5,0,1
65600,-100,4,1,1,90,0,1
66041,-100,4,1,1,5,0,1
66129,-100,4,1,1,90,0,1
66570,-100,4,1,1,5,0,1
66658,-100,4,1,1,90,0,1
71158,-100,4,1,1,5,0,1
71247,-100,4,1,1,90,0,1
72217,-100,4,1,1,5,0,1
72305,-100,4,1,1,90,0,1
73717,-100,4,1,1,100,0,0
76542,-100,4,1,1,100,0,0
79364,-100,4,1,1,15,0,0

[Colours]
Combo1 : 192,192,192
Combo2 : 0,160,255
Combo3 : 0,255,255
Combo4 : 232,232,232

[HitObjects]
48,131,5600,5,2,0:0:0:0:
100,71,5953,6,0,P|137:53|259:99,1,160,6|0,0:0|0:0,0:0:0:0:
278,156,7011,2,0,B|276:217|276:217|286:253|286:253|285:323,1,160,8|8,0:0|0:0,0:0:0:0:
206,337,8070,2,0,L|206:237,1,80,2|8,0:0|0:0,0:0:0:0:
202,176,8776,6,0,P|279:138|378:165,1,160,6|0,0:0|0:0,0:0:0:0:
429,156,9835,2,0,P|469:110|423:9,1,160,8|8,0:0|0:0,0:0:0:0:
365,4,10894,2,0,L|358:102,1,80,2|8,0:0|0:0,0:0:0:0:
343,162,11600,6,0,P|304:207|197:186,1,160,6|0,0:0|0:0,0:0:0:0:
164,135,12658,2,0,B|120:120|120:120|-11:140,1,160,8|8,0:0|0:0,0:0:0:0:
22,216,13717,2,0,L|113:201,1,80,2|8,0:0|0:0,0:0:0:0:
177,227,14423,6,0,B|226:238|226:238|317:223,1,120,6|8,0:0|0:0,0:0:0:0:
393,145,15482,2,0,L|403:277,1,120,6|8,0:0|0:0,0:0:0:0:
309,341,16541,2,0,L|315:254,2,80,8|2|2,0:0|0:0|0:0,0:0:0:0:
222,33,27835,6,0,P|175:27|131:33,1,80,8|2,0:0|0:0,0:0:0:0:
68,61,28541,6,0,L|75:241,1,160,4|0,0:0|0:0,0:0:0:0:
101,296,29600,1,8,0:0:0:0:
156,239,29952,2,0,P|193:215|293:282,1,160,0|2,0:0|0:0,0:0:0:0:
426,322,31364,6,0,L|410:157,1,160,0|0,0:0|0:0,0:0:0:0:
433,86,32423,1,8,0:0:0:0:
357,60,32776,2,0,B|308:53|308:53|280:68|280:68|181:55,1,160,0|2,0:0|0:0,0:0:0:0:
46,20,34188,6,0,P|78:64|52:191,1,160,2|0,0:0|0:0,0:0:0:0:
6,211,35247,1,8,0:0:0:0:
71,257,35600,2,0,L|235:268,1,160,0|2,0:0|0:0,0:0:0:0:
382,319,37011,6,0,B|386:251|386:251|375:230|375:230|380:154,2,160,2|0|0,0:0|0:0|0:0,0:0:0:0:
233,257,39129,2,0,P|221:216|225:163,1,80,8|8,0:0|0:0,0:0:0:0:
245,102,39835,6,0,L|428:84,1,160,6|2,0:0|0:0,0:0:0:0:
478,228,41247,2,0,L|318:215,1,160,2|2,0:0|0:0,0:0:0:0:
179,135,42658,6,0,P|199:177|170:293,1,160,2|2,0:0|0:0,0:0:0:0:
33,213,44070,2,0,P|13:171|42:55,1,160,2|2,0:0|0:0,0:0:0:0:
192,30,45482,6,0,B|269:24|269:24|294:39|294:39|369:31,1,160,6|2,0:0|0:0,0:0:0:0:
462,145,46894,2,0,B|388:137|388:137|355:152|355:152|285:145,1,160,2|2,0:0|0:0,0:0:0:0:
165,70,48305,6,0,P|185:115|188:162,1,80,10|10,0:0|0:0,0:0:0:0:
143,211,49011,2,0,P|134:260|143:302,1,80,10|10,0:0|0:0,0:0:0:0:
182,356,49717,1,10,0:0:0:0:
426,149,51129,6,0,B|431:199|431:199|417:233|417:233|425:291,2,120,6|2|8,0:0|0:0|0:0,0:0:0:0:
380,83,52541,1,0,0:0:0:0:
338,151,52894,2,0,P|286:185|174:164,1,160,8|10,0:0|0:0,0:0:0:0:
117,146,53952,6,0,L|109:6,2,120,2|2|8,0:0|0:0|0:0,0:0:0:0:
141,222,55364,1,0,0:0:0:0:
92,285,55717,2,0,B|124:323|124:323|247:333,1,160,8|10,0:0|0:0,0:0:0:0:
312,316,56776,6,0,P|361:304|443:333,2,120,6|2|8,0:0|0:0|0:0,0:0:0:0:
234,296,58188,2,0,P|216:258|208:171,2,120,2|2|8,0:0|0:0|0:0,0:0:0:0:
312,316,59600,6,0,L|402:326,2,80,6|8|0,0:0|0:0|0:0,0:0:0:0:
342,242,60658,2,0,L|432:252,2,80,8|0|8,0:0|0:0|0:0,0:0:0:0:
296,176,61717,1,8,0:0:0:0:
351,118,62070,1,2,0:0:0:0:
296,59,62423,6,0,L|153:43,2,120,6|2|8,0:0|0:0|0:0,0:0:0:0:
351,118,63835,1,0,0:0:0:0:
277,150,64188,2,0,P|250:192|280:299,1,160,8|10,0:0|0:0,0:0:0:0:
347,324,65247,6,0,B|390:319|390:319|416:304|416:304|477:297,2,120,2|2|8,0:0|0:0|0:0,0:0:0:0:
284,373,66658,1,0,0:0:0:0:
227,315,67011,2,0,P|171:290|86:349,1,160,8|10,0:0|0:0,0:0:0:0:
18,302,68070,6,0,B|2:246|2:246|9:176,2,120,6|2|8,0:0|0:0|0:0,0:0:0:0:
86,259,69482,2,0,B|142:243|142:243|212:250,2,120,2|2|8,0:0|0:0|0:0,0:0:0:0:
122,330,70894,6,0,P|183:349|243:321,1,120,6|8,0:0|0:0,0:0:0:0:
293,229,71952,2,0,L|303:93,1,120,6|8,0:0|0:0,0:0:0:0:
224,17,73011,1,8,0:0:0:0:
145,27,73364,1,8,0:0:0:0:
66,36,73717,5,6,0:0:0:0:
233,308,75129,1,6,0:0:0:0:
400,35,76541,1,12,0:0:0:0:
