osu file format v14

[General]
AudioFilename: audio.mp3
AudioLeadIn: 0
PreviewTime: 50389
Countdown: 0
SampleSet: Normal
StackLeniency: 0.7
Mode: 0
LetterboxInBreaks: 1
EpilepsyWarning: 1
WidescreenStoryboard: 1

[Editor]
Bookmarks: 78624
DistanceSpacing: 1.1
BeatDivisor: 4
GridSize: 4
TimelineZoom: 2.5

[Metadata]
Title:Hawaii (Stay Awake)
TitleUnicode:Hawaii (Stay Awake)
Artist:Waterparks
ArtistUnicode:Waterparks
Creator:-Jash
Version:Another
Source:
Tags:rock Double Dare Equal Vision Records Pop Punk
BeatmapID:1490881
BeatmapSetID:704788

[Difficulty]
HPDrainRate:6
CircleSize:3.9
OverallDifficulty:7
ApproachRate:9.2
SliderMultiplier:1.5
SliderTickRate:1

[Events]
//Background and Video events
0,0,"watersparks-bg.jpeg",0,0
//Break Periods
//Storyboard Layer 0 (Background)
//Storyboard Layer 1 (Fail)
//Storyboard Layer 2 (Pass)
//Storyboard Layer 3 (Foreground)
//Storyboard Sound Samples

[TimingPoints]
366,352.941176470588,4,2,1,25,1,0
5307,-66.6666666666667,4,3,1,60,0,0
17307,-83.3333333333333,4,2,1,60,0,0
25424,-100,4,2,1,60,0,0
26307,-125,4,2,1,60,0,0
27189,-100,4,2,1,60,0,0
27899,-100,4,1,1,70,0,0
28601,-66.6666666666667,4,1,1,70,0,0
47836,-83.3333333333333,4,1,1,70,0,0
48369,-100,4,1,1,60,0,0
48899,-100,4,1,1,70,0,0
49428,-100,4,1,1,80,0,0
50483,-62.5,4,1,1,80,0,0
51189,-62.5,4,1,1,80,0,1
58242,352.941176470588,4,1,1,80,1,1
58242,-62.5,4,1,1,80,0,1
73771,-125,4,1,1,70,0,0
78712,-100,4,1,1,5,0,0

[Colours]
Combo1 : 20,89,250
Combo2 : 129,129,129
Combo3 : 60,151,181
Combo4 : 162,94,74

[HitObjects]
112,304,366,6,4,L|100:220,2,75
196,268,895,2,4,L|184:180,2,75
284,244,1424,2,4,L|272:160,2,75
368,208,1953,2,4,L|356:120,2,75
368,208,2483,5,4,0:0:0:0:
284,244,2660,1,4,0:0:0:0:
196,272,2836,1,4,0:0:0:0:
112,300,3013,1,4,0:0:0:0:
350,299,3189,6,4,L|360:373,2,75
284,172,3718,2,4,L|294:97,2,75
196,148,4247,2,4,L|206:73,2,75
112,112,4776,2,4,L|122:37,2,75
84,295,5307,2,0,P|154:284|198:260,1,112.500004291535
288,92,5660,1,8,0:0:0:0:
319,341,5836,1,0,0:0:0:0:
191,266,6013,6,0,B|185:220|185:220|193:198|193:198|185:130,1,112.500004291535,0|4,0:0|0:0,0:0:0:0:
388,132,6365,1,8,0:0:0:0:
171,343,6542,2,0,P|251:314|272:274,1,112.500004291535,0|4,0:0|0:0,0:0:0:0:
320,128,6895,2,0,P|294:154|280:182,1,56.2500021457673
175,226,7071,6,0,B|225:284|294:307|294:306,1,112.500004291535,8|0,0:0|0:0,0:0:0:0:
428,343,7424,1,0,0:0:0:0:
336,136,7601,1,0,0:0:0:0:
288,320,7777,1,8,0:0:0:0:
412,176,7954,1,0,0:0:0:0:
176,112,8130,6,0,P|224:156|272:163,1,112.500004291535
288,296,8483,2,0,P|244:248|197:232,1,112.500004291535,8|0,0:0|0:0,0:0:0:0:
120,346,8836,6,0,B|112:300|112:300|118:272|118:272|110:211,1,112.500004291535
128,76,9189,1,0,0:0:0:0:
259,191,9365,2,0,B|311:223|375:215|375:217,1,112.500004291535,8|0,0:0|0:0,0:0:0:0:
312,72,9718,1,0,0:0:0:0:
217,259,9895,2,0,B|158:248|100:208,1,112.500004291535,8|0,0:0|0:0,0:0:0:0:
197,68,10248,1,0,0:0:0:0:
271,290,10424,1,0,0:0:0:0:
106,176,10601,1,0,0:0:0:0:
163,356,10777,1,0,0:0:0:0:
310,175,10954,6,0,P|330:102|325:61,1,112.500004291535
226,173,11307,6,0,P|206:246|211:287,1,112.500004291535,8|0,0:0|0:0,0:0:0:0:
346,366,11660,6,0,B|333:324|333:324|339:286|339:286|324:226,1,112.500004291535
264,72,12013,1,8,0:0:0:0:
248,250,12189,2,0,P|192:244|138:221,1,112.500004291535
132,76,12542,1,0,0:0:0:0:
232,330,12718,2,0,P|304:327|351:311,1,112.500004291535,8|0,0:0|0:0,0:0:0:0:
244,156,13071,1,0,0:0:0:0:
413,231,13248,2,0,P|385:279|342:314,1,112.500004291535
73,284,13601,1,0,0:0:0:0:
244,156,13777,5,0,0:0:0:0:
290,322,13954,1,0,0:0:0:0:
336,174,14130,1,8,0:0:0:0:
162,283,14307,1,0,0:0:0:0:
63,369,14483,6,0,B|75:324|75:324|70:289|70:289|79:248,1,112.500004291535
172,100,14836,1,0,0:0:0:0:
254,317,15013,2,0,B|242:270|242:270|225:245|225:245|217:207,1,112.500004291535,8|0,0:0|0:0,0:0:0:0:
156,41,15365,1,0,0:0:0:0:
332,219,15542,2,0,B|326:178|326:178|310:146|310:146|304:104,1,112.500004291535
117,83,15895,1,0,0:0:0:0:
371,22,16071,2,0,P|344:73|296:116,1,112.500004291535,8|0,0:0|0:0,0:0:0:0:
81,198,16424,1,0,0:0:0:0:
322,269,16601,6,0,P|375:214|389:176,1,112.500004291535,8|0,0:0|0:0,0:0:0:0:
282,150,16954,2,0,P|257:81|256:33,1,112.500004291535,8|0,0:0|0:0,0:0:0:0:
140,250,17307,6,0,L|153:350,1,89.9999972534181
328,214,17660,1,8,0:0:0:0:
242,277,17836,1,0,0:0:0:0:
219,100,18013,6,0,L|239:193,1,89.9999972534181
149,43,18365,2,8,L|129:136,1,89.9999972534181,8|0,0:0|0:0,0:0:0:0:
75,258,18718,2,0,L|169:285,1,89.9999972534181
160,180,19071,1,8,0:0:0:0:
245,306,19248,1,0,0:0:0:0:
269,162,19424,6,0,L|281:60,1,89.9999972534181
431,209,19777,6,0,L|329:221,1,89.9999972534181,8|0,0:0|0:0,0:0:0:0:
158,234,20130,1,0,0:0:0:0:
275,345,20307,1,0,0:0:0:0:
288,184,20483,6,0,L|296:92,2,89.9999972534181,8|0|0,0:0|0:0|0:0,0:0:0:0:
275,345,21013,1,0,0:0:0:0:
295,94,21189,6,0,L|288:184,1,89.9999972534181,8|0,0:0|0:0,0:0:0:0:
169,101,21542,2,0,L|194:200,1,89.9999972534181
41,172,21895,2,0,B|116:234,1,89.9999972534181,8|0,0:0|0:0,0:0:0:0:
167,98,22248,1,0,0:0:0:0:
212,268,22424,1,0,0:0:0:0:
295,95,22601,1,8,0:0:0:0:
212,268,22777,1,0,0:0:0:0:
331,325,22954,6,0,L|316:230,1,89.9999972534181
295,95,23307,1,8,0:0:0:0:
204,211,23483,1,0,0:0:0:0:
168,64,23660,1,0,0:0:0:0:
300,210,23836,1,0,0:0:0:0:
240,32,24013,1,8,0:0:0:0:
164,220,24189,1,0,0:0:0:0:
322,318,24542,6,0,L|335:367,1,44.999998626709
184,264,24895,6,0,L|171:313,1,44.999998626709
338,133,25248,1,0,0:0:0:0:
234,62,25424,2,0,L|248:143,1,75,8|0,0:0|0:0,0:0:0:0:
115,205,25777,6,0,P|142:245|262:271,1,150,0|8,0:0|0:0,0:0:0:0:
191,69,26307,2,0,L|208:213,1,120
286,94,26836,1,8,0:0:0:0:
115,206,27013,1,0,0:0:0:0:
252,339,27189,2,0,L|262:254,1,75
345,229,27542,2,0,L|335:144,1,75
316,35,27895,5,8,0:0:0:0:
244,260,28071,1,0,0:0:0:0:
152,76,28248,1,0,0:0:0:0:
454,146,28424,1,8,0:0:0:0:
388,311,28601,6,0,B|337:293|337:293|311:295|311:295|271:280,1,112.500004291535
147,238,28954,1,8,0:0:0:0:
300,80,29130,1,0,0:0:0:0:
176,76,29307,2,0,P|203:147|230:178,1,112.500004291535
89,331,29660,2,0,P|131:280|149:224,1,112.500004291535,8|0,0:0|0:0,0:0:0:0:
176,76,30013,5,0,0:0:0:0:
304,224,30189,1,0,0:0:0:0:
312,56,30365,1,8,0:0:0:0:
184,232,30542,1,0,0:0:0:0:
312,128,30718,1,0,0:0:0:0:
96,156,30895,1,0,0:0:0:0:
188,44,31071,1,8,0:0:0:0:
216,240,31248,1,0,0:0:0:0:
340,331,31424,6,0,P|358:279|357:223,1,112.500004291535
212,336,31777,1,8,0:0:0:0:
248,176,31954,1,0,0:0:0:0:
72,296,32130,2,0,L|100:176,1,112.500004291535
124,76,32483,1,8,0:0:0:0:
224,264,32660,1,0,0:0:0:0:
272,112,32836,5,0,0:0:0:0:
80,224,33013,1,0,0:0:0:0:
172,80,33189,1,8,0:0:0:0:
188,284,33365,1,0,0:0:0:0:
344,176,33542,1,0,0:0:0:0:
120,156,33718,1,0,0:0:0:0:
256,84,33895,1,8,0:0:0:0:
208,300,34071,1,0,0:0:0:0:
364,240,34248,6,0,P|384:176|388:124,2,112.500004291535,0|0|8,0:0|0:0|0:0,0:0:0:0:
208,328,34777,1,0,0:0:0:0:
364,240,34954,2,0,P|372:164|252:44,1,225.000008583069,0|8,0:0|0:0,0:0:0:0:
224,184,35483,1,0,0:0:0:0:
208,328,35660,2,0,L|224:200,1,112.500004291535
320,260,36013,2,0,L|304:132,1,112.500004291535,8|0,0:0|0:0,0:0:0:0:
92,100,36365,6,0,L|203:109,1,112.500004291535
124,320,36718,1,8,0:0:0:0:
240,172,36895,1,0,0:0:0:0:
236,336,37071,6,0,P|324:312|400:160,1,225.000008583069,0|8,0:0|0:0,0:0:0:0:
424,96,37601,1,0,0:0:0:0:
120,176,37777,2,0,B|219:209|240:99|332:152,1,225.000008583069,0|8,0:0|0:0,0:0:0:0:
292,316,38307,1,0,0:0:0:0:
168,360,38483,6,0,L|192:240,1,112.500004291535
225,77,38836,1,8,0:0:0:0:
286,287,39013,1,0,0:0:0:0:
116,160,39189,5,10,0:0:0:0:
127,185,39277,1,10,0:0:0:0:
138,210,39365,1,10,0:0:0:0:
208,288,39542,5,10,0:0:0:0:
195,317,39630,1,10,0:0:0:0:
183,348,39718,1,10,0:0:0:0:
400,215,39895,6,0,L|373:337,1,112.500004291535
320,120,40248,1,8,0:0:0:0:
268,312,40424,1,0,0:0:0:0:
140,115,40601,2,0,L|258:160,1,112.500004291535
320,120,40954,2,0,P|319:195|276:248,1,112.500004291535,8|0,0:0|0:0,0:0:0:0:
258,332,41307,5,0,0:0:0:0:
104,294,41483,2,0,L|227:255,1,112.500004291535
357,203,41836,5,0,0:0:0:0:
351,224,41924,1,0,0:0:0:0:
344,245,42013,1,0,0:0:0:0:
108,160,42189,2,0,L|231:199,1,112.500004291535,0|8,0:0|0:0,0:0:0:0:
362,356,42542,2,0,L|341:228,1,112.500004291535
328,148,42895,1,0,0:0:0:0:
256,328,43071,1,8,0:0:0:0:
172,152,43248,1,0,0:0:0:0:
101,350,43424,6,0,P|127:291|141:227,1,112.500004291535
207,56,43777,1,8,0:0:0:0:
392,144,43954,6,0,P|293:149|263:141,1,112.500004291535
179,204,44307,6,0,L|201:82,1,112.500004291535,0|8,0:0|0:0,0:0:0:0:
261,224,44660,6,0,L|283:346,1,112.500004291535
456,158,45013,6,0,P|363:174|322:167,1,112.500004291535,0|8,0:0|0:0,0:0:0:0:
127,149,45365,1,0,0:0:0:0:
279,336,45542,1,0,0:0:0:0:
329,122,45718,1,0,0:0:0:0:
151,310,45895,1,8,0:0:0:0:
376,285,46071,1,0,0:0:0:0:
145,210,46248,6,0,L|268:243,1,112.500004291535
92,137,46601,2,0,P|129:73|142:26,1,112.500004291535,8|0,0:0|0:0,0:0:0:0:
270,73,46954,1,0,0:0:0:0:
145,211,47130,2,0,P|172:271|213:318,1,112.500004291535,0|8,0:0|0:0,0:0:0:0:
245,224,47483,2,0,L|263:111,1,112.500004291535
161,249,47836,6,0,P|242:307|321:259,1,179.999994506836
244,223,48365,5,2,0:0:0:0:
339,172,48542,1,2,0:0:0:0:
245,101,48718,1,2,0:0:0:0:
326,272,48895,1,2,0:0:0:0:
142,165,49071,5,10,0:0:0:0:
397,234,49248,1,10,0:0:0:0:
319,61,49424,1,10,0:0:0:0:
219,325,49601,1,10,0:0:0:0:
114,30,49777,1,10,0:0:0:0:
159,345,50483,6,2,L|139:215,1,120
240,36,50836,1,2,0:0:0:0:
433,181,51013,1,2,0:0:0:0:
256,249,51189,2,0,P|166:237|102:200,1,120
240,36,51542,1,8,0:0:0:0:
251,338,51718,2,0,P|304:319|350:270,1,120
450,89,52071,1,0,0:0:0:0:
256,249,52248,6,0,L|268:119,1,120,8|0,0:0|0:0,0:0:0:0:
145,163,52601,1,0,0:0:0:0:
374,218,52777,1,0,0:0:0:0:
244,32,52954,1,8,0:0:0:0:
264,320,53130,6,0,L|252:190,1,120
133,296,53483,1,0,0:0:0:0:
349,127,53660,1,8,0:0:0:0:
92,72,53836,1,0,0:0:0:0:
280,253,54013,6,0,P|362:243|396:216,1,120
291,50,54365,1,8,0:0:0:0:
284,331,54542,2,0,P|219:311|174:262,1,120
116,44,54895,1,0,0:0:0:0:
9,215,55071,6,0,L|134:182,1,120,8|0,0:0|0:0,0:0:0:0:
303,138,55424,1,0,0:0:0:0:
230,313,55601,1,0,0:0:0:0:
190,90,55777,1,8,0:0:0:0:
338,315,55954,1,0,0:0:0:0:
208,208,56130,6,0,L|187:71,2,120
111,353,56660,1,0,0:0:0:0:
321,215,56836,2,0,P|388:180|416:120,1,120
217,37,57189,1,8,0:0:0:0:
208,208,57365,2,0,P|264:228|344:200,1,120
217,37,57718,1,0,0:0:0:0:
111,228,57895,1,8,0:0:0:0:
403,199,58071,1,0,0:0:0:0:
148,304,58242,2,0,P|80:293|32:260,1,120
217,37,58594,1,8,0:0:0:0:
256,280,58771,6,0,P|212:304|134:299,1,120
217,37,59124,1,0,0:0:0:0:
320,232,59300,1,8,0:0:0:0:
44,204,59477,1,0,0:0:0:0:
134,352,59653,6,2,L|152:207,1,120
172,58,60006,5,10,0:0:0:0:
259,287,60183,6,2,L|241:142,1,120
127,20,60536,5,2,0:0:0:0:
363,182,60712,6,2,L|218:164,1,120,10|2,0:0|0:0,0:0:0:0:
75,54,61065,5,2,0:0:0:0:
33,244,61242,6,2,L|178:226,1,120,2|10,0:0|0:0,0:0:0:0:
355,84,61594,5,0,0:0:0:0:
186,183,61771,5,8,0:0:0:0:
233,177,61859,1,8,0:0:0:0:
275,198,61947,1,8,0:0:0:0:
302,237,62036,1,8,0:0:0:0:
325,278,62124,1,8,0:0:0:0:
360,310,62212,1,0,0:0:0:0:
405,323,62300,1,0,0:0:0:0:
443,315,62389,1,0,0:0:0:0:
440,268,62477,6,0,L|413:110,1,120
206,74,62830,1,8,0:0:0:0:
65,197,63006,2,0,P|133:241|188:247,1,120
206,74,63359,1,0,0:0:0:0:
245,301,63536,2,0,B|197:338|108:319,1,120,8|0,0:0|0:0,0:0:0:0:
206,74,63889,1,0,0:0:0:0:
97,260,64065,1,0,0:0:0:0:
358,240,64242,1,8,0:0:0:0:
96,88,64418,1,0,0:0:0:0:
209,342,64594,6,0,L|221:217,1,120
236,44,64947,1,8,0:0:0:0:
358,240,65124,1,0,0:0:0:0:
106,190,65300,6,0,P|167:217|236:221,1,120
236,44,65653,1,8,0:0:0:0:
327,291,65830,2,0,L|338:163,1,120
142,83,66183,1,0,0:0:0:0:
456,132,66359,2,0,P|388:167|323:171,1,120,8|0,0:0|0:0,0:0:0:0:
89,167,66712,1,0,0:0:0:0:
345,172,66889,1,0,0:0:0:0:
213,48,67065,1,8,0:0:0:0:
186,271,67242,1,0,0:0:0:0:
368,344,67418,6,0,L|356:223,1,120
318,68,67771,1,8,0:0:0:0:
186,271,67947,1,0,0:0:0:0:
306,187,68124,2,0,L|318:66,1,120
402,297,68477,1,8,0:0:0:0:
204,35,68653,2,0,B|260:71|328:67,1,120
460,63,69006,1,0,0:0:0:0:
306,187,69183,1,8,0:0:0:0:
204,35,69359,1,0,0:0:0:0:
119,142,69536,6,0,L|140:270,1,120
204,35,69889,1,8,0:0:0:0:
138,260,70065,2,0,P|217:275|272:259,1,120
204,35,70418,1,0,0:0:0:0:
271,338,70594,2,8,L|284:206,1,120,0|0,0:0|0:0,0:0:0:0:
75,191,70947,6,2,L|206:217,1,120
428,252,71300,1,10,0:0:0:0:
271,338,71477,6,2,L|284:206,1,120
300,36,71830,1,2,0:0:0:0:
474,150,72006,6,2,L|348:161,1,120,10|2,0:0|0:0,0:0:0:0:
124,172,72359,1,2,0:0:0:0:
297,34,72536,1,2,0:0:0:0:
315,302,72712,1,10,0:0:0:0:
124,172,72889,1,2,0:0:0:0:
375,163,73065,6,2,L|401:304,1,120
285,190,73418,2,2,L|311:49,1,120
190,248,73771,6,0,P|268:294|371:288,1,180
285,190,74653,2,0,L|263:66,1,120
373,254,75183,2,0,P|321:288|243:293,1,120
137,313,75712,2,0,L|160:248,1,60
88,72,76065,2,0,L|144:124,1,60
316,176,76594,5,0,0:0:0:0:
