osu file format v14

[General]
AudioFilename: audio.mp3
AudioLeadIn: 0
PreviewTime: 32251
Countdown: 0
SampleSet: Soft
StackLeniency: 0.4
Mode: 0
LetterboxInBreaks: 0
WidescreenStoryboard: 1

[Editor]
DistanceSpacing: 0.7
BeatDivisor: 4
GridSize: 32
TimelineZoom: 2.3

[Metadata]
Title:Wingless
TitleUnicode:Wingless
Artist:Waterflame
ArtistUnicode:Waterflame
Creator:ZinedineZidane
Version:Hard
Source:
Tags:Instrumental Chill FruityEnLoops
BeatmapID:1591460
BeatmapSetID:744532

[Difficulty]
HPDrainRate:5
CircleSize:4
OverallDifficulty:6
ApproachRate:7.5
SliderMultiplier:1.1
SliderTickRate:1

[Events]
//Background and Video events
0,0,"horizon_beauty_by_ryky-dc4d4f0.png",0,0
//Break Periods
2,70499,80450
//Storyboard Layer 0 (Background)
//Storyboard Layer 1 (Fail)
//Storyboard Layer 2 (Pass)
//Storyboard Layer 3 (Foreground)
//Storyboard Sound Samples

[TimingPoints]
56,365.853658536585,4,2,1,20,1,0
56,-100,4,2,1,20,0,0
5909,-100,4,2,1,25,0,0
8836,-100,4,2,1,30,0,0
11763,-100,4,2,1,35,0,0
14690,-100,4,2,1,40,0,0
17616,-100,4,2,1,45,0,0
22373,-100,4,2,1,55,0,0
22738,-100,4,2,1,65,0,0
23104,-100,4,2,1,75,0,0
23470,-90.9090909090909,4,2,2,85,0,0
23653,-100,4,2,2,50,0,0
34446,-100,4,2,2,65,0,0
35177,-90.9090909090909,4,2,2,85,0,1
35360,-100,4,2,2,60,0,1
41031,-100,4,2,2,50,0,0
46885,-90.9090909090909,4,2,2,85,0,1
47251,-90.9090909090909,4,2,2,65,0,1
58592,-100,4,2,2,50,0,0
93714,-90.9090909090909,4,2,2,65,0,1
99568,-100,4,2,2,50,0,0

[Colours]
Combo1 : 24,231,174
Combo2 : 0,128,0
Combo3 : 184,192,250
Combo4 : 147,217,0

[HitObjects]
436,98,56,6,0,B|376:120|394:83|328:103,1,110,0|2,0:0|0:0,0:0:0:0:
274,163,604,1,2,0:0:0:0:
211,103,787,2,0,P|186:154|205:215,1,110,2|2,0:0|0:0,0:0:0:0:
170,292,1519,6,0,B|198:285|225:297|225:297|240:272|271:263,1,110,2|0,0:0|0:0,0:0:0:0:
294,334,2068,2,0,P|336:297|337:243,1,110,2|0,0:0|0:0,0:0:0:0:
310,176,2616,1,0,0:0:0:0:
310,176,2799,1,2,0:0:0:0:
399,158,2982,6,0,P|401:107|372:50,1,110,0|0,3:0|0:0,0:0:0:0:
301,18,3531,2,0,L|229:24,1,55,0|8,0:0|0:0,0:0:0:0:
171,31,3897,1,0,0:0:0:0:
136,107,4080,6,0,B|171:117|195:109|195:109|221:99|244:108,2,110,0|0|0,0:0|0:0|0:0,0:0:0:0:
54,117,4995,2,0,P|54:90|66:66,2,55,0|8|0,0:0|0:0|0:0,0:0:0:0:
94,188,5543,2,0,L|88:249,1,55,2|0,0:0|0:0,0:0:0:0:
31,303,5909,6,0,P|83:289|131:312,1,110,0|0,3:0|0:0,0:0:0:0:
189,368,6458,1,0,0:0:0:0:
189,368,6641,2,0,P|209:349|214:320,1,55,8|0,0:0|0:0,0:0:0:0:
175,253,7007,2,0,P|180:227|200:208,1,55,2|0,0:0|3:0,0:0:0:0:
287,223,7373,6,0,P|277:160|238:129,2,110,2|0|10,0:0|0:0|0:0,0:0:0:0:
277,297,8287,1,2,0:0:0:0:
354,276,8470,2,0,L|431:283,1,55,2|0,0:0|0:0,0:0:0:0:
484,325,8836,6,0,P|492:259|465:215,1,110,0|0,3:0|0:0,0:0:0:0:
407,185,9385,2,0,P|424:163|448:150,2,55,0|8|0,0:0|0:0|0:0,0:0:0:0:
383,254,9934,2,0,P|359:242|343:220,1,55,0|0,0:0|3:0,0:0:0:0:
336,133,10299,6,0,B|294:137|274:167|274:167|263:154|241:148,1,110,0|0,0:0|0:0,0:0:0:0:
167,125,10848,2,0,P|176:99|197:81,2,55,0|8|0,0:0|0:0|0:0,0:0:0:0:
181,202,11397,2,0,L|174:270,1,55,0|0,0:0|0:0,0:0:0:0:
167,349,11763,6,0,B|128:348|98:311|98:311|94:334|69:347,1,110,0|2,3:0|0:0,0:0:0:0:
16,361,12312,1,2,0:0:0:0:
22,281,12495,2,0,P|34:256|57:239,1,55,10|0,0:0|0:0,0:0:0:0:
122,194,12860,2,0,P|143:177|154:152,1,55,2|0,0:0|3:0,0:0:0:0:
132,74,13226,6,0,B|160:67|187:79|187:79|202:54|233:45,1,110,2|2,0:0|0:0,0:0:0:0:
306,38,13775,2,0,P|295:90|252:123,1,110,2|0,0:0|0:0,0:0:0:0:
225,198,14324,1,2,0:0:0:0:
225,198,14507,1,2,0:0:0:0:
322,197,14690,6,0,B|391:211|365:176|446:197,1,110,0|0,3:0|0:0,0:0:0:0:
500,237,15238,1,0,0:0:0:0:
497,150,15421,2,0,P|473:127|447:119,1,55,8|0,0:0|0:0,0:0:0:0:
369,114,15787,1,0,0:0:0:0:
413,45,15970,1,0,3:0:0:0:
321,40,16153,6,0,B|252:63|278:27|195:50,1,110,0|0,0:0|0:0,0:0:0:0:
141,71,16702,1,0,0:0:0:0:
69,28,16885,2,0,P|56:55|59:84,1,55,8|0,0:0|0:0,0:0:0:0:
106,148,17251,1,0,0:0:0:0:
106,148,17434,1,0,0:0:0:0:
27,203,17616,6,0,P|72:239|128:242,1,110,0|0,3:0|0:0,0:0:0:0:
197,218,18165,2,0,P|203:245|197:272,2,55,0|8|0,0:0|0:0|0:0,0:0:0:0:
185,144,18714,2,0,P|179:117|185:90,1,55,2|0,0:0|3:0,0:0:0:0:
224,19,19080,6,0,P|260:60|260:115,1,110,2|0,0:0|0:0,0:0:0:0:
267,187,19629,1,0,0:0:0:0:
341,146,19812,2,0,P|369:145|397:153,1,55,10|2,0:0|0:0,0:0:0:0:
453,207,20177,1,2,0:0:0:0:
470,109,20360,6,0,P|423:80|369:69,1,110,2|2,0:0|0:0,0:0:0:0:
284,84,20909,1,0,0:0:0:0:
341,146,21092,2,0,B|356:213|327:187|342:254,1,110,2|0,0:0|0:0,0:0:0:0:
386,318,21641,1,2,0:0:0:0:
444,266,21824,1,2,0:0:0:0:
436,368,22007,6,0,L|310:354,1,110,2|6,0:0|0:0,0:0:0:0:
217,379,22738,1,6,0:0:0:0:
255,266,23104,1,6,0:0:0:0:
104,248,23470,6,0,B|104:175|136:202|125:117,1,121.000003692627,4|8,0:1|0:0,0:0:0:0:
99,60,24019,1,0,0:0:0:0:
185,79,24202,2,0,P|211:116|208:150,1,55,0|0,0:0|0:0,0:0:0:0:
262,182,24568,2,0,P|288:145|285:111,1,55,8|2,0:0|0:3,0:0:0:0:
317,55,24934,6,0,P|361:86|374:145,2,110,2|8|0,0:3|0:0|0:0,0:0:0:0:
237,62,25848,1,0,0:0:0:0:
289,136,26031,1,8,0:0:0:0:
216,192,26214,1,2,0:3:0:0:
216,192,26305,1,0,0:0:0:0:
216,192,26397,6,0,B|242:231|291:230|291:230|281:245|277:265,1,110,2|8,0:3|0:0,0:0:0:0:
251,321,26946,1,0,0:0:0:0:
333,307,27129,1,0,0:0:0:0:
403,357,27312,1,2,0:3:0:0:
408,268,27495,2,0,L|412:213,1,55,8|2,0:0|0:3,0:0:0:0:
484,167,27860,6,0,L|479:112,1,55,2|0,0:3|0:0,0:0:0:0:
437,41,28226,2,0,P|409:61|402:84,1,55,8|0,0:0|0:0,0:0:0:0:
372,147,28592,1,0,0:0:0:0:
308,102,28775,1,2,0:3:0:0:
254,161,28958,2,0,P|235:140|229:115,1,55,8|0,0:0|0:0,0:0:0:0:
308,102,29324,6,0,P|279:49|217:37,1,110,2|8,0:3|0:0,0:0:0:0:
161,67,29873,2,0,L|89:60,1,55,0|0,0:0|0:0,0:0:0:0:
30,31,30238,1,2,0:3:0:0:
43,106,30421,2,0,P|62:128|102:134,1,55,8|0,0:0|0:0,0:0:0:0:
166,163,30787,6,0,L|160:226,1,55,2|0,0:3|0:0,0:0:0:0:
88,249,31153,2,0,L|92:303,1,55,8|2,0:0|0:3,0:0:0:0:
145,374,31519,1,0,0:0:0:0:
145,374,31702,1,0,0:0:0:0:
214,337,31885,2,0,L|286:343,1,55,8|0,0:0|0:0,0:0:0:0:
287,336,32159,1,0,0:0:0:0:
304,327,32251,6,0,P|302:293|314:268,1,55,2|0,0:3|0:0,0:0:0:0:
382,255,32616,2,0,P|384:289|372:314,1,55,8|0,0:0|0:0,0:0:0:0:
310,274,32982,2,0,P|308:240|320:215,1,55,0|2,0:0|0:3,0:0:0:0:
392,124,33348,2,0,P|394:158|382:183,1,55,8|0,0:0|0:0,0:0:0:0:
301,139,33714,5,6,0:2:0:0:
335,47,33897,1,2,0:3:0:0:
392,124,34080,1,8,0:0:0:0:
426,25,34263,1,2,0:3:0:0:
321,51,34446,6,0,L|266:46,1,55,6|0,0:2|0:0,0:0:0:0:
232,138,34812,2,0,L|287:143,1,55,8|2,0:0|0:3,0:0:0:0:
172,74,35177,6,0,P|146:125|164:191,1,121.000003692627,4|8,0:1|0:0,0:0:0:0:
209,263,35726,1,4,0:3:0:0:
209,263,35818,1,0,0:0:0:0:
209,263,35909,2,0,P|231:301|223:332,1,55,6|2,0:3|0:3,0:0:0:0:
330,358,36275,2,0,P|308:320|316:289,1,55,8|4,0:0|0:3,0:0:0:0:
376,236,36641,6,0,P|328:239|275:201,1,110,6|8,0:3|0:0,0:0:0:0:
351,148,37190,1,4,0:3:0:0:
351,148,37281,1,0,0:0:0:0:
351,148,37373,2,0,L|344:74,1,55,4|2,0:3|0:3,0:0:0:0:
263,25,37738,2,0,L|268:79,1,55,8|6,0:0|0:3,0:0:0:0:
209,177,38104,6,0,P|163:126|157:71,1,110,2|8,0:3|0:0,0:0:0:0:
180,9,38653,1,0,0:0:0:0:
94,27,38836,2,0,P|74:52|71:97,1,55,4|2,0:3|0:3,0:0:0:0:
90,148,39202,1,8,0:0:0:0:
28,202,39385,1,4,0:3:0:0:
28,202,39476,1,0,0:0:0:0:
28,202,39568,6,0,P|23:254|28:313,2,110,2|8|8,0:3|0:0|0:0,0:0:0:0:
90,148,40482,1,6,0:3:0:0:
108,230,40665,1,8,0:0:0:0:
168,176,40848,1,8,0:0:0:0:
168,176,40940,1,0,0:0:0:0:
168,176,41031,6,0,P|214:143|280:126,2,110,2|8|6,0:3|0:0|0:3,0:0:0:0:
189,261,41946,1,2,0:3:0:0:
272,250,42129,2,0,L|342:256,1,55,8|4,0:0|0:3,0:0:0:0:
345,257,42403,1,0,0:0:0:0:
363,258,42495,6,0,P|400:208|408:150,1,110,2|8,0:3|0:0,0:0:0:0:
321,143,43043,1,2,0:3:0:0:
404,79,43226,2,0,L|472:85,1,55,4|0,0:3|0:0,0:0:0:0:
492,7,43592,2,0,L|437:2,1,55,8|4,0:0|0:3,0:0:0:0:
417,1,43866,1,0,0:0:0:0:
399,0,43958,6,0,P|351:16|323:71,1,110,2|8,0:3|0:0,0:0:0:0:
321,143,44507,1,0,0:0:0:0:
248,90,44690,2,0,L|183:95,1,55,4|2,0:3|0:3,0:0:0:0:
116,110,45055,1,8,0:0:0:0:
83,39,45238,1,4,0:3:0:0:
83,39,45330,1,0,0:0:0:0:
83,39,45421,6,0,P|45:74|42:135,1,110,6|8,0:3|0:0,0:0:0:0:
85,199,45970,1,6,0:3:0:0:
140,122,46153,1,2,0:3:0:0:
197,207,46336,1,4,0:0:0:0:
236,104,46519,2,0,P|219:56|204:46,1,55,8|2,0:0|0:3,0:0:0:0:
192,218,46885,6,0,P|251:225|311:200,1,121.000003692627,4|8,0:1|0:0,0:0:0:0:
365,140,47434,1,0,0:0:0:0:
400,224,47616,2,0,L|394:289,1,60.5000018463135,4|0,0:3|0:0,0:0:0:0:
463,359,47982,2,0,L|468:298,1,60.5000018463135,8|6,0:0|0:3,0:0:0:0:
378,361,48348,6,0,P|348:351|325:314,1,60.5000018463135,6|0,0:3|0:0,0:0:0:0:
281,245,48714,1,8,0:0:0:0:
234,324,48897,1,4,0:3:0:0:
194,249,49080,6,0,P|200:208|228:179,1,60.5000018463135,4|0,0:3|0:0,0:0:0:0:
288,148,49446,1,8,0:0:0:0:
223,107,49629,1,2,0:3:0:0:
223,107,49720,1,0,0:0:0:0:
223,107,49812,6,0,P|156:128|124:180,1,121.000003692627,2|8,0:3|0:0,0:0:0:0:
110,245,50360,1,0,0:0:0:0:
51,187,50543,2,0,P|48:150|61:128,2,60.5000018463135,6|2|8,0:3|0:3|0:0,0:0:0:0:
110,245,51092,2,0,P|113:282|100:304,1,60.5000018463135,4|2,0:3|0:3,0:0:0:0:
22,355,51458,5,4,0:3:0:0:
102,383,51641,2,0,L|164:377,1,60.5000018463135,8|0,0:0|0:0,0:0:0:0:
240,334,52007,1,8,0:0:0:0:
240,334,52190,1,6,0:3:0:0:
320,364,52373,1,8,0:0:0:0:
367,297,52555,1,8,0:0:0:0:
367,297,52647,1,0,0:0:0:0:
367,297,52738,6,0,B|382:268|403:259|403:259|391:228|408:193,1,121.000003692627,2|8,0:3|0:0,0:0:0:0:
450,127,53287,2,0,P|484:174|476:233,1,121.000003692627,0|2,0:0|0:3,0:0:0:0:
408,193,53836,2,0,P|384:175|371:142,1,60.5000018463135,8|4,0:0|0:3,0:0:0:0:
398,61,54202,6,0,B|368:72|337:64|337:64|321:94|288:100,1,121.000003692627,2|8,0:3|0:0,0:0:0:0:
215,96,54751,1,2,0:3:0:0:
266,27,54934,2,0,P|240:10|201:14,1,60.5000018463135,4|0,0:3|0:0,0:0:0:0:
137,45,55299,1,8,0:0:0:0:
62,15,55482,1,4,0:3:0:0:
62,15,55574,1,0,0:0:0:0:
62,15,55665,5,2,0:3:0:0:
71,95,55848,2,0,L|40:140,2,30.2500009231568,8|8|8,0:3|0:3|0:3,0:0:0:0:
137,45,56214,1,0,0:0:0:0:
141,130,56397,2,0,L|134:203,1,60.5000018463135,4|2,0:3|0:3,0:0:0:0:
59,248,56763,2,0,L|64:308,1,60.5000018463135,8|4,0:0|0:3,0:0:0:0:
137,353,57129,5,6,0:0:0:0:
137,353,57312,1,2,0:3:0:0:
193,294,57495,1,8,0:0:0:0:
193,294,57677,1,6,0:3:0:0:
244,354,57860,6,0,P|265:332|272:303,1,60.5000018463135,4|0,0:0|0:0,0:0:0:0:
235,227,58226,2,0,P|219:216|190:210,3,30.2500009231568,8|8|8|8,0:3|0:3|0:3|0:3,0:0:0:0:
253,223,58592,6,0,P|301:222|348:279,1,110,4|0,0:1|0:0,0:0:0:0:
352,340,59141,1,0,0:0:0:0:
426,312,59324,2,0,P|441:280|439:259,1,55,8|0,0:0|0:0,0:0:0:0:
394,197,59690,2,0,P|394:169|407:146,1,55,2|0,0:3|0:0,0:0:0:0:
477,94,60055,6,0,B|452:83|435:59|435:59|411:70|382:66,1,110,2|0,0:3|0:0,0:0:0:0:
312,36,60604,2,0,P|333:6|359:-4,2,55,0|8|0,0:0|0:0|0:0,0:0:0:0:
319,122,61153,1,2,0:3:0:0:
319,122,61336,1,0,0:0:0:0:
229,84,61519,6,0,B|159:91|192:50|105:62,1,110,2|0,0:3|0:0,0:0:0:0:
58,103,62068,1,0,0:0:0:0:
132,138,62251,2,0,P|118:161|95:177,1,55,8|0,0:0|0:0,0:0:0:0:
18,203,62616,1,2,0:3:0:0:
71,266,62799,1,0,0:0:0:0:
29,352,62982,6,0,P|78:342|148:341,1,110,2|8,0:3|0:0,0:0:0:0:
214,361,63531,1,0,0:0:0:0:
268,307,63714,2,0,L|332:312,1,55,8|0,0:0|0:0,0:0:0:0:
374,370,64080,2,0,L|428:365,1,55,2|0,0:3|0:0,0:0:0:0:
504,314,64446,6,0,P|458:278|391:284,1,110,2|8,0:3|0:0,0:0:0:0:
337,302,64995,1,0,0:0:0:0:
345,218,65177,2,0,P|318:210|291:209,1,55,8|0,0:0|0:0,0:0:0:0:
226,256,65543,2,0,P|198:254|172:247,1,55,2|0,0:3|0:0,0:0:0:0:
98,212,65909,6,0,B|108:183|133:174|133:174|123:148|139:117,1,110,2|0,0:3|0:0,0:0:0:0:
195,65,66458,1,0,0:0:0:0:
212,154,66641,2,0,P|241:144|262:127,1,55,8|0,0:0|0:0,0:0:0:0:
286,51,67007,2,0,P|307:34|333:26,1,55,2|0,0:3|0:0,0:0:0:0:
414,5,67373,6,0,P|384:43|392:114,1,110,2|0,0:3|0:0,0:0:0:0:
441,157,67921,1,8,0:0:0:0:
392,219,68104,2,0,L|398:296,1,55,8|0,0:0|0:0,0:0:0:0:
478,330,68470,2,0,L|473:275,1,55,2|0,0:3|0:0,0:0:0:0:
398,352,68836,5,6,0:0:0:0:
398,352,69202,2,0,P|368:351|337:323,1,55,8|4,0:0|0:0,0:0:0:0:
251,298,69568,2,0,P|278:285|298:248,1,55,8|0,0:0|0:0,0:0:0:0:
201,247,69934,2,0,L|210:356,1,110,4|4,0:0|0:1,0:0:0:0:
162,284,81275,6,0,P|150:250|162:215,1,55,8|0,0:0|0:0,0:0:0:0:
217,192,81641,2,0,P|229:226|217:261,1,55,2|0,0:3|0:0,0:0:0:0:
140,158,82007,6,0,P|175:117|243:118,1,110,4|8,0:1|0:0,0:0:0:0:
286,158,82555,1,0,0:0:0:0:
336,91,82738,2,0,L|412:97,1,55,6|0,0:3|0:0,0:0:0:0:
452,26,83104,2,0,L|397:21,1,55,8|6,0:0|0:3,0:0:0:0:
298,22,83470,6,0,B|237:47|253:4|171:43,1,110,6|8,0:3|0:0,0:0:0:0:
112,42,84019,1,4,0:3:0:0:
151,114,84202,1,4,0:3:0:0:
151,114,84385,1,0,0:0:0:0:
64,121,84568,1,8,0:0:0:0:
64,121,84751,1,2,0:3:0:0:
108,197,84934,6,0,B|135:193|159:213|159:213|178:189|212:188,1,110,2|8,0:3|0:0,0:0:0:0:
277,158,85482,1,0,0:0:0:0:
264,236,85665,2,0,P|245:256|218:263,1,55,6|2,0:3|0:3,0:0:0:0:
159,333,86031,2,0,L|230:339,1,55,8|4,0:0|0:3,0:0:0:0:
295,359,86397,6,0,B|356:333|341:371|417:337,1,110,2|8,0:3|0:0,0:0:0:0:
478,347,86946,1,0,0:0:0:0:
443,273,87129,1,8,0:0:0:0:
443,273,87312,1,2,0:3:0:0:
479,202,87495,1,8,0:0:0:0:
479,202,87677,1,2,0:3:0:0:
384,167,87860,6,0,B|357:155|331:167|331:167|303:152|264:172,1,110,4|8,0:1|0:0,0:0:0:0:
250,237,88409,2,0,P|276:245|303:238,1,55,0|0,0:0|0:0,0:0:0:0:
277,166,88775,1,2,0:3:0:0:
277,166,88958,2,0,P|250:158|224:165,1,55,8|0,0:0|0:0,0:0:0:0:
157,212,89324,6,0,P|179:163|162:112,1,110,2|8,0:3|0:0,0:0:0:0:
98,158,89873,1,2,0:3:0:0:
76,234,90055,2,0,P|86:260|107:278,1,55,0|0,0:0|0:0,0:0:0:0:
181,286,90421,2,0,P|201:304|210:329,1,55,8|0,0:0|0:0,0:0:0:0:
215,348,90696,1,0,0:0:0:0:
216,367,90787,6,0,L|271:362,1,55,2|0,0:3|0:0,0:0:0:0:
321,297,91153,2,0,P|343:318|350:366,2,55,8|0|0,0:0|0:0|0:0,0:0:0:0:
250,242,91702,1,2,0:3:0:0:
333,185,91885,2,0,L|388:189,1,55,8|0,0:0|0:0,0:0:0:0:
492,196,92251,5,6,0:0:0:0:
444,112,92434,1,0,0:0:0:0:
391,178,92616,1,8,0:0:0:0:
447,101,92799,1,2,0:3:0:0:
343,73,92982,6,0,P|310:69|272:74,1,55,4|0,0:0|0:0,0:0:0:0:
199,147,93348,2,0,P|226:148|253:144,1,55,8|0,0:0|0:0,0:0:0:0:
164,60,93714,6,0,P|122:92|106:156,1,121.000003692627,4|8,0:1|0:0,0:0:0:0:
106,245,94263,1,4,0:3:0:0:
106,245,94354,1,0,0:0:0:0:
106,245,94446,2,0,P|70:229|35:234,1,60.5000018463135,6|2,0:3|0:3,0:0:0:0:
61,317,94812,2,0,P|97:333|132:328,1,60.5000018463135,8|4,0:0|0:3,0:0:0:0:
190,265,95177,6,0,P|198:323|243:361,1,121.000003692627,6|8,0:3|0:0,0:0:0:0:
315,321,95726,1,4,0:3:0:0:
315,321,95818,1,0,0:0:0:0:
315,321,95909,2,0,P|303:297|272:280,1,60.5000018463135,4|2,0:3|0:3,0:0:0:0:
197,243,96275,2,0,P|209:219|240:202,1,60.5000018463135,8|6,0:0|0:3,0:0:0:0:
347,225,96641,6,0,P|313:178|318:119,1,121.000003692627,2|8,0:3|0:0,0:0:0:0:
380,59,97190,1,0,0:0:0:0:
284,39,97373,2,0,P|255:56|240:96,1,60.5000018463135,6|2,0:3|0:3,0:0:0:0:
228,172,97738,1,8,0:0:0:0:
155,114,97921,1,4,0:3:0:0:
155,114,98013,1,0,0:0:0:0:
155,114,98104,6,0,B|85:86|100:121|28:96,2,121.000003692627,2|8|8,0:3|0:0|0:0,0:0:0:0:
218,163,99019,1,6,0:3:0:0:
141,201,99202,1,8,0:0:0:0:
210,258,99385,1,8,0:0:0:0:
210,258,99476,1,0,0:0:0:0:
210,258,99568,6,0,P|263:248|303:200,1,110,2|8,0:3|0:0,0:0:0:0:
312,130,100116,1,0,0:0:0:0:
381,187,100299,2,0,P|384:213|365:254,1,55,6|2,0:3|0:3,0:0:0:0:
338,309,100665,1,8,0:0:0:0:
420,317,100848,1,4,0:3:0:0:
420,317,100940,1,0,0:0:0:0:
420,317,101031,6,0,P|459:259|464:213,1,110,2|8,0:3|0:0,0:0:0:0:
441,146,101580,1,2,0:3:0:0:
504,99,101763,2,0,P|477:74|453:68,1,55,6|0,0:3|0:0,0:0:0:0:
379,92,102129,1,8,0:0:0:0:
344,20,102312,1,4,0:3:0:0:
344,20,102403,1,0,0:0:0:0:
344,20,102495,6,0,B|279:12|297:37|234:32,1,110,2|8,0:3|0:0,0:0:0:0:
160,20,103043,1,0,0:0:0:0:
192,98,103226,1,4,0:3:0:0:
112,89,103409,1,2,0:3:0:0:
141,162,103592,2,0,P|177:179|207:174,1,55,8|4,0:0|0:3,0:0:0:0:
210,175,103866,1,0,0:0:0:0:
229,171,103958,6,0,L|222:246,1,55,6|0,0:3|0:0,0:0:0:0:
300,299,104324,2,0,L|304:244,1,55,8|6,0:0|0:3,0:0:0:0:
315,156,104690,1,2,0:3:0:0:
390,221,104873,1,4,0:0:0:0:
403,119,105055,1,8,0:3:0:0:
462,178,105238,1,8,0:3:0:0:
388,108,105421,5,4,0:1:0:0:
