osu file format v14

[General]
AudioFilename: audio.mp3
AudioLeadIn: 0
PreviewTime: 80602
Countdown: 1
SampleSet: Soft
StackLeniency: 0.5
Mode: 0
LetterboxInBreaks: 0
WidescreenStoryboard: 1

[Editor]
DistanceSpacing: 0.5
BeatDivisor: 4
GridSize: 4
TimelineZoom: 1

[Metadata]
Title:Time machine
TitleUnicode:Time machine
Artist:Waterflame
ArtistUnicode:Waterflame
Creator:Sytho
Version:Normal
Source:Geometry Dash
Tags:adventure instrumental newgrounds 2009 robtop games cut ver video game electronic rhythm
BeatmapID:3332445
BeatmapSetID:1630706

[Difficulty]
HPDrainRate:3
CircleSize:3.6
OverallDifficulty:4.5
ApproachRate:5
SliderMultiplier:1.1
SliderTickRate:1

[Events]
//Background and Video events
0,0,"bg.jpg",0,0
//Break Periods
2,55207,60940
//Storyboard Layer 0 (Background)
//Storyboard Layer 1 (Fail)
//Storyboard Layer 2 (Pass)
//Storyboard Layer 3 (Foreground)
//Storyboard Layer 4 (Overlay)
//Storyboard Sound Samples

[TimingPoints]
43,419.58041958042,4,2,1,60,1,0
1721,-111.111111111111,4,2,1,60,0,0
15147,-111.111111111111,4,2,1,65,0,0
28574,-100,4,2,1,75,0,0
55427,-111.111111111111,4,2,1,60,0,0
68855,-111.111111111111,4,2,1,70,0,0
82280,-90.9090909090909,4,2,1,85,0,1
92350,-100,4,2,1,65,0,0
94029,-100,4,2,1,75,0,0
95812,-125,4,2,1,5,0,0

[Colours]
Combo1 : 91,255,255
Combo2 : 235,162,131
Combo3 : 6,174,255
Combo4 : 209,98,31

[HitObjects]
92,4,1721,6,0,P|62:36|71:92,1,98.9999969787599,2|0,3:2|3:2,0:0:0:0:
130,164,2560,2,0,B|146:212|146:212|127:274,1,98.9999969787599,2|0,3:2|3:2,0:0:0:0:
93,349,3399,2,0,L|204:339,1,98.9999969787599,2|0,3:2|3:2,0:0:0:0:
235,372,4029,1,2,3:2:0:0:
235,372,4238,2,0,L|346:362,1,98.9999969787599,2|0,3:2|3:2,0:0:0:0:
396,286,5077,6,0,P|348:234|306:234,1,98.9999969787599,2|0,3:2|3:2,0:0:0:0:
229,262,5917,2,0,B|181:276|181:276|97:263,1,98.9999969787599,2|0,3:2|3:2,0:0:0:0:
87,180,6756,2,0,P|84:115|129:72,1,98.9999969787599,2|0,3:2|3:2,0:0:0:0:
138,56,7385,1,2,3:2:0:0:
138,56,7595,2,0,L|250:50,1,98.9999969787599,2|0,3:2|3:2,0:0:0:0:
335,35,8434,6,0,B|355:63|355:63|338:137,1,98.9999969787599,2|0,3:2|3:2,0:0:0:0:
321,223,9273,2,0,L|427:209,1,98.9999969787599,2|0,3:2|3:2,0:0:0:0:
472,293,10112,2,0,L|373:305,1,98.9999969787599,2|0,3:2|3:2,0:0:0:0:
345,347,10742,1,2,3:2:0:0:
345,347,10952,2,0,L|234:339,1,98.9999969787599,2|0,3:2|3:2,0:0:0:0:
146,336,11791,6,0,P|126:297|151:238,1,98.9999969787599,2|2,3:2|3:2,0:0:0:0:
220,186,12630,2,0,L|318:193,1,98.9999969787599,2|0,3:2|3:2,0:0:0:0:
367,106,13469,2,0,P|360:28|313:10,1,98.9999969787599,2|0,3:2|3:2,0:0:0:0:
252,42,14308,1,2,3:2:0:0:
153,33,14728,1,0,3:2:0:0:
60,68,15147,6,0,B|46:108|46:108|72:198,1,98.9999969787599,2|0,1:2|3:2,0:0:0:0:
48,212,15777,1,0,1:2:0:0:
48,212,15987,2,0,L|154:217,1,98.9999969787599,2|0,0:0|3:2,0:0:0:0:
200,300,16826,2,0,P|246:269|304:277,1,98.9999969787599,2|0,1:2|3:2,0:0:0:0:
333,300,17455,1,2,1:2:0:0:
333,300,17665,2,0,L|446:317,1,98.9999969787599,2|0,1:2|3:2,0:0:0:0:
497,241,18504,6,0,B|479:210|479:210|393:199,1,98.9999969787599,2|0,1:2|3:2,0:0:0:0:
371,197,19133,1,0,1:2:0:0:
371,197,19343,2,0,P|348:146|372:83,1,98.9999969787599,2|0,0:0|3:2,0:0:0:0:
400,16,20182,2,0,P|334:23|277:13,1,98.9999969787599,2|0,1:2|3:2,0:0:0:0:
259,42,20812,1,2,1:2:0:0:
259,42,21022,2,0,L|154:33,1,98.9999969787599,2|0,1:2|3:2,0:0:0:0:
124,126,21861,6,0,P|181:166|244:137,1,98.9999969787599,2|0,1:2|3:2,0:0:0:0:
257,150,22490,1,0,1:2:0:0:
257,150,22700,2,0,L|371:139,1,98.9999969787599,2|0,0:0|3:2,0:0:0:0:
407,224,23539,2,0,B|424:259|424:259|399:350,1,98.9999969787599,2|0,1:2|3:2,0:0:0:0:
383,361,24168,1,0,0:0:0:0:
383,361,24378,2,0,L|303:349,1,49.4999984893799,2|0,1:2|1:2,0:0:0:0:
285,344,24798,1,0,3:2:0:0:
186,334,25217,6,0,L|81:344,1,98.9999969787599,2|0,1:2|3:2,0:0:0:0:
47,328,25847,1,0,1:2:0:0:
47,328,26056,2,0,B|27:296|27:296|41:217,1,98.9999969787599,2|0,0:0|3:2,0:0:0:0:
75,144,26896,2,0,B|146:113|179:157|162:168|187:210|255:188,1,197.99999395752,6|0,1:2|3:0,0:0:0:0:
308,109,28154,2,0,L|325:42,1,49.4999984893799,2|10,1:2|0:0,0:0:0:0:
359,22,28574,6,0,B|417:37|417:37|446:116,1,110,6|10,1:2|0:2,0:0:0:0:
441,138,29203,1,0,1:2:0:0:
460,246,29623,1,2,1:2:0:0:
460,246,29833,2,0,L|359:243,1,55,10|2,0:2|1:2,0:0:0:0:
363,279,30252,2,0,P|291:260|226:298,1,110,2|10,1:2|0:2,0:0:0:0:
179,346,31091,2,0,L|101:356,1,55,2|2,0:0|1:2,0:0:0:0:
70,366,31511,1,10,0:2:0:0:
18,268,31931,6,0,B|13:232|13:232|36:150,1,110,2|10,1:2|0:2,0:0:0:0:
58,112,32560,1,2,1:2:0:0:
131,30,32980,1,2,1:2:0:0:
131,30,33189,2,0,L|142:127,1,55,10|2,0:2|1:2,0:0:0:0:
147,138,33609,2,0,P|186:195|253:188,1,110,2|10,1:2|0:2,0:0:0:0:
320,150,34448,2,0,L|335:84,1,55,2|2,0:0|1:2,0:0:0:0:
349,43,34868,1,10,0:2:0:0:
453,8,35287,6,0,L|468:137,1,110,2|10,1:2|0:2,0:0:0:0:
477,171,35917,1,2,1:2:0:0:
488,280,36336,1,2,1:2:0:0:
488,280,36546,2,0,L|411:292,1,55,10|2,0:2|1:2,0:0:0:0:
392,325,36966,2,0,P|340:297|262:315,1,110,2|10,1:2|0:2,0:0:0:0:
187,340,37805,2,0,L|100:345,1,55,2|2,0:0|1:2,0:0:0:0:
77,345,38224,1,10,0:2:0:0:
52,237,38644,6,0,P|105:190|175:205,1,110,2|10,1:2|0:2,0:0:0:0:
247,216,39483,2,0,L|260:306,2,55,2|2|10,0:0|1:2|0:2,0:0:0:0:
238,106,40322,2,0,P|274:44|346:42,1,110,2|10,1:2|0:2,0:0:0:0:
416,22,41161,1,2,0:0:0:0:
494,99,41581,2,0,L|487:158,1,55,10|2,0:2|1:2,0:0:0:0:
449,193,42001,6,0,L|466:342,1,110,6|10,1:2|0:2,0:0:0:0:
468,356,42630,1,2,1:2:0:0:
362,365,43049,1,2,1:2:0:0:
362,365,43259,2,0,L|286:354,1,55,10|2,0:2|1:2,0:0:0:0:
255,337,43679,2,0,P|180:322|138:355,1,110,2|10,1:2|0:2,0:0:0:0:
48,369,44518,2,0,L|62:298,1,55,2|2,0:0|1:2,0:0:0:0:
69,260,44938,1,10,0:2:0:0:
28,158,45357,6,0,L|20:41,1,110,2|10,1:2|0:2,0:0:0:0:
58,7,45987,1,0,1:2:0:0:
157,64,46406,1,2,1:2:0:0:
157,64,46616,2,0,L|164:155,1,55,10|2,0:2|1:2,0:0:0:0:
164,173,47036,2,0,B|147:228|147:228|175:298,1,110,2|10,1:2|0:2,0:0:0:0:
267,320,47875,2,0,L|274:236,1,55,2|2,0:0|1:2,0:0:0:0:
274,210,48294,1,10,0:2:0:0:
280,102,48714,6,0,P|323:57|400:72,1,110,2|10,1:2|0:2,0:0:0:0:
417,79,49343,1,0,1:2:0:0:
478,170,49763,1,2,1:2:0:0:
478,170,49973,2,0,L|466:253,1,55,10|2,0:2|1:2,0:0:0:0:
458,278,50392,2,0,P|396:279|326:298,1,110,2|10,1:2|0:2,0:0:0:0:
300,313,51022,1,0,1:2:0:0:
197,352,51441,1,2,1:2:0:0:
197,352,51651,2,0,L|210:274,1,55,10|2,0:2|1:2,0:0:0:0:
215,243,52070,6,0,P|216:167|160:135,1,110,2|10,1:2|0:2,0:0:0:0:
85,137,52910,2,0,L|89:215,2,55,2|0|10,0:0|1:2|0:2,0:0:0:0:
152,50,53749,2,0,L|289:43,1,110,2|10,1:2|0:2,0:0:0:0:
347,113,54588,2,0,L|332:253,1,110,2|10,1:2|0:2,0:0:0:0:
111,57,62140,6,0,B|80:93|80:93|101:187,1,98.9999969787599,2|10,0:0|0:0,0:0:0:0:
186,171,62980,2,0,L|192:302,1,98.9999969787599,2|10,0:0|0:0,0:0:0:0:
194,319,63609,1,2,0:0:0:0:
194,319,63819,2,0,P|260:342|314:374,1,98.9999969787599,2|10,0:0|0:0,0:0:0:0:
362,292,64658,2,0,P|342:224|338:162,1,98.9999969787599,2|10,0:0|0:0,0:0:0:0:
345,97,65497,6,0,B|377:55|377:55|455:52,2,98.9999969787599,2|10|2,0:0|0:0|0:0,0:0:0:0:
259,146,66756,1,10,0:0:0:0:
165,113,67175,2,0,B|115:122|71:88|71:88|58:144|-9:162,1,197.99999395752,6|2,0:0|0:2,0:0:0:0:
66,236,68434,1,8,0:0:0:0:
35,330,68854,6,0,P|72:358|139:340,1,98.9999969787599,6|8,1:2|0:0,0:0:0:0:
162,324,69483,1,0,0:0:0:0:
162,324,69693,2,0,L|281:331,1,98.9999969787599,2|8,1:2|0:0,0:0:0:0:
357,349,70532,2,0,L|348:227,1,98.9999969787599,2|8,1:2|0:0,0:0:0:0:
336,152,71371,2,0,L|244:138,1,49.4999984893799,2|2,1:2|0:0,0:0:0:0:
237,145,71791,1,10,0:0:0:0:
144,109,72210,6,0,P|190:44|239:41,1,98.9999969787599,2|8,1:2|0:0,0:0:0:0:
254,42,72840,1,0,0:0:0:0:
254,42,73049,2,0,L|368:51,1,98.9999969787599,2|8,1:2|0:0,0:0:0:0:
450,69,73889,2,0,B|478:105|478:105|458:187,1,98.9999969787599,2|8,1:2|0:0,0:0:0:0:
431,249,74728,2,0,L|413:328,1,49.4999984893799,2|0,1:2|0:0,0:0:0:0:
402,343,75147,1,10,0:0:0:0:
305,320,75567,6,0,P|282:250|282:178,1,98.9999969787599,2|8,1:2|0:0,0:0:0:0:
273,175,76196,1,0,0:0:0:0:
273,175,76406,2,0,P|240:118|189:113,1,98.9999969787599,2|8,1:2|0:0,0:0:0:0:
112,103,77245,2,0,B|79:129|79:129|87:202,1,98.9999969787599,2|8,1:2|0:0,0:0:0:0:
38,272,78084,2,0,L|47:362,1,49.4999984893799,2|0,1:2|0:0,0:0:0:0:
55,369,78504,1,8,0:0:0:0:
136,313,78924,6,0,P|213:287|253:289,1,98.9999969787599,2|8,1:2|0:0,0:0:0:0:
324,315,79763,2,0,B|369:341|369:341|456:324,2,98.9999969787599,2|8|6,1:2|0:0|0:0,0:0:0:0:
222,35,81861,2,0,L|286:31,1,49.4999984893799,6|2,0:0|0:0,0:0:0:0:
328,51,82280,6,0,P|365:88|336:178,1,121.000003692627,6|10,1:2|3:2,0:0:0:0:
320,197,82910,1,2,0:0:0:0:
320,197,83119,2,0,L|328:299,1,60.5000018463135,2|2,1:2|3:2,0:0:0:0:
331,317,83539,1,10,3:2:0:0:
219,364,83959,2,0,P|153:316|93:313,1,121.000003692627,2|10,1:2|3:2,0:0:0:0:
55,315,84588,1,2,0:0:0:0:
55,315,84798,2,0,L|38:226,1,60.5000018463135,2|2,1:2|3:2,0:0:0:0:
57,196,85217,1,10,3:2:0:0:
61,74,85637,6,0,P|113:29|188:51,1,121.000003692627,2|10,1:2|3:2,0:0:0:0:
205,81,86266,1,2,0:0:0:0:
205,81,86476,2,0,L|277:70,1,60.5000018463135,2|2,1:2|3:2,0:0:0:0:
325,63,86896,1,10,3:2:0:0:
440,98,87315,2,0,B|461:128|461:128|447:226,1,121.000003692627,2|10,1:2|3:2,0:0:0:0:
424,330,88154,2,0,L|340:342,1,60.5000018463135,2|2,1:2|3:2,0:0:0:0:
306,319,88574,2,0,L|208:305,1,60.5000018463135,10|2,3:2|0:0,0:0:0:0:
192,339,88994,6,0,P|120:319|52:352,1,121.000003692627,2|10,1:2|3:2,0:0:0:0:
18,345,89623,1,2,0:0:0:0:
18,345,89833,2,0,P|37:270|37:210,1,121.000003692627,2|10,1:2|3:2,0:0:0:0:
28,105,90672,2,0,P|91:34|143:52,1,121.000003692627,2|10,1:2|3:2,0:0:0:0:
169,56,91301,1,2,0:0:0:0:
169,56,91511,2,0,L|252:65,1,60.5000018463135,2|2,1:2|3:2,0:0:0:0:
278,97,91931,2,0,L|374:89,1,60.5000018463135,10|2,3:2|0:0,0:0:0:0:
386,118,92350,6,0,B|403:147|403:147|387:250,1,110,6|10,2:2|2:2,0:0:0:0:
346,323,93189,2,0,P|297:338|246:286,1,110,2|10,2:2|2:2,0:0:0:0:
227,256,93819,1,2,2:0:0:0:
227,256,94029,2,0,L|238:174,1,55,6|2,2:2|2:2,0:0:0:0:
246,147,94448,2,0,L|259:62,2,55,10|2|2,2:2|2:3|2:2,0:0:0:0:
140,177,95287,2,0,L|56:158,1,55,10|2,2:2|2:0,0:0:0:0:
33,148,95707,1,6,0:0:0:0:
256,192,95812,12,0,97700,0:0:0:0:
