osu file format v14

[General]
AudioFilename: audio.mp3
AudioLeadIn: 0
PreviewTime: 80602
Countdown: 1
SampleSet: Soft
StackLeniency: 0.5
Mode: 0
LetterboxInBreaks: 0
WidescreenStoryboard: 1

[Editor]
Bookmarks: 47426
DistanceSpacing: 0.5
BeatDivisor: 4
GridSize: 4
TimelineZoom: 1

[Metadata]
Title:Time machine
TitleUnicode:Time machine
Artist:Waterflame
ArtistUnicode:Waterflame
Creator:Sytho
Version:Hard
Source:Geometry Dash
Tags:adventure instrumental newgrounds 2009 robtop games cut ver video game electronic rhythm
BeatmapID:3332444
BeatmapSetID:1630706

[Difficulty]
HPDrainRate:4.4
CircleSize:3.8
OverallDifficulty:7
ApproachRate:8
SliderMultiplier:1.6
SliderTickRate:1

[Events]
//Background and Video events
0,0,"bg.jpg",0,0
//Break Periods
2,55627,61332
//Storyboard Layer 0 (Background)
//Storyboard Layer 1 (Fail)
//Storyboard Layer 2 (Pass)
//Storyboard Layer 3 (Foreground)
//Storyboard Layer 4 (Overlay)
//Storyboard Sound Samples

[TimingPoints]
43,419.58041958042,4,2,1,60,1,0
1721,-111.111111111111,4,2,1,60,0,0
15147,-111.111111111111,4,2,1,65,0,0
28574,-100,4,2,1,75,0,0
55427,-111.111111111111,4,2,1,60,0,0
68854,-111.111111111111,4,2,1,70,0,0
82280,-90.9090909090909,4,2,1,85,0,1
92350,-100,4,2,1,65,0,0
94029,-100,4,2,1,75,0,0
95812,-125,4,2,1,5,0,0

[Colours]
Combo1 : 91,255,255
Combo2 : 235,162,131
Combo3 : 6,174,255
Combo4 : 209,98,31

[HitObjects]
116,80,1721,6,0,B|138:126|138:126|122:235,1,143.999995605469,2|0,3:2|3:2,0:0:0:0:
110,310,2350,1,0,0:0:0:0:
110,310,2560,2,0,B|191:336|157:266|259:296,1,143.999995605469,2|0,3:2|3:2,0:0:0:0:
383,248,3399,2,0,L|380:331,1,71.9999978027344,2|0,3:2|0:0,0:0:0:0:
316,185,3819,2,0,P|370:150|407:154,1,71.9999978027344,0|2,3:2|3:2,0:0:0:0:
415,153,4133,1,2,3:2:0:0:
415,153,4238,2,0,L|493:156,2,71.9999978027344,2|0|0,3:2|3:2|3:2,0:0:0:0:
160,159,5077,6,0,P|119:130|109:103,1,71.9999978027344,2|0,3:2|0:0,0:0:0:0:
192,2,5497,2,0,L|223:95,1,71.9999978027344,0|0,3:2|0:0,0:0:0:0:
245,155,5917,2,0,B|273:239|199:210|249:323,1,143.999995605469,2|0,3:2|3:2,0:0:0:0:
421,372,6756,2,0,B|437:342|437:342|423:268|423:268|442:219,1,143.999995605469,2|0,3:2|3:2,0:0:0:0:
480,150,7385,1,2,3:2:0:0:
469,151,7490,1,2,3:2:0:0:
458,152,7595,2,0,L|367:164,1,71.9999978027344,2|0,3:2|3:2,0:0:0:0:
302,207,8015,2,0,L|249:202,4,35.9999989013672,0|0|0|0|2,3:2|0:0|3:2|0:0|3:2,0:0:0:0:
197,376,8854,6,0,L|184:293,1,71.9999978027344,0|0,3:2|0:0,0:0:0:0:
164,222,9273,2,0,B|72:208|114:268|17:252,1,143.999995605469,2|0,3:2|3:2,0:0:0:0:
0,168,9903,1,0,0:0:0:0:
38,88,10112,2,0,P|100:94|170:80,2,107.999996704102,2|2|2,3:2|0:0|3:2,0:0:0:0:
125,9,10952,2,0,P|191:13|230:101,1,143.999995605469,2|0,3:2|3:2,0:0:0:0:
245,165,11581,2,0,L|249:216,2,35.9999989013672,0|0|2,3:2|0:0|3:2,0:0:0:0:
307,14,12210,6,0,P|345:21|408:20,1,71.9999978027344,2|0,3:2|0:0,0:0:0:0:
510,60,12630,2,0,B|414:52|467:115|359:110,1,143.999995605469,2|0,3:2|3:2,0:0:0:0:
171,58,13469,2,0,P|109:72|85:163,2,143.999995605469,2|0|2,3:2|3:2|3:2,0:0:0:0:
242,229,14728,2,0,L|178:222,3,35.9999989013672,0|0|0|0,3:2|0:0|3:2|0:0,0:0:0:0:
144,298,15147,6,0,L|308:314,1,143.999995605469,2|0,1:2|3:2,0:0:0:0:
425,329,15777,1,0,1:2:0:0:
369,212,15987,2,0,L|361:302,2,71.9999978027344,2|0|0,0:0|1:2|3:2,0:0:0:0:
385,107,16616,1,0,0:0:0:0:
302,158,16826,2,0,B|234:166|234:166|240:170|240:170|161:182,1,143.999995605469,2|0,1:2|3:2,0:0:0:0:
98,122,17455,1,2,1:2:0:0:
98,122,17560,1,0,1:2:0:0:
98,122,17665,2,0,L|111:43,2,71.9999978027344,2|0|0,1:2|1:2|3:2,0:0:0:0:
155,368,18504,6,0,P|206:308|268:311,1,143.999995605469,2|0,1:2|3:2,0:0:0:0:
341,368,19133,1,0,1:2:0:0:
366,272,19343,2,0,L|454:251,2,71.9999978027344,2|0|0,0:0|1:2|3:2,0:0:0:0:
369,30,20182,2,0,B|400:64|400:64|383:160,1,143.999995605469,2|0,1:2|3:2,0:0:0:0:
299,72,20812,1,2,1:2:0:0:
299,72,20917,1,0,1:2:0:0:
299,72,21022,2,0,L|212:66,1,71.9999978027344,2|0,1:2|1:2,0:0:0:0:
145,130,21441,2,0,L|87:126,3,35.9999989013672,0|0|0|0,3:2|0:0|3:2|0:0,0:0:0:0:
90,126,21861,6,0,L|81:271,1,143.999995605469,2|0,1:2|3:2,0:0:0:0:
169,239,22490,1,0,1:2:0:0:
76,349,22700,2,0,L|155:360,1,71.9999978027344,2|0,0:0|1:2,0:0:0:0:
300,285,23119,2,0,L|221:296,1,71.9999978027344,0|0,3:2|0:0,0:0:0:0:
345,367,23539,2,0,P|387:323|367:225,1,143.999995605469,2|0,1:2|3:2,0:0:0:0:
285,192,24168,1,0,0:0:0:0:
382,151,24378,2,0,L|474:154,2,71.9999978027344,2|0|0,1:2|1:2|3:2,0:0:0:0:
286,90,25008,1,0,3:2:0:0:
359,23,25217,1,2,1:2:0:0:
453,153,25637,6,0,L|462:259,1,71.9999978027344,0|0,3:2|1:2,0:0:0:0:
471,339,26056,2,0,B|371:310|427:381|309:344,1,143.999995605469,2|0,0:0|3:2,0:0:0:0:
210,203,26896,2,0,P|128:206|104:347,1,215.999993408203,6|0,1:2|1:0,0:0:0:0:
228,370,27735,1,0,3:0:0:0:
228,370,27840,2,0,P|245:311|246:276,1,71.9999978027344,0|0,1:0|1:0,0:0:0:0:
296,235,28154,2,0,L|365:227,3,35.9999989013672,2|2|10|10,1:2|0:0|0:0|0:0,0:0:0:0:
362,159,28574,6,0,L|375:61,1,80,6|2,1:2|0:0,0:0:0:0:
261,31,28994,2,0,L|267:97,2,40,10|0|0,0:2|0:0|1:2,0:0:0:0:
154,60,29413,2,0,L|164:139,1,80,0|2,0:0|1:2,0:0:0:0:
78,194,29833,1,10,0:2:0:0:
65,223,29938,1,2,0:0:0:0:
67,254,30043,1,2,1:2:0:0:
75,284,30147,1,2,0:0:0:0:
97,306,30252,6,0,B|172:299|172:299|167:306|167:306|260:297,1,160,2|10,1:2|0:2,0:0:0:0:
317,357,30882,1,0,1:2:0:0:
381,295,31091,2,0,L|456:298,3,40,2|2|2|2,0:0|0:0|1:2|0:0,0:0:0:0:
407,218,31511,2,0,L|482:221,3,40,10|2|2|2,0:2|0:0|1:2|0:0,0:0:0:0:
480,148,31931,6,0,L|492:57,1,80,2|2,1:2|0:0,0:0:0:0:
365,56,32350,2,0,L|374:121,2,40,10|2|2,0:2|0:0|1:2,0:0:0:0:
266,32,32770,1,0,0:0:0:0:
260,160,32980,1,2,1:2:0:0:
184,88,33189,2,0,L|85:79,1,80,10|2,0:2|1:2,0:0:0:0:
25,198,33609,6,0,B|108:217|75:141|187:176,1,160,2|10,1:2|0:2,0:0:0:0:
265,353,34448,1,2,0:0:0:0:
263,320,34553,1,2,0:0:0:0:
261,287,34658,1,2,1:2:0:0:
260,254,34763,1,2,0:0:0:0:
256,222,34868,2,0,L|357:216,1,80,10|2,0:2|1:2,0:0:0:0:
432,209,35287,5,2,1:2:0:0:
489,132,35497,2,0,L|493:84,2,40,2|2|10,0:0|1:2|0:2,0:0:0:0:
446,18,35917,1,2,1:2:0:0:
243,126,36336,1,2,1:2:0:0:
163,73,36546,2,0,L|57:79,1,80,10|2,0:2|1:2,0:0:0:0:
50,67,36861,1,2,0:0:0:0:
50,67,36966,6,0,B|17:106|17:106|44:224,1,160,2|10,1:2|0:2,0:0:0:0:
81,343,37595,1,0,1:2:0:0:
168,244,37805,2,0,P|211:234|257:237,1,80,2|2,0:0|1:2,0:0:0:0:
273,381,38224,2,0,P|240:351|216:312,1,80,10|2,0:2|1:2,0:0:0:0:
178,143,38644,6,0,P|193:85|284:57,1,160,2|10,1:2|0:2,0:0:0:0:
487,69,39483,1,2,0:0:0:0:
487,69,39588,2,0,B|499:109|499:109|478:173,1,80,2|2,0:0|0:0,0:0:0:0:
474,163,39903,2,0,L|386:152,1,80,10|2,0:2|1:2,0:0:0:0:
325,236,40322,6,0,B|310:347|310:347|273:290,1,160,2|10,1:2|0:2,0:0:0:0:
64,204,41161,1,2,0:0:0:0:
64,204,41266,2,0,P|36:247|56:298,1,80,2|2,0:0|0:0,0:0:0:0:
52,289,41581,2,0,L|147:296,1,80,10|2,0:2|1:2,0:0:0:0:
240,152,42001,6,0,L|344:141,1,80,6|2,1:2|0:0,0:0:0:0:
417,73,42420,2,0,L|427:4,2,40,10|2|2,0:2|0:0|1:2,0:0:0:0:
406,192,42840,2,0,P|401:235|433:281,1,80,0|2,0:0|1:2,0:0:0:0:
493,367,43259,1,10,0:2:0:0:
461,360,43364,1,2,0:0:0:0:
429,354,43469,1,2,1:2:0:0:
396,353,43574,1,2,0:0:0:0:
364,360,43679,6,0,P|282:361|257:353,1,80,2|2,1:2|0:0,0:0:0:0:
215,247,44098,1,10,0:2:0:0:
215,247,44308,1,0,1:2:0:0:
101,335,44518,2,0,L|92:278,3,40,2|2|2|2,0:0|0:0|1:2|0:0,0:0:0:0:
76,268,44938,1,10,0:2:0:0:
90,239,45043,1,2,0:0:0:0:
100,208,45147,1,2,1:2:0:0:
109,177,45252,1,2,0:0:0:0:
116,145,45357,6,0,P|114:75|104:38,1,80,2|2,1:2|0:0,0:0:0:0:
216,126,45777,2,0,B|273:137|318:115,1,80,10|0,0:2|1:2,0:0:0:0:
435,85,46196,2,0,B|357:145|404:244,1,160,2|10,0:0|0:2,0:0:0:0:
436,343,46826,1,2,1:2:0:0:
306,255,47036,6,0,L|293:350,1,80,2|0,1:2|0:0,0:0:0:0:
221,222,47455,1,10,0:2:0:0:
169,360,47665,1,0,1:2:0:0:
169,360,47770,1,0,0:0:0:0:
169,360,47875,2,0,L|158:267,1,80,2|2,0:0|1:2,0:0:0:0:
132,93,48294,2,0,L|124:41,2,40,10|2|2,0:2|0:0|1:2,0:0:0:0:
0,200,48714,6,0,B|12:170|12:170|72:141,1,80,2|0,1:2|0:0,0:0:0:0:
231,119,49133,2,0,B|273:139|273:139|285:169,1,80,10|0,0:2|1:2,0:0:0:0:
159,280,49553,2,0,L|137:120,1,160,2|10,0:0|0:2,0:0:0:0:
66,300,50182,1,2,1:2:0:0:
247,274,50392,6,0,L|343:260,1,80,2|0,1:2|0:0,0:0:0:0:
431,371,50812,1,10,0:2:0:0:
410,249,51022,1,0,1:2:0:0:
410,249,51126,1,0,0:0:0:0:
410,249,51231,2,0,L|396:153,1,80,2|2,0:0|1:2,0:0:0:0:
499,261,51651,1,10,0:2:0:0:
475,67,51861,1,2,1:2:0:0:
398,169,52070,6,0,B|344:179|325:147|341:136|308:108|236:131,1,160,2|10,1:2|0:2,0:0:0:0:
226,150,52595,1,0,0:0:0:0:
226,150,52700,1,0,1:2:0:0:
169,265,52910,2,0,P|168:300|192:362,1,80,2|0,0:0|1:2,0:0:0:0:
331,342,53329,2,0,P|343:304|343:265,1,80,10|2,0:2|1:2,0:0:0:0:
254,366,53749,1,2,1:2:0:0:
256,192,53854,12,2,55427,0:0:0:0:
159,66,62140,6,0,L|172:152,1,71.9999978027344,2|0,0:0|0:0,0:0:0:0:
313,122,62560,2,0,L|235:83,1,71.9999978027344,10|0,0:0|0:0,0:0:0:0:
180,232,62980,2,0,L|256:190,1,71.9999978027344,2|0,0:0|0:0,0:0:0:0:
159,66,63399,1,10,0:0:0:0:
71,137,63609,1,2,0:0:0:0:
71,137,63714,1,2,0:0:0:0:
71,137,63819,6,0,P|85:203|84:239,1,71.9999978027344,2|0,0:0|0:0,0:0:0:0:
165,302,64238,2,0,P|170:266|180:232,1,71.9999978027344,10|0,0:0|0:0,0:0:0:0:
286,125,64658,2,0,L|340:120,2,35.9999989013672,2|2|2,0:0|0:0|0:0,0:0:0:0:
321,203,65077,2,0,L|375:198,3,35.9999989013672,10|2|2|2,0:0|0:0|0:0|0:0,0:0:0:0:
374,196,65497,6,0,L|390:322,1,107.999996704102,2|0,0:0|0:0,0:0:0:0:
391,320,65917,2,0,B|319:319|354:360|276:360,1,107.999996704102,10|0,0:0|0:0,0:0:0:0:
258,362,66336,2,0,L|193:354,3,35.9999989013672,2|2|2|2,0:0|0:0|0:0|0:0,0:0:0:0:
192,311,66756,2,0,L|156:315,3,35.9999989013672,10|2|2|2,0:0|0:0|0:0|0:0,0:0:0:0:
125,356,67175,5,6,0:0:0:0:
90,145,67805,2,0,L|189:133,1,71.9999978027344,2|2,0:3|0:2,0:0:0:0:
186,162,68119,1,0,0:0:0:0:
186,162,68224,1,2,0:3:0:0:
259,109,68434,2,0,L|317:114,3,35.9999989013672,8|4|4|4,0:0|0:3|0:3|0:3,0:0:0:0:
328,129,68854,6,0,B|359:159|359:159|326:286,1,143.999995605469,6|8,1:2|0:0,0:0:0:0:
254,312,69483,1,0,0:0:0:0:
254,312,69693,2,0,L|246:217,1,71.9999978027344,2|0,1:2|0:0,0:0:0:0:
333,256,70112,2,0,L|339:327,1,71.9999978027344,8|0,0:0|0:0,0:0:0:0:
193,358,70532,2,0,B|114:339|171:293|63:278,1,143.999995605469,2|8,1:2|0:0,0:0:0:0:
0,315,71161,1,0,0:0:0:0:
15,224,71371,2,0,L|24:190,3,35.9999989013672,2|2|2|2,1:2|0:0|0:0|0:0,0:0:0:0:
41,153,71791,2,0,B|85:152|126:129,1,71.9999978027344,10|2,0:0|0:0,0:0:0:0:
237,60,72210,6,0,P|193:105|211:189,1,143.999995605469,2|8,1:2|0:0,0:0:0:0:
272,242,72840,1,0,0:0:0:0:
336,180,73049,2,0,L|414:172,1,71.9999978027344,2|0,1:2|0:0,0:0:0:0:
508,264,73469,1,8,0:0:0:0:
508,264,73679,1,0,0:0:0:0:
493,158,73889,2,0,L|479:67,1,71.9999978027344,2|0,1:2|0:0,0:0:0:0:
407,172,74308,2,0,L|396:243,1,71.9999978027344,8|0,0:0|0:0,0:0:0:0:
381,350,74728,2,0,B|314:354|314:354|316:359|316:359|237:365,1,143.999995605469,2|10,1:2|0:0,0:0:0:0:
200,273,75357,1,2,0:0:0:0:
149,336,75567,6,0,P|118:286|167:202,1,143.999995605469,2|8,1:2|0:0,0:0:0:0:
220,123,76196,1,0,0:0:0:0:
220,123,76406,2,0,L|231:214,1,71.9999978027344,2|0,1:2|0:0,0:0:0:0:
105,147,76826,2,0,L|113:75,1,71.9999978027344,8|0,0:0|0:0,0:0:0:0:
232,7,77245,2,0,B|302:15|302:15|296:19|296:19|371:31,1,143.999995605469,2|8,1:2|0:0,0:0:0:0:
470,52,77875,1,0,0:0:0:0:
398,124,78084,2,0,L|411:217,1,71.9999978027344,2|0,1:2|0:0,0:0:0:0:
423,304,78504,1,8,0:0:0:0:
423,304,78714,1,0,0:0:0:0:
300,224,78924,6,0,P|267:246|256:303,1,71.9999978027344,2|0,1:2|0:0,0:0:0:0:
343,364,79343,2,0,P|343:324|303:282,1,71.9999978027344,8|0,0:0|0:0,0:0:0:0:
201,328,79763,2,0,P|232:351|290:342,1,71.9999978027344,2|0,1:2|0:0,0:0:0:0:
319,141,80182,1,8,0:0:0:0:
62,192,80602,1,6,0:0:0:0:
256,192,80707,12,6,81861,0:0:0:0:
223,351,82280,6,0,L|214:252,1,88.000002685547,6|2,1:2|0:0,0:0:0:0:
221,188,82595,1,0,3:2:0:0:
221,188,82700,2,0,P|230:133|205:90,1,88.000002685547,10|2,3:2|0:0,0:0:0:0:
46,126,83119,1,2,1:2:0:0:
146,146,83329,1,2,3:2:0:0:
22,201,83539,1,10,3:2:0:0:
70,46,83749,1,2,0:0:0:0:
101,218,83959,6,0,L|112:318,1,88.000002685547,2|2,1:2|3:2,0:0:0:0:
280,379,84378,2,0,B|302:351|302:351|317:288,2,88.000002685547,10|2|2,3:2|0:0|1:2,0:0:0:0:
244,227,85008,1,2,3:2:0:0:
396,275,85217,1,10,3:2:0:0:
232,314,85427,1,2,0:0:0:0:
324,163,85637,6,0,L|431:183,1,88.000002685547,2|2,1:2|3:2,0:0:0:0:
482,225,85952,1,0,3:2:0:0:
482,225,86056,2,0,P|495:170|479:127,1,88.000002685547,10|2,3:2|0:0,0:0:0:0:
392,34,86476,1,2,1:2:0:0:
410,179,86686,1,2,3:2:0:0:
301,48,86896,1,10,3:2:0:0:
265,223,87105,1,2,0:0:0:0:
302,38,87315,6,0,P|244:58|196:59,1,88.000002685547,2|2,1:2|3:2,0:0:0:0:
265,223,87735,2,0,P|281:164|308:124,1,88.000002685547,10|2,3:2|0:0,0:0:0:0:
120,116,88154,2,0,P|158:163|175:208,2,88.000002685547,2|2|10,1:2|3:2|3:2,0:0:0:0:
15,223,88784,1,2,0:0:0:0:
59,313,88994,6,0,P|124:293|172:293,1,88.000002685547,2|2,1:2|3:2,0:0:0:0:
199,349,89308,1,0,3:2:0:0:
199,349,89413,2,0,L|287:356,1,88.000002685547,10|2,3:2|0:0,0:0:0:0:
428,184,89833,2,0,L|340:191,1,88.000002685547,2|2,1:2|3:2,0:0:0:0:
233,267,90252,2,0,L|321:274,1,88.000002685547,10|2,3:2|0:0,0:0:0:0:
428,184,90672,5,2,1:2:0:0:
402,284,90882,1,2,3:2:0:0:
320,116,91091,2,0,P|269:162|270:217,1,88.000002685547,10|2,3:2|0:0,0:0:0:0:
199,349,91511,1,2,1:2:0:0:
158,180,91721,1,2,3:2:0:0:
35,304,91931,2,0,L|147:306,1,88.000002685547,10|2,3:2|0:0,0:0:0:0:
185,99,92350,6,0,P|93:119|71:184,1,160,6|10,2:2|2:2,0:0:0:0:
236,204,92980,1,2,2:0:0:0:
236,204,93189,2,0,P|271:168|294:123,1,80,2|2,2:2|2:2,0:0:0:0:
329,9,93609,2,0,P|338:58|362:102,1,80,10|2,2:2|2:0,0:0:0:0:
450,159,94029,6,0,L|342:169,1,80,6|2,2:2|2:2,0:0:0:0:
252,67,94448,2,0,L|172:59,1,80,10|2,2:2|2:3,0:0:0:0:
29,145,94868,1,2,2:2:0:0:
29,145,95287,2,0,L|33:212,3,40,10|2|2|2,2:2|0:0|2:0|0:0,0:0:0:0:
37,264,95707,1,6,0:0:0:0:
256,192,95812,12,0,97700,0:0:0:0:
