osu file format v14

[General]
AudioFilename: audio.mp3
AudioLeadIn: 0
PreviewTime: 183662
Countdown: 0
SampleSet: Soft
StackLeniency: 0.7
Mode: 2
LetterboxInBreaks: 0
WidescreenStoryboard: 1

[Editor]
Bookmarks: 390,23662,35299,58571,83299,106571,119662,131299,142935,154571,166208,189480,212753,224390,236026,246208
DistanceSpacing: 1.1
BeatDivisor: 4
GridSize: 4
TimelineZoom: 1

[Metadata]
Title:Ricochet Love
TitleUnicode:Ricochet Love
Artist:Waterflame
ArtistUnicode:Waterflame
Creator:JBHyperion
Version:Salad
Source:Raze 2
Tags:Newgrounds Christian Mejlænder Krogsvold Chainsaw_09 Green epic breaktrance drum and bass dnb electronic instrumental browser flash Armor Games Age of War Geometry Dash video videogame VGM soundtrack sound track
BeatmapID:3689908
BeatmapSetID:1799889

[Difficulty]
HPDrainRate:3
CircleSize:2.8
OverallDifficulty:7
ApproachRate:7
SliderMultiplier:1.6
SliderTickRate:1

[Events]
//Background and Video events
0,0,"ricochet-love-bg.png",0,0
//Break Periods
2,83662,92026
2,125844,129844
//Storyboard Layer 0 (Background)
//Storyboard Layer 1 (Fail)
//Storyboard Layer 2 (Pass)
//Storyboard Layer 3 (Foreground)
//Storyboard Layer 4 (Overlay)
//Storyboard Sound Samples

[TimingPoints]
390,363.636363636364,4,2,1,60,1,0
3480,-100,4,2,2,70,0,0
3662,-100,4,2,1,60,0,0
4753,-100,4,2,2,50,0,0
4935,-100,4,2,1,60,0,0
6208,-100,4,2,3,60,0,0
6390,-100,4,2,1,60,0,0
9299,-100,4,2,2,70,0,0
9480,-100,4,2,1,60,0,0
12026,-100,4,2,3,70,0,0
12208,-100,4,2,1,70,0,0
23662,-100,4,2,3,70,0,0
24026,-100,4,2,1,80,0,0
26753,-100,4,2,2,80,0,0
26935,-100,4,2,1,80,0,0
28935,-100,4,2,1,80,0,0
29480,-100,4,2,3,70,0,0
30026,-100,4,2,1,70,0,0
30935,-100,4,2,1,30,0,0
31662,-100,4,2,1,40,0,0
32390,-100,4,2,1,30,0,0
32753,-100,4,2,1,40,0,0
33117,-100,4,2,1,50,0,0
33480,-100,4,2,1,60,0,0
33844,-100,4,2,1,70,0,0
34117,-100,4,2,1,40,0,0
34208,-100,4,2,1,70,0,0
34299,-100,4,2,1,40,0,0
34480,-100,4,2,1,70,0,0
34662,-100,4,2,1,40,0,0
34753,-100,4,2,1,70,0,0
34935,-100,4,2,77,80,0,0
35299,-100,4,2,3,80,0,0
35662,-100,4,2,1,80,0,0
38753,-100,4,2,1,80,0,0
39117,-100,4,2,1,80,0,0
44026,-100,4,2,1,80,0,0
44390,-100,4,2,1,80,0,0
46208,-100,4,2,1,80,0,0
46571,-100,4,2,77,90,0,0
46753,-100,4,2,1,80,0,0
46935,-100,4,2,3,80,0,0
47117,-100,4,2,1,80,0,0
52390,-100,4,2,1,80,0,0
52753,-100,4,2,1,80,0,0
55662,-100,4,2,1,85,0,0
57117,-100,4,2,1,90,0,0
58208,-100,4,2,77,90,0,0
58390,-100,4,2,1,80,0,0
58571,-83.3333333333333,4,2,3,90,0,1
58753,-100,4,2,1,90,0,1
58935,-100,4,2,1,90,0,1
69844,-100,4,2,1,90,0,0
70208,-83.3333333333333,4,2,3,90,0,1
70390,-100,4,2,1,90,0,1
70571,-100,4,2,1,90,0,1
82935,-100,4,2,77,90,0,1
83299,-100,4,2,3,80,0,0
83662,-100,4,2,1,80,0,0
88753,-100,4,2,1,80,0,0
89117,-100,4,2,1,80,0,0
94571,-100,4,2,77,80,0,0
94753,-100,4,2,1,80,0,0
94935,-100,4,2,3,80,0,0
95117,-100,4,2,1,80,0,0
106208,-100,4,2,77,80,0,0
106571,-83.3333333333333,4,2,1,80,0,0
106935,-100,4,2,1,80,0,0
112390,-100,4,2,77,90,0,0
112571,-100,4,2,1,80,0,0
117117,-100,4,2,1,40,0,0
117480,-100,4,2,1,50,0,0
117844,-100,4,2,1,60,0,0
118208,-100,4,2,1,55,0,0
118571,-100,4,2,1,65,0,0
118935,-100,4,2,1,75,0,0
119299,-100,4,2,1,85,0,0
119662,-100,4,2,3,100,0,0
120026,-100,4,2,1,30,0,0
125480,-100,4,2,1,5,0,0
131299,-100,4,2,4,60,0,0
136390,-100,4,2,4,60,0,0
137117,-100,4,2,4,70,0,0
137480,-100,4,2,4,50,0,0
138571,-100,4,2,4,60,0,0
141480,-100,4,2,4,50,0,0
142662,-100,4,2,78,50,0,0
143117,-100,4,2,4,60,0,0
148753,-100,4,2,78,50,0,0
148935,-100,4,2,4,60,0,0
153117,-100,4,2,4,50,0,0
154571,-100,4,2,78,50,0,0
154753,-100,4,2,4,60,0,0
160390,-100,4,2,3,60,0,0
160571,-100,4,2,4,60,0,0
163299,-100,4,2,1,30,0,0
163480,-100,4,2,5,30,0,0
163571,-100,4,2,1,30,0,0
163662,-100,4,2,1,40,0,0
163844,-100,4,2,5,40,0,0
163935,-100,4,2,1,40,0,0
164026,-100,4,2,1,50,0,0
164208,-100,4,2,5,50,0,0
164299,-100,4,2,1,50,0,0
164390,-100,4,2,1,60,0,0
164571,-100,4,2,5,60,0,0
164662,-100,4,2,1,60,0,0
164753,-100,4,2,1,70,0,0
165117,-100,4,2,1,70,0,0
165480,-100,4,2,1,70,0,0
165844,-100,4,2,77,80,0,0
166208,-100,4,2,1,80,0,0
174571,-100,4,2,1,80,0,0
174935,-100,4,2,1,80,0,0
177844,-100,4,2,1,80,0,0
178208,-100,4,2,1,80,0,0
186571,-100,4,2,1,80,0,0
187117,-100,4,2,1,80,0,0
187480,-100,4,2,1,80,0,0
188571,-100,4,2,1,80,0,0
188934,-100,4,2,1,80,0,0
189480,-83.3333333333333,4,2,3,90,0,1
189844,-100,4,2,1,90,0,1
194208,-100,4,2,1,90,0,1
194571,-100,4,2,1,90,0,1
195844,-100,4,2,1,90,0,1
196208,-100,4,2,1,90,0,1
200753,-100,4,2,1,90,0,1
200935,-100,4,2,1,90,0,0
201117,-100,4,2,1,90,0,1
201480,-100,4,2,1,90,0,1
212026,-100,4,2,77,90,0,1
212571,-100,4,2,1,90,0,0
212753,-100,4,2,3,90,0,1
212935,-100,4,2,1,90,0,1
214026,-100,4,2,5,60,0,1
214117,-100,4,2,1,90,0,1
215480,-100,4,2,5,60,0,1
215571,-100,4,2,1,90,0,1
216935,-100,4,2,5,60,0,1
217026,-100,4,2,1,90,0,1
218390,-100,4,2,5,60,0,1
218481,-100,4,2,1,90,0,1
219844,-100,4,2,5,60,0,1
219935,-100,4,2,1,90,0,1
221299,-100,4,2,5,60,0,1
221390,-100,4,2,1,90,0,1
222753,-100,4,2,5,60,0,1
222844,-100,4,2,1,90,0,1
224208,-100,4,2,77,90,0,1
224390,-83.3333333333333,4,2,3,80,0,0
224753,-100,4,2,1,80,0,0
225662,-100,4,2,5,60,0,0
225753,-100,4,2,1,90,0,0
226026,-100,4,2,5,60,0,0
226117,-100,4,2,1,90,0,0
227844,-100,4,2,5,60,0,0
227935,-100,4,2,1,90,0,0
228571,-100,4,2,5,60,0,0
228662,-100,4,2,1,90,0,0
230026,-100,4,2,5,60,0,0
230117,-100,4,2,1,90,0,0
230753,-100,4,2,5,60,0,0
230844,-100,4,2,1,90,0,0
231480,-100,4,2,5,60,0,0
231571,-100,4,2,1,90,0,0
232208,-100,4,2,5,60,0,0
232299,-100,4,2,1,90,0,0
233117,-100,4,2,1,35,0,0
233480,-100,4,2,1,45,0,0
233844,-100,4,2,1,55,0,0
234208,-100,4,2,1,75,0,0
234299,-100,4,2,1,65,0,0
234390,-100,4,2,1,75,0,0
234480,-100,4,2,1,65,0,0
234571,-100,4,2,1,75,0,0
234935,-100,4,2,1,85,0,0
235299,-100,4,2,1,95,0,0
235662,-100,4,2,1,85,0,0
236026,-100,4,2,3,80,0,0
236390,-100,4,2,4,70,0,0
236753,-100,4,2,78,70,0,0
237480,-100,4,2,0,50,0,0
237844,-100,4,2,0,40,0,0
238208,-100,4,2,0,30,0,0
238571,-100,4,2,0,20,0,0
238935,-100,4,2,78,50,0,0
239662,-100,4,2,0,50,0,0
240390,-100,4,2,0,45,0,0
241117,-100,4,2,0,40,0,0
241844,-100,4,2,0,35,0,0
242571,-100,4,2,0,30,0,0
243299,-100,4,2,0,25,0,0
244026,-100,4,2,0,20,0,0
244753,-100,4,2,0,15,0,0
245480,-100,4,2,0,10,0,0
246208,-100,4,2,0,5,0,0

[Colours]
Combo1 : 150,80,120
Combo2 : 255,185,200
Combo3 : 255,100,121
Combo4 : 255,80,190

[HitObjects]
404,320,390,6,0,L|404:128,1,160,4|0,0:0|0:0,0:0:0:0:
164,192,1117,2,0,L|164:16,1,160,8|2,0:0|0:0,0:0:0:0:
308,32,1844,5,0,0:0:0:0:
180,32,2208,1,2,0:0:0:0:
252,32,2390,1,2,0:0:0:0:
324,32,2571,2,0,L|324:136,1,80,8|2,0:0|0:0,0:0:0:0:
252,112,2935,1,0,0:0:0:0:
108,192,3299,6,0,L|108:76,2,80,2|2|0,0:0|0:0|0:0,0:0:0:0:
348,192,4026,1,8,0:0:0:0:
204,192,4390,1,2,0:0:0:0:
460,192,4753,6,0,L|460:284,1,80,4|2,0:0|0:0,0:0:0:0:
372,332,5117,2,0,L|372:240,1,80,0|2,0:0|0:0,0:0:0:0:
284,192,5480,2,0,L|196:192,2,80,8|2|0,0:0|0:0|0:0,0:0:0:0:
44,364,6208,6,0,L|44:172,1,160,14|0,0:0|0:0,0:0:0:0:
284,192,6935,2,0,L|284:16,1,160,8|2,0:0|0:0,0:0:0:0:
140,64,7662,5,0,0:0:0:0:
268,32,8026,1,2,0:0:0:0:
196,32,8208,1,2,0:0:0:0:
124,32,8389,2,0,L|124:136,1,80,8|2,0:0|0:0,0:0:0:0:
196,112,8753,1,0,0:0:0:0:
356,192,9117,6,0,L|356:76,2,80,2|2|0,0:0|0:0|0:0,0:0:0:0:
116,224,9844,1,8,0:0:0:0:
276,192,10208,1,2,0:0:0:0:
116,84,10571,6,0,L|116:176,1,80,2|2,0:0|0:0,0:0:0:0:
204,224,10935,2,0,L|204:132,1,80,0|2,0:0|0:0,0:0:0:0:
116,84,11298,2,0,L|28:84,2,80,8|2|0,0:0|0:0|0:0,0:0:0:0:
388,192,12026,6,0,B|468:192|468:192|468:104,1,160,10|0,0:0|0:0,0:0:0:0:
388,112,12571,1,0,0:0:0:0:
220,32,12753,2,0,L|220:220,1,160,8|2,0:0|0:0,0:0:0:0:
220,192,13480,6,0,L|400:192,1,160,0|2,0:0|0:0,0:0:0:0:
120,192,14208,2,0,L|28:192,1,80,8|2,0:0|0:0,0:0:0:0:
120,192,14571,2,0,L|120:296,1,80,0|0,0:0|0:0,0:0:0:0:
200,272,14935,6,0,B|280:272|280:272|280:184,1,160,2|0,0:0|0:0,0:0:0:0:
20,20,15662,2,0,L|20:192,1,160,8|2,0:0|0:0,0:0:0:0:
20,180,16390,6,0,L|180:180,1,160,0|2,0:0|0:0,0:0:0:0:
260,180,16935,1,2,0:0:0:0:
92,180,17117,2,0,L|92:268,1,80,8|2,0:0|0:0,0:0:0:0:
124,264,17480,1,0,0:0:0:0:
284,256,17844,6,0,L|448:256,1,160,2|0,0:0|0:0,0:0:0:0:
364,256,18390,1,0,0:0:0:0:
196,256,18571,1,8,0:0:0:0:
356,192,18935,1,2,0:0:0:0:
212,192,19299,6,0,L|52:192,1,160,0|2,0:0|0:0,0:0:0:0:
308,192,20026,2,0,L|400:192,1,80,8|2,0:0|0:0,0:0:0:0:
308,192,20390,2,0,L|308:100,1,80,0|0,0:0|0:0,0:0:0:0:
388,192,20753,6,0,B|468:192|468:192|468:112,1,160,2|0,0:0|0:0,0:0:0:0:
208,192,21480,1,8,0:0:0:0:
352,192,21844,2,0,L|352:108,1,80,2|2,0:0|0:0,0:0:0:0:
208,192,22390,5,2,0:0:0:0:
128,192,22571,1,2,0:0:0:0:
216,192,22753,1,8,0:0:0:0:
48,192,22935,2,0,L|48:112,1,80,8|2,0:0|0:0,0:0:0:0:
136,112,23299,1,2,0:0:0:0:
176,112,23389,1,2,0:0:0:0:
216,112,23480,1,2,0:0:0:0:
384,192,23662,6,0,P|432:140|384:80,1,160,10|0,0:0|0:0,0:0:0:0:
128,192,24390,2,0,L|128:24,1,160,8|2,0:0|0:0,0:0:0:0:
272,32,25117,6,0,B|352:32|352:32|352:116,1,160,0|2,0:0|0:0,0:0:0:0:
272,112,25662,1,2,0:0:0:0:
104,112,25843,2,0,L|20:112,2,80,8|2|0,0:0|0:0|0:0,0:0:0:0:
248,192,26571,6,0,L|164:192,1,80,2|2,0:0|0:0,0:0:0:0:
168,192,27117,1,0,0:0:0:0:
336,192,27299,2,0,L|336:28,1,160,8|2,0:0|0:0,0:0:0:0:
176,32,28026,6,0,L|176:120,1,80,0|2,0:0|0:0,0:0:0:0:
320,32,28571,1,2,0:0:0:0:
152,32,28753,1,8,0:0:0:0:
72,32,28935,2,0,P|32:96|71:165,1,160,2|0,0:0|0:0,0:0:0:0:
236,192,29480,6,0,P|176:76|112:192,1,320,6|2,0:0|0:0,0:0:0:0:
184,192,30390,1,0,0:0:0:0:
256,192,30571,1,2,0:0:0:0:
400,192,30935,6,0,L|400:372,1,160,2|2,0:0|0:0,0:0:0:0:
256,272,31662,2,0,L|256:188,2,80,2|2|2,0:0|0:0|0:0,0:0:0:0:
256,192,32390,12,12,34935,0:0:0:0:
328,192,35299,6,0,L|488:192,1,160,10|8,3:2|3:2,3:3:0:0:
408,192,35844,1,2,3:2:0:0:
328,192,36026,2,0,L|416:192,1,80,0|2,3:2|3:2,0:0:0:0:
240,192,36390,1,8,3:2:0:0:
384,32,36753,6,0,L|384:196,1,160,6|8,3:2|3:2,3:3:0:0:
240,192,37480,2,0,L|152:192,1,80,0|2,3:2|3:2,0:0:0:0:
328,192,37844,2,0,L|328:100,1,80,8|0,3:2|3:2,3:3:0:0:
240,112,38208,6,0,B|160:112|160:112|160:196,1,160,6|8,3:2|3:2,3:3:0:0:
240,192,38753,2,0,B|320:192|320:192|236:192,1,160,2|2,3:2|3:2,3:3:0:0:
152,192,39299,2,0,L|152:276,1,80,8|0,3:2|3:2,3:3:0:0:
320,348,39662,6,0,L|380:348,2,40,6|2|2,3:2|3:2|3:2,3:3:0:0:
232,352,40026,2,0,L|148:352,1,80,8|2,3:2|3:2,3:3:0:0:
240,352,40390,2,0,L|240:264,1,80,0|2,3:2|3:2,0:0:0:0:
328,264,40753,2,0,L|412:264,1,80,8|0,3:2|3:2,3:3:0:0:
240,272,41117,6,0,L|48:272,1,160,6|8,3:2|3:2,3:3:0:0:
168,272,41662,2,0,L|248:272,1,80,2|0,3:2|3:2,3:3:0:0:
248,272,42026,1,2,3:2:0:0:
80,272,42208,1,8,3:2:0:0:
224,192,42571,6,0,L|316:192,2,80,6|0|8,3:2|3:2|3:2,3:3:0:0:
136,192,43117,2,0,L|300:192,1,160,2|2,3:2|3:2,3:3:0:0:
384,192,43662,2,0,L|384:288,1,80,8|0,3:2|3:2,3:3:0:0:
216,40,44026,6,0,B|136:40|136:40|136:120,1,160,6|8,3:2|3:2,3:3:0:0:
216,120,44571,2,0,L|380:120,1,160,2|2,3:2|3:2,0:0:0:0:
208,120,45117,1,8,3:2:0:0:
352,192,45480,5,6,3:2:0:0:
352,192,45571,1,2,3:2:0:0:
352,192,45662,1,2,3:2:0:0:
268,192,45844,2,0,L|188:192,1,80,8|2,3:2|3:2,3:3:0:0:
20,192,46208,2,0,L|20:272,1,80,2|2,3:2|3:2,3:3:0:0:
180,288,46571,2,0,L|264:288,1,80,12|2,3:2|3:2,3:3:0:0:
422,192,46935,6,0,L|506:192,2,80,10|0|8,3:2|3:2|3:2,3:3:0:0:
332,192,47480,2,0,L|148:192,1,160,2|2,3:2|3:2,3:3:0:0:
340,192,48026,1,8,3:2:0:0:
484,192,48390,6,0,B|484:92,1,80,6|0,3:2|3:2,3:3:0:0:
404,112,48753,1,8,3:2:0:0:
324,112,48935,2,0,L|492:112,1,160,2|2,3:2|3:2,0:0:0:0:
316,208,49480,2,0,L|236:208,1,80,8|0,3:2|3:2,3:3:0:0:
148,208,49844,6,0,P|104:148|152:92,1,160,6|8,3:2|3:2,3:3:0:0:
240,92,50390,2,0,B|320:92|320:92|320:8,1,160,2|2,3:2|3:2,3:3:0:0:
152,92,50935,1,8,3:2:0:0:
16,192,51299,6,0,L|196:192,1,160,6|8,3:2|3:2,3:3:0:0:
256,192,51844,1,2,3:2:0:0:
168,192,52026,2,0,L|168:96,1,80,0|2,3:2|3:2,3:3:0:0:
336,192,52390,2,0,L|420:192,1,80,8|0,3:2|0:0,3:3:0:0:
248,72,52753,6,0,L|76:72,1,160,6|8,3:2|3:2,3:3:0:0:
169,72,53299,2,0,L|341:72,1,160,2|2,3:2|3:2,3:3:0:0:
497,72,53844,1,8,3:2:0:0:
337,72,54208,6,0,L|337:160,1,80,6|0,3:2|3:2,3:3:0:0:
425,192,54571,2,0,L|425:280,1,80,8|2,3:2|3:2,0:0:0:0:
345,272,54935,1,0,3:2:0:0:
429,272,55117,1,2,3:2:0:0:
261,272,55299,1,8,3:2:0:0:
101,192,55662,6,0,B|101:112|101:112|181:112,1,160,6|8,3:2|3:2,3:3:0:0:
269,112,56208,2,0,P|317:60|269:0,1,160,2|2,3:2|3:2,3:3:0:0:
101,112,56753,2,0,L|101:192,1,80,8|0,3:2|3:2,0:0:0:0:
269,192,57117,6,0,L|313:192,2,40,2|2|2,3:2|3:2|3:2,0:0:0:0:
181,192,57481,2,0,L|179:92,1,80,8|2,3:2|3:2,0:0:0:0:
345,108,57844,2,0,L|445:108,1,80,8|2,3:2|3:2,3:3:0:0:
328,108,58208,2,0,L|244:108,1,80,12|2,3:2|3:2,3:3:0:0:
416,108,58571,6,0,P|472:176|412:240,1,191.999994140625,10|8,3:2|3:2,3:3:0:0:
328,240,59117,1,2,3:2:0:0:
160,240,59299,2,0,L|76:240,2,80,0|2|8,3:2|3:2|3:2,0:0:0:0:
320,240,60026,6,0,L|320:152,1,80,2|0,3:2|3:2,3:3:0:0:
240,160,60390,2,0,L|152:160,1,80,8|2,3:2|3:2,3:3:0:0:
240,160,60753,1,2,3:2:0:0:
328,160,60934,1,2,3:2:0:0:
160,160,61117,1,8,3:2:0:0:
320,160,61480,6,0,L|320:332,1,160,2|8,3:2|3:2,3:3:0:0:
240,320,62026,1,2,3:2:0:0:
408,192,62208,2,0,L|504:192,2,80,0|2|8,3:2|3:2|3:2,3:3:0:0:
248,192,62935,6,0,L|248:96,1,80,2|2,3:2|3:2,0:0:0:0:
328,112,63299,1,8,3:2:0:0:
488,112,63662,2,0,L|404:112,1,80,2|0,3:2|3:2,3:3:0:0:
320,112,64026,1,8,3:2:0:0:
416,112,64208,1,2,3:2:0:0:
248,192,64390,6,0,B|72:192,1,160,2|8,3:2|3:2,0:0:0:0:
248,192,65117,2,0,L|248:104,1,80,0|2,3:2|3:2,0:0:0:0:
160,192,65480,2,0,L|80:192,1,80,8|0,3:2|3:2,0:0:0:0:
248,192,65844,6,0,L|248:276,1,80,2|0,3:2|3:2,3:3:0:0:
160,192,66208,2,0,L|160:292,1,80,8|2,3:2|3:2,3:3:0:0:
328,272,66571,1,2,3:2:0:0:
472,192,66935,2,0,L|384:192,1,80,8|0,3:2|3:2,3:3:0:0:
224,192,67299,6,0,L|224:112,1,80,2|0,3:2|3:2,3:3:0:0:
312,112,67662,2,0,L|224:112,1,80,8|2,3:2|3:2,3:3:0:0:
64,112,68026,1,0,3:2:0:0:
208,192,68390,2,0,L|292:192,1,80,8|0,3:2|3:2,3:3:0:0:
200,192,68753,6,0,L|200:280,1,80,2|2,3:2|3:2,0:0:0:0:
288,192,69117,2,0,L|368:192,1,80,8|2,3:2|3:2,3:3:0:0:
280,192,69480,2,0,L|184:192,1,80,2|2,3:2|3:2,3:3:0:0:
112,192,69844,2,0,L|112:112,1,80,8|0,3:2|3:2,3:3:0:0:
284,60,70208,6,0,P|344:124|284:192,1,191.999994140625,10|8,3:2|3:2,3:3:0:0:
200,192,70754,1,2,3:2:0:0:
367,241,70936,2,0,L|451:241,2,80,0|2|8,3:2|3:2|3:2,0:0:0:0:
207,241,71663,6,0,L|207:153,1,80,2|0,3:2|3:2,3:3:0:0:
296,160,72027,2,0,L|297:75,1,80,8|2,3:2|3:2,3:3:0:0:
207,161,72390,1,2,3:2:0:0:
296,160,72571,1,2,3:2:0:0:
128,160,72754,1,8,3:2:0:0:
272,320,73117,6,0,B|352:320|352:320|352:240,1,160,2|8,3:2|3:2,3:3:0:0:
272,240,73663,1,2,3:2:0:0:
104,192,73845,2,0,L|8:192,2,80,2|2|8,3:2|3:2|3:2,0:0:0:0:
264,192,74572,6,0,L|264:96,1,80,2|2,3:2|3:2,0:0:0:0:
184,112,74935,2,0,L|185:31,1,80,8|0,3:2|3:2,3:3:0:0:
272,32,75299,2,0,L|356:32,1,80,2|2,3:2|3:2,3:3:0:0:
264,32,75663,1,8,3:2:0:0:
360,32,75845,1,2,3:2:0:0:
192,192,76027,6,0,B|16:192,1,160,2|8,3:2|3:2,0:0:0:0:
192,192,76754,2,0,L|272:192,1,80,0|2,3:2|3:2,0:0:0:0:
184,192,77117,2,0,L|184:112,1,80,8|0,3:2|3:2,0:0:0:0:
279,193,77481,6,0,L|279:277,1,80,2|0,3:2|3:2,3:3:0:0:
192,272,77845,2,0,L|276:272,1,80,8|2,3:2|3:2,3:3:0:0:
440,272,78208,1,0,3:2:0:0:
296,272,78572,2,0,L|216:272,1,80,8|0,3:2|3:2,3:3:0:0:
48,268,78936,6,0,L|48:188,1,80,2|2,3:2|3:2,0:0:0:0:
136,188,79299,2,0,L|48:188,1,80,8|0,3:2|3:2,3:3:0:0:
224,192,79663,1,0,3:2:0:0:
368,192,80027,2,0,L|284:192,1,80,8|2,3:2|3:2,3:3:0:0:
208,192,80390,6,0,L|208:280,1,80,2|2,3:2|3:2,0:0:0:0:
296,272,80754,2,0,L|296:368,1,80,8|2,3:2|3:2,3:3:0:0:
208,272,81117,2,0,L|112:272,1,80,0|2,3:2|3:2,3:3:0:0:
216,272,81481,2,0,L|216:192,1,80,8|2,3:2|3:2,3:3:0:0:
48,192,81844,6,0,L|4:192,2,40,2|2|2,3:2|3:2|3:2,0:0:0:0:
136,192,82208,2,0,L|222:192,1,80,8|0,3:2|3:2,3:3:0:0:
128,192,82571,2,0,L|212:192,1,80,8|2,3:2|3:2,3:3:0:0:
376,192,82935,2,0,L|376:99,1,80,12|0,3:2|3:2,3:3:0:0:
208,52,83299,5,10,3:2:0:0:
256,192,93480,12,12,94571,3:2:0:0:
380,192,94935,6,0,L|380:28,1,160,10|8,3:2|3:2,3:3:0:0:
108,32,95662,2,0,L|108:120,1,80,2|2,3:2|3:2,0:0:0:0:
192,136,96026,1,8,3:2:0:0:
336,136,96390,6,0,L|424:136,2,80,6|0|8,3:2|3:2|3:2,3:3:0:0:
64,136,97117,1,2,3:2:0:0:
144,136,97299,1,2,3:2:0:0:
56,136,97480,1,8,3:2:0:0:
204,136,97844,6,0,L|204:224,1,80,6|0,3:2|3:2,3:3:0:0:
116,216,98208,1,8,3:2:0:0:
388,216,98571,1,2,3:2:0:0:
308,216,98752,1,2,3:2:0:0:
228,216,98934,1,8,3:2:0:0:
84,216,99299,6,0,L|84:312,1,80,2|2,3:2|3:2,3:3:0:0:
172,296,99662,2,0,L|172:204,1,80,8|2,3:2|3:2,3:3:0:0:
260,216,100026,1,0,3:2:0:0:
172,216,100208,1,2,3:2:0:0:
268,216,100390,2,0,L|352:216,1,80,8|0,3:2|3:2,3:3:0:0:
180,216,100753,6,0,B|180:128,1,80,6|0,3:2|3:2,3:3:0:0:
268,136,101117,2,0,L|268:48,1,80,8|2,3:2|3:2,3:3:0:0:
436,32,101480,2,0,L|436:120,1,80,0|2,3:2|3:2,0:0:0:0:
352,136,101844,1,8,3:2:0:0:
208,136,102208,6,0,L|120:136,2,80,6|0|8,3:2|3:2|3:2,0:0:0:0:
480,136,102935,1,2,3:2:0:0:
400,136,103117,1,2,3:2:0:0:
488,136,103298,1,8,3:2:0:0:
340,136,103662,6,0,L|340:224,1,80,6|0,3:2|3:2,3:3:0:0:
428,216,104026,1,8,3:2:0:0:
156,216,104389,1,2,3:2:0:0:
244,216,104570,1,2,3:2:0:0:
332,216,104752,1,8,3:2:0:0:
60,192,105117,6,0,L|60:148,2,40,2|2|2,3:2|3:2|3:2,0:0:0:0:
148,192,105480,2,0,L|236:192,1,80,8|2,3:2|3:2,3:3:0:0:
316,192,105844,1,0,3:2:0:0:
236,192,106026,1,2,3:2:0:0:
324,192,106208,2,0,L|424:192,1,80,12|0,3:2|0:0,3:3:0:0:
236,192,106571,6,0,L|40:192,1,191.999994140625,6|8,3:2|3:2,3:3:0:0:
236,192,107299,1,0,3:2:0:0:
156,192,107480,1,2,3:2:0:0:
76,192,107662,2,0,L|76:88,1,80,8|2,3:2|3:2,3:3:0:0:
244,192,108026,6,0,B|332:192,1,80,6|0,3:2|3:2,3:3:0:0:
236,192,108390,2,0,L|236:100,1,80,8|0,3:2|3:2,0:0:0:0:
400,44,108753,1,2,3:2:0:0:
480,44,108935,1,2,3:2:0:0:
400,44,109117,1,8,3:2:0:0:
256,44,109480,6,0,L|256:136,1,80,6|0,3:2|3:2,3:3:0:0:
344,132,109844,2,0,L|344:220,1,80,8|2,3:2|3:2,0:0:0:0:
176,292,110208,2,0,L|92:292,2,80,2|2|8,3:2|3:2|3:2,3:3:0:0:
320,292,110935,6,0,L|320:204,1,80,2|2,3:2|3:2,3:3:0:0:
236,192,111299,1,8,3:2:0:0:
92,192,111662,1,0,3:2:0:0:
172,192,111843,1,2,3:2:0:0:
252,192,112026,2,0,L|332:192,1,80,8|0,3:2|3:2,3:3:0:0:
164,192,112390,6,0,P|112:136|164:88,1,160,6|8,3:2|3:2,0:0:0:0:
320,88,113117,2,0,L|236:88,1,80,0|2,3:2|3:2,0:0:0:0:
160,88,113480,1,8,3:2:0:0:
304,88,113844,6,4,L|304:188,1,80,6|4,3:2|3:2,3:3:0:0:
216,192,114208,2,0,L|136:192,1,80,8|2,3:2|3:2,3:3:0:0:
304,168,114571,1,2,3:2:0:0:
216,192,114753,1,2,3:2:0:0:
304,168,114935,1,8,3:2:0:0:
32,192,115299,6,0,L|32:104,2,80,6|0|8,3:2|3:2|3:2,0:0:0:0:
120,192,115844,1,2,3:2:0:0:
204,192,116026,1,2,3:2:0:0:
120,192,116208,1,2,3:2:0:0:
204,192,116390,2,0,L|284:192,1,80,8|2,3:2|3:2,0:0:0:0:
452,192,116753,6,0,L|452:96,1,80,10|2,3:2|3:2,3:3:0:0:
360,28,117117,2,0,L|360:124,1,80,8|2,3:2|3:2,3:3:0:0:
272,108,117480,1,8,3:2:0:0:
356,108,117662,1,2,3:2:0:0:
260,108,117844,1,8,3:2:0:0:
218,108,117934,1,2,3:2:0:0:
175,108,118025,1,2,3:2:0:0:
344,108,118208,5,0,0:0:0:0:
200,108,118571,1,0,0:0:0:0:
360,108,118935,1,8,0:0:0:0:
360,148,119025,1,2,0:0:0:0:
360,188,119116,1,2,0:0:0:0:
272,192,119299,1,8,0:0:0:0:
352,188,119480,1,8,0:0:0:0:
176,192,119662,5,10,0:0:0:0:
256,192,120026,12,0,125480,0:0:0:0:
216,284,131299,6,0,L|216:108,1,160,4|0,0:0|0:0,0:0:0:0:
360,192,132026,1,2,0:0:0:0:
440,192,132208,1,0,0:0:0:0:
440,192,132390,1,0,0:0:0:0:
360,192,132571,1,0,0:0:0:0:
280,192,132753,6,0,L|112:192,2,160,2|0|0,0:0|0:0|0:0,0:0:0:0:
424,192,133844,1,0,0:0:0:0:
344,192,134026,1,0,0:0:0:0:
264,192,134208,6,0,L|264:16,1,160,2|0,0:0|0:0,0:0:0:0:
424,36,134935,1,2,0:0:0:0:
248,36,135299,1,0,0:0:0:0:
440,36,135662,6,0,L|440:212,1,160,2|0,0:0|0:0,0:0:0:0:
264,196,136390,2,0,L|428:196,1,160,2|0,0:0|0:0,0:0:0:0:
152,192,137117,5,4,0:0:0:0:
344,192,137480,1,8,0:0:0:0:
168,192,137844,1,8,0:0:0:0:
372,36,138571,6,0,L|372:208,1,160,2|0,0:0|0:0,0:0:0:0:
292,192,139117,1,0,0:0:0:0:
212,192,139299,1,2,0:0:0:0:
52,192,139662,1,2,0:0:0:0:
140,192,139844,1,0,0:0:0:0:
228,192,140026,6,0,L|388:192,2,160,2|0|2,0:0|0:0|0:0,0:0:0:0:
468,192,141480,6,0,L|468:112,2,80,8|8|8,0:0|0:0|0:0,0:0:0:0:
324,192,142208,2,0,L|324:112,2,80,8|8|8,0:0|0:0|0:0,0:0:0:0:
52,192,142935,6,0,P|4:128|52:80,1,160,4|0,0:0|0:0,0:0:0:0:
132,80,143480,1,0,0:0:0:0:
212,80,143662,2,0,L|296:80,2,80,2|0|0,0:0|0:0|0:0,0:0:0:0:
50,80,144390,5,2,0:0:0:0:
132,80,144571,1,0,0:0:0:0:
212,80,144753,1,0,0:0:0:0:
356,192,145117,1,2,0:0:0:0:
268,192,145298,1,0,0:0:0:0:
180,192,145480,1,0,0:0:0:0:
324,192,145844,6,0,L|324:280,1,80,2|0,0:0|0:0,0:0:0:0:
240,276,146208,1,2,0:0:0:0:
96,276,146571,2,0,L|196:276,2,80,2|0|0,0:0|0:0|0:0,0:0:0:0:
240,192,147299,6,0,L|156:192,1,80,2|0,0:0|0:0,0:0:0:0:
80,192,147662,1,0,0:0:0:0:
240,192,148026,1,2,0:0:0:0:
160,192,148208,1,0,0:0:0:0:
160,112,148390,1,0,0:0:0:0:
240,112,148571,1,0,0:0:0:0:
400,192,148753,6,0,L|508:192,1,80,4|0,0:0|0:0,0:0:0:0:
392,192,149117,2,0,L|392:104,1,80,2|0,0:0|0:0,0:0:0:0:
480,112,149480,1,2,0:0:0:0:
336,112,149844,2,0,L|252:112,1,80,2|0,0:0|0:0,0:0:0:0:
176,112,150208,5,2,0:0:0:0:
320,112,150571,2,0,L|320:284,1,160,2|2,0:0|0:0,0:0:0:0:
176,192,151299,2,0,L|92:192,1,80,2|0,0:0|0:0,0:0:0:0:
184,192,151662,6,0,L|184:292,1,80,2|0,0:0|0:0,0:0:0:0:
96,352,152026,2,0,L|96:268,1,80,2|0,0:0|0:0,0:0:0:0:
184,272,152390,1,2,0:0:0:0:
328,272,152753,2,0,L|408:272,1,80,2|0,0:0|0:0,0:0:0:0:
240,192,153117,6,0,L|156:192,1,80,8|8,0:0|0:0,0:0:0:0:
80,192,153480,1,8,0:0:0:0:
224,192,153844,1,8,0:0:0:0:
64,192,154208,2,0,L|64:112,1,80,8|0,0:0|0:0,0:0:0:0:
232,36,154571,6,0,L|392:36,1,160,4|0,0:0|0:0,0:0:0:0:
232,36,155299,1,2,0:0:0:0:
320,36,155480,1,0,0:0:0:0:
408,36,155662,1,0,0:0:0:0:
264,136,156026,6,0,L|176:136,2,80,8|0|0,0:0|0:0|0:0,0:0:0:0:
408,136,156753,1,2,0:0:0:0:
320,136,156935,1,0,0:0:0:0:
232,136,157117,1,0,0:0:0:0:
88,192,157480,6,0,L|88:104,2,80,8|0|0,0:0|0:0|0:0,0:0:0:0:
232,192,158208,1,2,0:0:0:0:
150,192,158389,1,0,0:0:0:0:
70,192,158571,1,0,0:0:0:0:
216,192,158935,5,8,0:0:0:0:
296,192,159117,1,8,0:0:0:0:
296,112,159299,1,8,0:0:0:0:
216,112,159480,1,8,0:0:0:0:
136,112,159662,2,0,L|136:24,1,80,2|0,0:0|0:0,0:0:0:0:
216,32,160026,2,0,L|304:32,1,80,2|0,0:0|0:0,0:0:0:0:
128,32,160390,6,0,P|80:76|128:144,1,160,10|8,0:0|0:0,0:0:0:0:
284,192,161117,1,2,0:0:0:0:
140,144,161480,2,0,L|224:144,1,80,8|0,0:0|0:0,0:0:0:0:
308,192,161844,6,0,P|356:236|308:304,1,160,2|8,0:0|0:0,0:0:0:0:
152,304,162571,1,2,0:0:0:0:
296,304,162935,1,8,0:0:0:0:
256,192,163299,12,12,165844,0:0:0:0:
122,192,166208,6,0,L|26:192,2,80,6|0|8,3:2|3:2|3:2,3:3:0:0:
210,192,166753,2,0,L|38:192,1,160,6|2,3:2|3:2,3:3:0:0:
134,192,167299,2,0,L|216:192,1,80,8|0,3:2|3:2,3:3:0:0:
384,192,167662,6,0,P|436:144|384:92,1,160,6|8,3:2|3:2,3:3:0:0:
300,108,168208,2,0,B|300:192|300:192|388:192,1,160,2|2,3:2|3:2,3:3:0:0:
464,192,168753,1,8,3:2:0:0:
192,192,169117,6,0,B|108:192|108:192|108:104,1,160,2|8,3:2|3:2,3:3:0:0:
196,112,169662,2,0,L|376:112,1,160,2|2,3:2|3:2,3:3:0:0:
268,112,170208,2,0,L|380:112,1,80,8|0,3:2|3:2,3:3:0:0:
436,112,170571,6,0,L|436:72,2,40,2|2|2,3:2|3:2|3:2,3:3:0:0:
348,112,170935,1,8,3:2:0:0:
180,36,171117,2,0,B|100:36|100:36|100:116,1,160,2|0,3:2|3:2,0:0:0:0:
268,36,171662,1,8,3:2:0:0:
100,116,172026,6,0,L|100:279,1,160,6|8,3:2|3:2,3:3:0:0:
188,276,172571,1,2,3:2:0:0:
276,276,172753,1,0,3:2:0:0:
116,276,173117,2,0,L|116:188,1,80,8|0,3:2|3:2,3:3:0:0:
284,192,173480,6,0,L|364:192,1,80,6|0,3:2|3:2,3:3:0:0:
364,192,173844,1,8,3:2:0:0:
284,192,174026,2,0,L|124:192,1,160,2|2,3:2|3:2,3:3:0:0:
212,192,174571,2,0,L|212:112,1,80,8|0,3:2|3:2,3:3:0:0:
380,32,174935,6,0,P|436:72|380:120,1,160,2|8,3:2|3:2,3:3:0:0:
212,192,175480,2,0,P|156:232|212:280,1,160,2|2,3:2|3:2,3:3:0:0:
296,280,176026,2,0,L|384:280,1,80,8|2,3:2|3:2,0:0:0:0:
207,280,176390,6,0,L|115:280,2,80,8|2|8,3:2|3:2|3:2,3:3:0:0:
296,280,176935,2,0,B|296:200|296:200|216:200,1,160,2|2,3:2|3:2,3:3:0:0:
48,192,177480,2,0,L|48:100,1,80,8|0,3:2|3:2,3:3:0:0:
216,200,177844,6,0,B|376:200,1,160,6|8,3:2|3:2,3:3:0:0:
208,100,178390,2,0,P|156:148|208:200,1,160,6|2,3:2|3:2,3:3:0:0:
296,200,178935,2,0,L|380:200,1,80,8|0,3:2|3:2,3:3:0:0:
206,199,179299,6,0,L|206:295,1,80,2|0,3:2|3:2,3:3:0:0:
366,279,179844,2,0,L|194:279,1,160,2|2,3:2|1:3,3:3:0:0:
118,279,180390,2,0,L|118:179,1,80,8|0,3:2|3:2,3:3:0:0:
300,192,180753,6,0,B|380:192|380:192|380:100,1,160,2|8,3:2|3:2,3:3:0:0:
292,108,181299,2,0,B|212:108|212:108|212:16,1,160,2|2,3:2|3:2,3:3:0:0:
300,28,181844,2,0,L|216:28,1,80,8|0,3:2|3:2,3:3:0:0:
140,28,182208,5,2,3:2:0:0:
220,28,182390,1,2,3:2:0:0:
140,28,182571,1,8,3:2:0:0:
308,28,182753,2,0,L|468:28,1,160,2|2,3:2|3:2,0:0:0:0:
388,28,183299,1,8,3:2:0:0:
116,28,183662,6,0,P|64:84|116:128,1,160,6|8,3:2|3:2,3:3:0:0:
192,144,184208,1,2,3:2:0:0:
272,144,184390,1,0,3:2:0:0:
114,127,184753,2,0,L|114:211,1,80,8|0,3:2|3:2,3:3:0:0:
280,192,185117,6,0,B|360:192|360:192|276:192,1,160,2|8,3:2|3:2,3:3:0:0:
200,192,185662,1,2,3:2:0:0:
288,192,185844,2,0,L|288:276,1,80,0|2,3:2|3:2,0:0:0:0:
192,192,186208,1,8,3:2:0:0:
472,192,186571,6,0,B|472:272|472:272|392:272,1,160,6|0,3:2|3:2,3:3:0:0:
304,272,187117,2,0,L|484:272,1,160,6|2,3:2|3:2,3:3:0:0:
376,272,187662,2,0,L|276:272,1,80,8|0,3:2|3:2,3:3:0:0:
128,280,188026,5,2,3:2:0:0:
86,280,188116,1,2,3:2:0:0:
43,280,188207,1,2,3:2:0:0:
128,280,188390,1,8,3:2:0:0:
296,272,188571,2,0,P|348:220|296:176,1,160,6|2,3:2|3:2,3:3:0:0:
132,192,189117,2,0,L|52:192,1,80,8|0,3:2|3:2,3:3:0:0:
220,88,189480,6,0,L|424:88,1,191.999994140625,10|8,3:2|3:2,3:3:0:0:
324,88,190026,1,0,3:2:0:0:
236,88,190208,2,0,L|152:88,1,80,0|2,0:0|3:2,0:0:0:0:
244,88,190571,2,0,L|244:176,1,80,8|0,3:2|3:2,3:3:0:0:
76,328,190935,6,0,L|76:240,1,80,2|0,3:2|3:2,3:3:0:0:
156,248,191299,2,0,L|244:248,1,80,8|2,3:2|3:2,3:3:0:0:
148,248,191662,1,0,3:2:0:0:
68,248,191843,1,2,3:2:0:0:
148,248,192026,1,8,3:2:0:0:
420,88,192389,6,0,L|420:260,1,160,2|8,3:2|3:2,3:3:0:0:
340,248,192935,1,2,3:2:0:0:
428,248,193117,2,0,L|512:248,2,80,2|2|8,3:2|3:2|3:2,3:3:0:0:
284,248,193844,6,0,L|204:248,2,80,2|2|8,3:2|3:2|3:2,3:3:0:0:
140,248,194571,1,2,3:2:0:0:
60,248,194753,1,2,3:2:0:0:
60,328,194935,1,8,3:2:0:0:
140,328,195117,1,0,3:2:0:0:
308,352,195299,6,0,B|484:352,1,160,6|8,3:2|3:2,3:3:0:0:
308,352,196026,2,0,L|308:264,1,80,0|2,0:0|3:2,0:0:0:0:
388,192,196389,2,0,L|468:192,1,80,8|0,3:2|3:2,3:3:0:0:
300,192,196753,6,0,L|212:192,1,80,6|2,3:2|3:2,3:3:0:0:
140,192,197117,2,0,L|140:112,1,80,8|2,3:2|3:2,3:3:0:0:
224,112,197480,1,0,3:2:0:0:
368,192,197844,2,0,L|280:192,1,80,8|0,3:2|3:2,0:0:0:0:
120,192,198208,6,0,L|120:112,1,80,6|0,3:2|0:0,3:3:0:0:
208,112,198571,2,0,L|208:8,1,80,8|2,3:2|3:2,0:0:0:0:
296,36,198935,1,2,3:2:0:0:
152,192,199299,2,0,L|236:192,1,80,8|2,3:2|3:2,0:0:0:0:
400,192,199662,6,0,L|400:280,1,80,6|2,3:2|3:2,3:3:0:0:
312,276,200026,2,0,L|312:360,1,80,8|8,3:2|3:2,0:0:0:0:
144,348,200389,2,0,L|48:348,1,80,8|2,3:2|3:2,3:3:0:0:
152,348,200753,2,0,L|232:348,1,80,8|2,3:2|3:2,3:3:0:0:
400,356,201117,6,0,P|448:288|400:248,1,160,6|8,3:2|3:2,3:3:0:0:
312,248,201662,2,0,B|232:248|232:248|232:160,1,160,2|2,3:2|3:2,0:0:0:0:
320,72,202208,2,0,L|320:160,1,80,8|0,3:2|3:2,3:3:0:0:
152,244,202571,6,0,L|60:244,2,80,6|2|8,3:2|3:2|3:2,3:3:0:0:
296,244,203299,2,0,L|296:160,1,80,4|2,3:2|3:2,3:3:0:0:
208,164,203662,2,0,L|128:164,1,80,8|0,3:2|3:2,0:0:0:0:
296,164,204026,6,0,L|388:164,2,80,6|2|8,3:2|3:2|3:2,3:3:0:0:
208,164,204571,2,0,L|384:164,1,160,2|2,3:2|3:2,0:0:0:0:
456,164,205117,2,0,L|368:164,1,80,8|0,3:2|3:2,3:3:0:0:
208,16,205480,6,0,L|208:108,1,80,2|2,3:2|3:2,3:3:0:0:
296,96,205844,1,8,3:2:0:0:
152,96,206208,1,2,3:2:0:0:
240,96,206390,1,2,3:2:0:0:
328,96,206571,2,0,L|412:96,1,80,8|2,3:2|3:2,3:3:0:0:
240,192,206935,6,0,L|152:192,1,80,6|2,3:2|3:2,3:3:0:0:
160,192,207299,1,8,3:2:0:0:
248,192,207480,2,0,P|296:248|248:316,1,160,2|0,3:2|3:2,0:0:0:0:
168,316,208026,2,0,L|80:316,1,80,8|2,3:2|3:2,3:3:0:0:
256,192,208390,6,0,L|256:100,1,80,6|2,3:2|3:2,3:3:0:0:
168,28,208753,2,0,L|168:116,1,80,8|2,3:2|3:2,3:3:0:0:
256,112,209117,1,4,3:2:0:0:
112,192,209480,2,0,L|208:192,1,80,8|2,3:2|3:2,3:3:0:0:
360,192,209844,6,0,L|440:192,2,80,6|2|8,3:2|3:2|3:2,3:3:0:0:
272,192,210390,2,0,L|444:192,1,160,6|2,3:2|3:2,3:3:0:0:
344,192,210935,2,0,L|432:192,1,80,8|2,3:2|3:2,3:3:0:0:
256,16,211299,5,2,3:2:0:0:
256,58,211389,1,2,3:2:0:0:
256,96,211480,1,2,3:2:0:0:
344,16,211662,2,0,L|344:104,1,80,8|8,3:2|3:2,3:3:0:0:
256,96,212026,2,0,L|168:95,1,80,12|0,3:2|3:2,3:3:0:0:
264,96,212390,2,0,L|352:96,1,80,12|2,3:2|3:2,0:0:0:0:
176,95,212753,6,0,L|88:95,1,80,10|0,3:2|3:2,3:3:0:0:
96,95,213117,1,8,3:2:0:0:
240,192,213480,2,0,L|240:288,1,80,2|2,3:2|3:2,0:0:0:0:
152,272,213844,2,0,L|236:272,1,80,8|2,3:2|3:2,0:0:0:0:
400,272,214208,6,0,B|480:272|480:272|480:192,1,160,2|8,3:2|3:2,3:3:0:0:
336,192,214935,2,0,L|336:108,1,80,0|2,3:2|3:2,3:3:0:0:
424,112,215299,2,0,L|424:24,1,80,8|2,3:2|3:2,0:0:0:0:
256,20,215662,6,0,L|168:20,1,80,6|2,3:2|3:2,3:3:0:0:
264,20,216026,2,0,L|368:20,1,80,8|2,3:2|3:2,3:3:0:0:
256,20,216390,1,2,3:2:0:0:
176,20,216571,1,2,3:2:0:0:
176,100,216753,1,8,3:2:0:0:
256,100,216935,1,2,3:2:0:0:
424,100,217117,6,0,B|424:260,1,160,2|8,3:2|3:2,3:3:0:0:
336,260,217662,1,2,3:2:0:0:
192,192,218026,1,2,3:2:0:0:
280,192,218208,2,0,L|280:104,1,80,8|2,3:2|3:2,3:3:0:0:
112,192,218571,6,0,P|64:252|112:304,1,160,6|8,3:2|3:2,3:3:0:0:
200,304,219117,1,2,3:2:0:0:
368,192,219299,2,0,L|448:192,3,80,4|2|8|2,3:2|3:2|3:2|3:2,3:3:0:0:
280,192,220026,6,0,L|120:192,1,160,6|8,3:2|3:2,3:3:0:0:
288,192,220571,1,2,3:2:0:0:
432,192,220935,1,2,3:2:0:0:
344,192,221117,2,0,L|256:192,1,80,8|2,3:2|3:2,3:3:0:0:
96,192,221480,6,0,B|96:112|96:112|176:112,1,160,6|8,3:2|3:2,3:3:0:0:
264,112,222026,1,2,3:2:0:0:
432,192,222208,2,0,L|352:192,1,80,4|2,3:2|3:2,3:3:0:0:
264,192,222571,2,0,L|264:104,1,80,8|2,3:2|3:2,3:3:0:0:
432,48,222935,6,0,L|480:48,2,40,2|2|2,3:2|3:2|3:2,3:3:0:0:
344,48,223299,2,0,L|256:48,1,80,8|0,3:2|3:2,0:0:0:0:
352,48,223662,2,0,L|352:128,1,80,8|2,3:2|3:2,0:0:0:0:
184,164,224026,2,0,L|92:164,1,80,8|0,3:2|0:0,0:0:0:0:
272,164,224390,6,0,P|331:230|276:296,1,191.999994140625,14|2,0:0|0:0,0:0:0:0:
116,336,225117,2,0,L|116:256,1,80,8|0,0:0|0:0,0:0:0:0:
196,192,225480,1,2,0:0:0:0:
276,192,225662,1,2,0:0:0:0:
108,192,225844,6,0,P|60:140|112:80,1,160,0|2,0:0|0:0,0:0:0:0:
188,80,226390,1,2,0:0:0:0:
356,80,226571,2,0,L|356:176,2,80,8|0|2,0:0|0:0|0:0,0:0:0:0:
212,304,227299,6,0,B|132:304|132:304|132:216,1,160,2|2,0:0|0:0,0:0:0:0:
212,224,227844,1,2,0:0:0:0:
380,192,228026,2,0,L|460:192,2,80,8|0|2,0:0|0:0|0:0,0:0:0:0:
236,192,228753,6,0,L|236:96,1,80,2|2,0:0|0:0,0:0:0:0:
108,112,229299,1,2,0:0:0:0:
276,32,229480,2,0,L|276:116,1,80,8|0,0:0|0:0,0:0:0:0:
188,112,229844,2,0,L|104:112,1,80,2|2,0:0|0:0,0:0:0:0:
276,112,230208,6,0,L|448:112,1,160,6|2,0:0|0:0,0:0:0:0:
276,112,230935,2,0,L|276:192,1,80,8|0,0:0|0:0,0:0:0:0:
356,192,231299,2,0,L|436:192,1,80,2|2,0:0|0:0,0:0:0:0:
348,192,231662,6,0,B|264:192|264:192|264:280,1,160,2|2,0:0|0:0,0:0:0:0:
344,268,232208,1,2,0:0:0:0:
424,268,232390,2,0,L|424:380,1,80,8|0,0:0|0:0,0:0:0:0:
344,348,232753,1,2,0:0:0:0:
80,268,233117,6,0,P|36:204|80:148,1,160,8|8,0:0|0:0,0:0:0:0:
168,148,233662,1,8,0:0:0:0:
336,148,233844,1,8,0:0:0:0:
208,148,234208,1,2,0:0:0:0:
296,148,234390,1,2,0:0:0:0:
384,148,234571,6,0,L|384:88,2,40,2|2|2,0:0|0:0|0:0,0:0:0:0:
296,148,234935,2,0,L|212:148,1,80,8|2,0:0|0:0,0:0:0:0:
48,192,235298,2,0,L|48:280,1,80,8|2,0:0|0:0,0:0:0:0:
128,268,235662,1,2,0:0:0:0:
40,272,235844,1,2,0:0:0:0:
208,108,236026,6,0,L|208:284,1,160,6|2,0:0|0:0,0:0:0:0:
256,192,236753,12,0,238571,0:0:0:0:
256,192,238935,6,0,L|256:368,1,160,4|0,0:0|0:0,0:0:0:0:
256,192,239662,12,0,246208,0:0:0:0:
