osu file format v14

[General]
AudioFilename: Waterflame - King Poseidon (HD).mp3
AudioLeadIn: 0
PreviewTime: 3565
Countdown: 0
SampleSet: Normal
StackLeniency: 0.7
Mode: 0
LetterboxInBreaks: 1
WidescreenStoryboard: 1

[Editor]
Bookmarks: 3565,44706,78990,90990,161273,174986,195557
DistanceSpacing: 2.2
BeatDivisor: 4
GridSize: 8
TimelineZoom: 1

[Metadata]
Title:King Poseidon
TitleUnicode:King Poseidon
Artist:Waterflame
ArtistUnicode:Waterflame
Creator:TheLeviathan
Version:Normal
Source:
Tags:Arphimigon Electro Progressive House
BeatmapID:949225
BeatmapSetID:432180

[Difficulty]
HPDrainRate:3
CircleSize:3
OverallDifficulty:3
ApproachRate:4
SliderMultiplier:1.4
SliderTickRate:1

[Events]
//Background and Video events
0,0,"maxresdefault.jpg",0,0
//Break Periods
2,119909,132532
2,188909,194246
//Storyboard Layer 0 (Background)
//Storyboard Layer 1 (Fail)
//Storyboard Layer 2 (Pass)
//Storyboard Layer 3 (Foreground)
//Storyboard Sound Samples

[TimingPoints]
2708,428.571428571429,4,1,0,100,1,0
3565,-100,4,1,0,30,0,0
18135,428.571428571429,4,1,0,30,1,0
92708,-100,4,1,0,30,0,1
119706,-83.3333333333333,4,1,0,30,0,0
137278,-100,4,1,0,30,0,0
147563,-83.3333333333333,4,1,0,30,0,0
174993,-83.3333333333333,4,1,0,30,0,1
188708,-83.3333333333333,4,1,0,30,0,0
204132,-100,4,1,0,30,0,0

[Colours]
Combo1 : 0,128,128
Combo2 : 55,0,0
Combo3 : 105,105,52
Combo4 : 113,56,0

[HitObjects]
114,99,3565,6,0,P|189:76|255:109,1,140
184,176,4422,2,0,P|248:198|313:175,1,140
372,97,5279,2,0,P|307:74|242:97,1,140
302,173,6136,2,0,P|237:196|173:174,1,140
98,103,6993,6,0,P|79:144|106:248,1,140
172,173,7850,1,0,0:0:0:0:
266,173,8279,1,0,0:0:0:0:
340,109,8708,2,0,P|359:150|332:254,1,140
244,239,9566,2,0,P|224:172|246:107,1,140
350,16,10423,6,0,P|440:50|464:115,1,140
367,116,11279,2,0,P|409:170|476:184,1,140
475,286,12136,2,0,P|396:287|342:329,1,140
279,258,12993,2,0,P|215:297|135:280,1,140
197,207,13850,5,0,0:0:0:0:
147,157,14279,1,0,0:0:0:0:
197,108,14708,1,0,0:0:0:0:
246,157,15136,1,0,0:0:0:0:
196,259,15565,1,0,0:0:0:0:
97,157,15993,1,0,0:0:0:0:
199,57,16422,1,0,0:0:0:0:
296,155,16850,1,0,0:0:0:0:
330,44,17279,6,0,P|397:82|420:165,1,140
420,246,18136,2,0,P|391:308|330:340,1,140
219,339,18993,2,0,P|157:307|128:245,1,140
128,138,19850,2,0,P|157:76|219:45,1,140
233,147,20708,6,0,L|336:256,1,140
264,312,21565,1,0,0:0:0:0:
160,200,21993,1,0,0:0:0:0:
311,84,22422,6,0,L|406:190,1,140
326,251,23279,2,0,L|226:139,1,140
152,216,24136,2,0,L|247:322,1,140
167,384,24993,2,0,L|67:272,1,140
54,173,25850,6,0,P|89:109|156:100,1,140
139,7,26708,2,0,P|205:21|247:89,1,140
320,26,27565,2,0,P|338:98|297:157,1,140
383,206,28422,2,0,P|320:244|244:227,1,140
261,136,29279,5,0,0:0:0:0:
180,68,29708,1,0,0:0:0:0:
109,138,30136,1,0,0:0:0:0:
43,62,30565,1,0,0:0:0:0:
34,206,30993,6,0,L|32:357,1,140
133,344,31850,2,0,L|135:205,1,140
236,205,32708,2,0,L|234:356,1,140
336,342,33565,2,0,L|338:203,1,140
433,150,34422,5,0,0:0:0:0:
476,72,34850,1,0,0:0:0:0:
396,31,35279,1,0,0:0:0:0:
353,106,35708,1,0,0:0:0:0:
304,32,36136,2,0,P|226:19|156:49,1,140
247,110,36993,2,0,P|180:130|113:116,1,140
36,9,37850,6,0,P|4:87|26:158,1,140
103,87,38708,2,0,P|112:155|81:217,1,140
181,251,39565,2,0,P|149:329|171:400,1,140
248,330,40422,2,0,P|278:268|269:199,1,140
181,153,41279,5,0,0:0:0:0:
180,56,41708,1,0,0:0:0:0:
271,32,42136,1,0,0:0:0:0:
364,14,42565,1,0,0:0:0:0:
458,54,42993,2,0,P|411:120|340:110,1,140
265,80,43850,2,0,P|224:143|258:206,1,140
424,162,44708,6,0,P|415:251|245:270,1,280
326,200,45993,1,0,0:0:0:0:
345,101,46422,2,0,P|269:108|225:183,1,140
326,200,47279,2,0,P|279:250|211:253,1,140
109,290,48136,6,0,P|118:201|288:182,1,280
210,249,49422,1,0,0:0:0:0:
202,346,49850,2,0,P|283:323|307:276,1,140
210,249,50708,2,0,P|247:192|314:180,1,140
445,213,51565,6,0,P|381:86|233:82,1,280
317,179,52850,1,0,0:0:0:0:
381,286,53279,2,0,P|248:266|192:145,1,280
95,107,54565,6,0,P|151:46|227:57,1,140
292,119,55422,1,0,0:0:0:0:
328,223,55850,2,0,P|272:284|196:273,1,140
126,224,56708,1,0,0:0:0:0:
126,224,57136,1,0,0:0:0:0:
211,168,57565,2,0,L|246:145,8,28
237,285,58850,5,0,0:0:0:0:
335,337,59279,2,0,P|411:305|420:233,1,140
508,184,60136,1,0,0:0:0:0:
402,144,60565,2,0,P|361:81|383:17,1,140
488,27,61422,1,0,0:0:0:0:
496,152,61850,6,0,P|440:193|357:194,1,140
308,114,62708,1,0,0:0:0:0:
226,41,63136,2,0,P|152:52|92:104,1,140
105,201,63993,1,0,0:0:0:0:
191,148,64422,6,0,P|219:188|204:293,1,140
123,329,65279,1,0,0:0:0:0:
208,383,65708,2,0,P|280:378|347:335,1,140
437,364,66565,1,0,0:0:0:0:
491,250,66993,6,0,P|436:182|366:169,1,140
333,263,67850,1,0,0:0:0:0:
277,167,68279,2,0,P|243:93|269:27,1,140
368,55,69136,1,0,0:0:0:0:
463,162,69565,6,0,P|401:203|333:190,1,140
268,277,70422,1,0,0:0:0:0:
159,292,70850,2,0,P|112:238|111:161,1,140
211,133,71708,1,0,0:0:0:0:
167,28,72136,6,0,P|68:43|36:90,1,140
131,112,72993,1,0,0:0:0:0:
90,195,73422,2,0,P|158:196|211:153,1,140
131,112,74279,1,0,0:0:0:0:
228,28,74708,2,0,P|300:75|312:141,1,140
221,119,75565,5,0,0:0:0:0:
256,196,75993,6,0,P|323:221|382:187,1,140
312,123,76850,1,0,0:0:0:0:
349,26,77279,6,0,P|427:69|459:130,1,140
470,201,78136,1,0,0:0:0:0:
456,289,78565,2,0,P|415:344|352:373,1,140
312,256,79422,5,0,0:0:0:0:
272,160,79850,2,0,P|200:144|144:192,1,140
152,272,80708,1,0,0:0:0:0:
64,328,81136,2,0,P|32:248|80:200,1,140
32,120,81993,1,0,0:0:0:0:
96,0,82422,6,0,L|192:120,1,140
256,40,83279,2,0,L|296:192,1,140
376,128,84136,2,0,L|368:280,1,140
472,248,84993,2,0,L|416:384,1,140
272,256,85850,5,0,0:0:0:0:
160,256,86279,1,0,0:0:0:0:
160,144,86708,1,0,0:0:0:0:
272,144,87136,1,0,0:0:0:0:
128,112,87565,5,0,0:0:0:0:
128,288,87993,1,0,0:0:0:0:
304,288,88422,1,0,0:0:0:0:
304,112,88850,1,0,0:0:0:0:
474,161,89279,6,0,P|458:225|378:248,1,140
345,344,90136,2,0,P|261:317|236:249,1,140
193,131,90993,6,0,P|128:158|102:230,1,140
222,233,91850,2,0,P|292:228|350:149,1,140
96,136,92709,6,0,P|152:96|240:104,1,140
192,200,93566,1,0,0:0:0:0:
192,200,93995,1,0,0:0:0:0:
352,208,94422,6,0,P|344:152|264:88,1,140
176,88,95279,1,0,0:0:0:0:
64,112,95708,1,0,0:0:0:0:
216,216,96136,6,0,P|184:272|96:280,1,140
128,184,96993,1,0,0:0:0:0:
128,184,97422,1,0,0:0:0:0:
176,64,97850,6,0,P|264:88|304:136,1,140
368,48,98708,2,0,P|416:112|424:200,2,140
224,24,99993,5,0,0:0:0:0:
112,56,100423,2,0,P|72:112|80:208,1,140
176,144,101279,6,0,L|312:184,2,140
72,112,102565,1,0,0:0:0:0:
64,248,102993,6,0,P|128:312|216:328,1,140
288,304,103850,2,0,P|344:248|440:224,1,140
480,104,104708,6,0,P|408:88|312:104,2,140
504,216,105993,1,0,0:0:0:0:
400,312,106420,6,0,P|312:328|236:303,1,140
144,344,107279,2,0,P|80:288|59:218,1,140
192,98,108136,6,0,B|192:184|192:184|144:256,2,140
96,40,109422,1,0,0:0:0:0:
232,0,109850,6,0,B|352:24|352:24|386:53,1,140
448,168,110708,2,0,B|328:144|328:144|291:117,1,140
151,140,111565,6,0,P|112:176|176:240,2,140
256,192,112850,1,0,0:0:0:0:
432,280,113279,6,0,P|376:328|344:256,1,167.999994873047
352,168,114136,2,0,P|408:120|440:192,1,167.999994873047
312,304,114993,6,0,B|248:312|248:312|208:272|208:272|144:280,2,167.999994873047
432,280,116279,1,0,0:0:0:0:
376,152,116708,6,0,P|296:128|216:168,1,167.999994873047
144,232,117566,6,0,P|224:256|304:216,1,167.999994873047
352,88,118423,6,0,B|288:64|288:64|224:88|224:88|160:64,2,167.999994873047
456,128,119709,1,0,0:0:0:0:
176,120,133852,5,0,0:0:0:0:
176,240,134281,1,0,0:0:0:0:
304,240,134709,1,0,0:0:0:0:
304,128,135138,1,0,0:0:0:0:
152,96,135566,1,0,0:0:0:0:
152,264,135995,1,0,0:0:0:0:
320,264,136423,1,0,0:0:0:0:
328,96,136852,1,0,0:0:0:0:
464,32,137281,6,0,L|464:176,1,140
424,288,138138,1,0,0:0:0:0:
304,336,138566,2,0,L|136:336,1,140
240,216,139423,1,0,0:0:0:0:
360,176,139852,2,0,P|344:120|240:96,1,140
96,88,140709,5,0,0:0:0:0:
0,176,141138,2,0,P|32:240|120:256,1,140
216,264,141995,1,0,0:0:0:0:
288,176,142423,2,0,P|328:232|296:328,1,140
216,264,143281,2,0,P|176:208|208:112,1,140
320,56,144138,5,0,0:0:0:0:
432,16,144566,2,0,P|464:88|456:160,1,140
368,216,145423,1,0,0:0:0:0:
472,248,145852,2,0,P|440:312|376:328,1,140
288,288,146709,2,0,P|248:224|280:160,1,140
280,24,147566,6,0,P|176:40|88:80,1,167.999994873047
40,160,148423,2,0,P|72:232|136:312,1,167.999994873047
192,192,149281,2,0,P|272:152|352:136,1,167.999994873047
472,208,150138,2,0,P|392:248|312:264,1,167.999994873047
184,344,150995,6,0,P|144:288|192:184,1,167.999994873047
56,208,151852,2,0,P|96:128|184:96,1,167.999994873047
88,16,152709,2,0,P|184:0|280:40,1,167.999994873047
176,104,153566,2,0,P|272:120|368:80,1,167.999994873047
472,24,154423,6,0,L|472:200,1,167.999994873047
376,248,155281,2,0,L|376:80,1,167.999994873047
280,24,156138,2,0,L|280:200,1,167.999994873047
184,248,156995,2,0,L|184:80,1,167.999994873047
40,16,157852,6,0,P|80:64|32:176,1,167.999994873047
128,216,158709,2,0,P|91:291|119:367,1,167.999994873047
224,368,159566,2,0,P|251:291|216:216,1,167.999994873047
128,216,160423,2,0,P|91:291|119:367,1,167.999994873047
264,280,161281,5,0,0:0:0:0:
400,232,161709,1,0,0:0:0:0:
400,104,162138,2,0,P|312:88|264:160,1,167.999994873047
336,264,162995,1,0,0:0:0:0:
448,336,163423,1,0,0:0:0:0:
489,205,163852,2,0,P|481:133|385:109,1,167.999994873047
272,24,164709,5,0,0:0:0:0:
152,80,165138,1,0,0:0:0:0:
264,144,165566,2,0,P|264:200|152:256,1,167.999994873047
64,208,166423,1,0,0:0:0:0:
32,88,166852,1,0,0:0:0:0:
144,24,167281,2,0,P|224:16|288:88,1,167.999994873047
200,176,168138,5,0,0:0:0:0:
296,272,168566,1,0,0:0:0:0:
424,240,168995,2,0,P|456:176|400:96,1,167.999994873047
296,48,169852,1,0,0:0:0:0:
168,48,170281,1,0,0:0:0:0:
80,128,170709,2,0,P|96:192|224:224,1,167.999994873047
312,136,171566,5,0,0:0:0:0:
424,184,171995,1,0,0:0:0:0:
440,304,172423,2,0,P|400:344|280:312,1,167.999994873047
232,232,173281,1,0,0:0:0:0:
112,232,173709,1,0,0:0:0:0:
24,312,174138,2,0,P|-8:232|32:144,1,167.999994873047
144,48,174995,6,0,B|208:64|208:64|216:112|216:112|288:136,1,167.999994873047
360,56,175852,1,0,0:0:0:0:
360,56,176281,1,0,0:0:0:0:
464,184,176709,6,0,P|448:256|352:280,2,167.999994873047
368,184,177995,1,0,0:0:0:0:
192,184,178423,6,0,B|144:232|144:232|176:272|176:272|136:320,1,167.999994873047
32,272,179281,5,0,0:0:0:0:
32,272,179709,1,0,0:0:0:0:
32,128,180138,6,0,P|72:80|192:80,2,167.999994873047
132,161,181423,1,0,0:0:0:0:
160,320,181852,6,0,B|216:304|216:304|304:232,1,167.999994873047
416,272,182709,1,0,0:0:0:0:
416,272,183138,1,0,0:0:0:0:
464,128,183566,6,0,P|392:112|304:160,2,167.999994873047
488,24,184852,1,0,0:0:0:0:
328,24,185281,6,0,L|144:24,1,167.999994873047
48,24,186138,1,0,0:0:0:0:
48,24,186566,1,0,0:0:0:0:
136,104,186995,6,0,B|192:128|192:128|184:184|184:184|240:224,2,167.999994873047
80,192,188281,1,0,0:0:0:0:
152,272,188709,1,4,0:0:0:0:
160,64,195566,6,0,P|240:56|280:152,1,167.999994873047
192,144,196423,2,0,P|236:210|316:202,1,167.999994873047
480,128,197281,6,0,P|448:64|352:64,1,167.999994873047
392,144,198138,2,0,P|311:144|271:74,1,167.999994873047
109,91,198995,5,0,0:0:0:0:
32,136,199423,1,0,0:0:0:0:
76,213,199852,1,0,0:0:0:0:
154,168,200281,1,0,0:0:0:0:
240,32,200709,6,0,P|312:8|392:88,1,167.999994873047
296,112,201566,2,0,P|361:160|438:137,1,167.999994873047
496,304,202423,6,0,P|400:296|336:336,1,167.999994873047
296,240,203281,2,0,P|222:278|140:266,1,167.999994873047
40,160,204138,6,0,P|80:112|184:104,1,140
144,192,204995,2,0,P|200:184|248:120,1,140
368,32,205852,5,0,0:0:0:0:
448,120,206281,1,0,0:0:0:0:
456,240,206709,1,0,0:0:0:0:
376,320,207138,1,0,0:0:0:0:
336,192,207566,5,0,0:0:0:0:
248,120,207995,1,0,0:0:0:0:
136,88,208423,1,0,0:0:0:0:
24,96,208852,1,0,0:0:0:0:
120,216,209281,6,0,P|176:248|192:352,1,140
104,312,210138,2,0,P|48:280|32:176,1,140
32,112,210995,2,0,P|80:56|184:56,1,140
238,66,211852,2,0,P|194:120|128:136,1,140
192,256,212709,5,0,0:0:0:0:
259,320,213138,1,0,0:0:0:0:
323,253,213566,1,0,0:0:0:0:
256,188,213995,1,0,0:0:0:0:
280,56,214423,6,0,P|352:88|384:168,1,140
480,112,215281,2,0,P|480:176|432:256,1,140
512,328,216138,2,0,P|440:344|368:320,1,140
328,232,216995,2,0,P|248:232|184:272,1,140
40,192,217852,6,0,P|112:136|176:144,1,140
136,232,218709,2,0,P|208:224|256:144,1,140
192,56,219566,5,0,0:0:0:0:
312,56,219995,1,0,0:0:0:0:
312,168,220423,1,0,0:0:0:0:
192,168,220852,1,0,0:0:0:0:
96,32,221281,6,0,P|64:80|72:176,1,140
152,112,222138,2,0,P|160:176|232:240,1,140
328,128,222995,6,0,P|360:184|352:272,1,140
456,288,223852,2,0,P|424:328|328:352,1,140
240,352,224709,2,0,P|168:336|112:272,1,140
208,248,225566,2,0,P|174:187|178:118,1,140
272,16,226423,5,0,0:0:0:0:
272,120,226852,1,0,0:0:0:0:
384,120,227281,1,0,0:0:0:0:
376,16,227709,1,0,0:0:0:0:
232,16,228138,6,0,P|176:24|80:88,1,140
64,168,228995,2,0,P|120:160|216:96,1,140
232,16,229852,2,0,P|288:24|376:72,1,140
400,168,230709,2,0,P|344:160|256:112,1,140
136,216,231566,6,0,L|136:360,1,140
240,352,232423,2,0,L|240:200,1,140
384,192,233281,5,0,0:0:0:0:
464,120,233709,1,0,0:0:0:0:
384,48,234138,1,0,0:0:0:0:
304,120,234566,1,0,0:0:0:0:
208,8,234995,6,0,P|128:8|64:32,1,140
152,104,235852,2,0,P|176:152|184:240,1,140
64,336,236709,6,0,P|128:320|224:344,1,140
304,336,237566,2,0,P|368:336|456:304,1,140
424,216,238423,2,0,P|360:216|272:248,1,140
184,256,239281,2,0,P|120:272|24:248,1,140
136,144,240138,5,0,0:0:0:0:
224,64,240566,1,0,0:0:0:0:
344,48,240995,1,0,0:0:0:0:
456,88,241423,1,0,0:0:0:0:
336,168,241852,6,0,P|280:200|280:280,1,140
304,352,242709,2,0,P|360:320|360:240,1,140
464,168,243566,6,0,P|416:128|312:136,1,140
360,32,244423,2,0,P|280:40|232:80,1,140
168,8,245281,2,0,P|136:48|128:152,1,140
24,128,246138,2,0,P|40:184|136:240,1,140
48,344,246995,5,0,0:0:0:0:
168,344,247423,1,0,0:0:0:0:
288,344,247852,1,0,0:0:0:0:
408,344,248281,1,0,0:0:0:0:
480,232,248709,6,0,P|424:168|352:152,1,140
416,56,249566,2,0,P|320:40|248:64,1,140
248,192,250423,5,0,0:0:0:0:
248,192,250852,1,0,0:0:0:0:
176,264,251281,2,0,P|144:184|184:120,1,140
272,48,252138,5,0,0:0:0:0:
272,48,252566,1,0,0:0:0:0:
248,152,252995,2,0,P|312:144|368:72,1,140
440,216,253852,5,0,0:0:0:0:
440,216,254281,1,0,0:0:0:0:
328,184,254709,2,0,P|328:248|408:312,1,140
208,280,255566,5,0,0:0:0:0:
208,280,255995,1,0,0:0:0:0:
96,280,256423,2,0,P|128:200|192:184,1,140
224,48,257281,5,0,0:0:0:0:
