osu file format v14

[General]
AudioFilename: Waterflame - King Poseidon (HD).mp3
AudioLeadIn: 0
PreviewTime: 3565
Countdown: 0
SampleSet: None
StackLeniency: 0.7
Mode: 0
LetterboxInBreaks: 1
WidescreenStoryboard: 1

[Editor]
Bookmarks: 3565,44706,78990,90990,161273,174986,195557
DistanceSpacing: 2.2
BeatDivisor: 3
GridSize: 8
TimelineZoom: 1

[Metadata]
Title:King Poseidon
TitleUnicode:King Poseidon
Artist:Waterflame
ArtistUnicode:Waterflame
Creator:TheLeviathan
Version:Hard
Source:
Tags:Arphimigon Electro Progressive House
BeatmapID:931960
BeatmapSetID:432180

[Difficulty]
HPDrainRate:5.5
CircleSize:4
OverallDifficulty:6.7
ApproachRate:8
SliderMultiplier:1.4
SliderTickRate:1

[Events]
//Background and Video events
0,0,"maxresdefault.jpg",0,0
//Break Periods
2,86049,90242
2,188906,192242
//Storyboard Layer 0 (Background)
//Storyboard Layer 1 (Fail)
//Storyboard Layer 2 (Pass)
//Storyboard Layer 3 (Foreground)
//Storyboard Sound Samples

[TimingPoints]
2708,428.571428571429,4,1,0,30,1,0
3136,-100,4,3,1,30,0,0
3779,-100,4,3,1,10,0,0
3993,-100,4,3,1,30,0,0
4422,-166.666666666667,4,3,1,30,0,0
5279,-100,4,3,1,30,0,0
5493,-100,4,3,1,10,0,0
5707,-100,4,3,1,30,0,0
6136,-166.666666666667,4,3,1,30,0,0
6564,-100,4,3,1,30,0,0
6993,-100,4,3,1,30,0,0
7100,-100,4,3,1,33,0,0
7207,-100,4,3,1,36,0,0
7314,-100,4,3,1,39,0,0
7422,-100,4,3,1,42,0,0
7529,-100,4,3,1,45,0,0
7636,-100,4,3,1,48,0,0
7957,-100,4,3,1,45,0,0
8064,-100,4,3,1,42,0,0
8172,-100,4,3,1,39,0,0
8279,-100,4,3,1,36,0,0
8386,-100,4,3,1,33,0,0
8493,-100,4,3,1,30,0,0
9564,-166.666666666667,4,3,1,30,0,0
10421,-100,4,3,1,30,0,0
10636,-100,4,3,1,10,0,0
10850,-100,4,3,1,30,0,0
11279,-166.666666666667,4,3,1,30,0,0
11707,-100,4,3,1,30,0,0
12993,-166.666666666667,4,3,1,30,0,0
13421,-100,4,3,1,30,0,0
15564,-100,4,3,1,30,0,0
15778,-100,4,3,1,33,0,0
15993,-100,4,3,1,36,0,0
16207,-100,4,3,1,39,0,0
16421,-100,4,3,1,42,0,0
16636,-100,4,3,1,45,0,0
16850,-100,4,3,1,48,0,0
17493,-100,4,3,1,35,0,0
18135,428.571428571429,4,1,0,30,1,0
20707,-100,4,3,1,35,0,0
20921,-100,4,3,1,40,0,0
21135,-100,4,3,1,45,0,0
21350,-100,4,3,1,50,0,0
21564,-100,4,3,1,45,0,0
21778,-100,4,3,1,40,0,0
21992,-100,4,3,1,35,0,0
22207,-100,4,3,1,30,0,0
27564,-200,4,3,1,30,0,0
27778,-200,4,3,1,30,0,0
27992,-200,4,3,1,35,0,0
28207,-200,4,3,1,40,0,0
28421,-200,4,3,1,45,0,0
28635,-200,4,3,1,40,0,0
28849,-200,4,3,1,35,0,0
29064,-200,4,3,1,30,0,0
29278,-100,4,3,1,30,0,0
34421,-100,4,3,1,35,0,0
34635,-100,4,3,1,40,0,0
34849,-100,4,3,1,45,0,0
35063,-100,4,3,1,50,0,0
35278,-100,4,3,1,54,0,0
35492,-100,4,3,1,56,0,0
35706,-100,4,3,1,58,0,0
35920,-100,4,3,1,62,0,0
36135,-100,4,3,1,30,0,0
41277,-100,4,3,1,35,0,0
41492,-100,4,3,1,40,0,0
41706,-100,4,3,1,43,0,0
41920,-100,4,3,1,48,0,0
42135,-100,4,3,1,52,0,0
42349,-100,4,3,1,54,0,0
42563,-100,4,3,1,57,0,0
42777,-100,4,3,1,60,0,0
42992,-100,4,3,1,30,0,0
44706,-100,4,3,1,30,0,0
56705,-166.666666666667,4,3,1,30,0,0
58420,-100,4,3,1,30,0,0
59277,-125,4,3,1,30,0,0
92706,-125,4,3,1,30,0,1
93563,-83.3333333333333,4,3,1,30,0,1
95277,-62.5,4,3,1,30,0,1
96135,-83.3333333333333,4,3,1,30,0,1
98706,-83.3333333333333,4,3,1,30,0,1
106420,-83.3333333333333,4,3,1,37,0,1
111563,-125,4,3,1,37,0,1
111992,-125,4,3,1,37,0,1
112420,-83.3333333333333,4,3,1,37,0,1
119992,-83.3333333333333,4,3,1,10,0,0
120135,-142.857142857143,4,3,1,37,0,0
146277,-111.111111111111,4,3,1,37,0,0
146706,-90.909090909091,4,3,1,37,0,0
147135,-76.9230769230769,4,3,1,37,0,0
147563,-111.111111111111,4,3,1,37,0,0
173277,-142.857142857143,4,3,1,37,0,0
173706,-111.111111111111,4,3,1,37,0,0
174135,-90.9090909090908,4,3,1,37,0,0
174563,-90.9090909090908,4,3,1,37,0,0
174849,-111.111111111111,4,3,1,37,0,0
174992,-111.111111111111,4,3,1,37,0,1
175563,-111.111111111111,4,3,1,37,0,1
188706,-111.111111111111,4,3,1,37,0,0
195557,-111.111111111111,4,3,1,40,0,0
195992,-111.111111111111,4,3,1,37,0,0
196206,-166.666666666666,4,3,1,37,0,0
196635,-166.666666666666,4,3,1,10,0,0
196849,-166.666666666666,4,3,1,37,0,0
197277,-100,4,3,1,37,0,0
197492,-100,4,3,1,10,0,0
197706,-166.666666666666,4,3,1,37,0,0
198349,-166.666666666666,4,3,1,10,0,0
198563,-166.666666666666,4,3,1,37,0,0
200706,-100,4,3,1,37,0,0
201563,-166.666666666667,4,3,1,37,0,0
202420,-100,4,3,1,37,0,0
203277,-166.666666666667,4,3,1,37,0,0
204135,-100,4,3,1,37,0,0
204992,-166.666666666667,4,3,1,37,0,0
205849,-111.111111111111,4,3,1,37,0,0
214420,-99.9999999999999,4,3,1,37,0,0
222992,-83.3333333333333,4,3,1,37,0,0

[Colours]
Combo1 : 0,164,164
Combo2 : 81,0,0
Combo3 : 106,106,53
Combo4 : 98,49,0

[HitObjects]
48,80,3565,6,0,P|87:50|135:55,1,70,4|0,0:0|0:0,0:0:0:0:
144,65,3993,1,8,0:0:0:0:
224,160,4207,1,0,0:0:0:0:
224,160,4315,1,0,0:0:0:0:
224,160,4422,2,0,L|272:176,1,41.9999987182618
288,216,4850,1,8,0:0:0:0:
464,288,5279,6,0,P|448:352|419:366,1,70
406,361,5707,1,8,0:0:0:0:
319,291,5922,1,0,0:0:0:0:
319,291,6029,1,0,0:0:0:0:
319,291,6136,2,0,L|262:281,1,41.9999987182618
253,238,6564,1,8,0:0:0:0:
80,294,6993,6,0,L|120:310,1,35
104,240,7207,2,0,L|136:256,1,35
134,191,7422,2,0,L|176:214,1,35
161,140,7636,1,0,0:0:0:0:
283,85,7850,6,0,L|244:104,1,35
308,136,8064,2,0,L|276:152,1,35
334,187,8279,2,0,L|293:208,1,35
361,235,8493,1,0,0:0:0:0:
262,305,8707,6,0,B|243:342|243:342|256:373,2,70,0|0|8,0:0|0:0|0:0,0:0:0:0:
141,289,9350,1,0,0:0:0:0:
119,254,9457,1,0,0:0:0:0:
96,219,9564,2,0,L|72:184,1,41.9999987182618
26,171,9993,1,8,0:0:0:0:
489,196,10421,6,0,B|488:150|488:150|463:138,1,70
430,121,10850,1,8,0:0:0:0:
301,149,11064,1,0,0:0:0:0:
272,141,11171,1,0,0:0:0:0:
243,132,11279,2,0,L|191:115,1,41.9999987182618
181,74,11707,1,8,0:0:0:0:
17,84,12136,6,0,B|7:134|7:134|27:151,1,70
52,177,12564,1,8,0:0:0:0:
211,173,12779,1,0,0:0:0:0:
243,187,12886,1,0,0:0:0:0:
270,200,12993,2,0,L|317:225,1,41.9999987182618
331,263,13421,1,8,0:0:0:0:
512,296,13850,6,0,L|477:365,1,70
469,191,14278,2,0,L|450:273,1,70
399,98,14707,2,0,L|406:180,1,70
289,50,15136,2,0,L|336:116,1,70
80,96,15564,5,8,0:0:0:0:
24,184,15778,1,8,0:0:0:0:
64,280,15993,1,8,0:0:0:0:
160,336,16207,1,8,0:0:0:0:
272,336,16421,1,8,0:0:0:0:
384,296,16636,1,8,0:0:0:0:
448,208,16850,1,8,0:0:0:0:
437,61,17065,5,0,0:0:0:0:
404,35,17172,1,0,0:0:0:0:
368,21,17279,2,0,P|331:16|291:26,1,70,4|0,0:0|0:0,0:0:0:0:
336,104,17708,2,0,P|296:114|259:108,1,70
200,24,18135,2,0,P|233:16|267:26,1,70
187,107,18563,2,0,P|145:108|111:88,1,70
14,99,18992,6,0,P|37:63|41:27,1,70
120,96,19420,2,0,P|118:131|129:165,1,70
43,172,19849,2,0,P|49:206|43:241,1,70
98,317,20277,2,0,P|124:272|164:245,1,70
162,245,20706,5,0,0:0:0:0:
200,256,20920,1,0,0:0:0:0:
192,216,21135,1,0,0:0:0:0:
240,256,21349,1,0,0:0:0:0:
224,192,21563,1,0,0:0:0:0:
280,256,21777,1,0,0:0:0:0:
264,176,21992,1,0,0:0:0:0:
336,200,22206,1,0,0:0:0:0:
272,120,22420,6,0,L|348:114,1,70
304,192,22849,2,0,L|382:201,1,70
322,273,23277,2,0,L|395:296,1,70
331,349,23706,2,0,L|396:374,1,70
200,362,24135,6,0,L|137:324,1,70
209,274,24564,2,0,L|158:227,1,70
229,184,24992,2,0,L|184:123,1,70
268,101,25421,2,0,L|231:33,1,70
430,4,25849,6,0,P|428:39|448:76,1,70
372,148,26278,2,0,P|366:93|339:67,1,70
268,176,26707,2,0,P|282:218|306:241,1,70
237,331,27135,2,0,P|237:296|221:266,1,70
153,338,27564,5,0,0:0:0:0:
112,336,27778,1,0,0:0:0:0:
152,304,27992,1,0,0:0:0:0:
88,328,28207,1,0,0:0:0:0:
144,280,28421,1,0,0:0:0:0:
56,320,28635,1,0,0:0:0:0:
136,248,28849,1,0,0:0:0:0:
56,240,29064,1,0,0:0:0:0:
196,88,29278,6,0,P|202:54|196:20,1,70
263,126,29706,2,0,P|266:161|282:192,1,70
473,241,30135,2,0,P|477:284|472:316,1,70
363,355,30564,2,0,P|391:303|417:288,1,70
312,151,30992,6,0,L|252:199,1,70
174,264,31421,1,0,0:0:0:0:
174,264,31635,1,0,0:0:0:0:
16,288,31849,2,0,L|77:243,1,70
163,188,32278,1,0,0:0:0:0:
163,188,32492,1,0,0:0:0:0:
257,19,32706,6,0,P|291:22|329:42,1,70
327,145,33135,1,0,0:0:0:0:
327,145,33349,1,0,0:0:0:0:
375,335,33563,2,0,P|333:354|286:350,1,70
272,250,33992,1,0,0:0:0:0:
272,250,34206,1,0,0:0:0:0:
200,261,34421,5,0,0:0:0:0:
169,236,34635,1,0,0:0:0:0:
171,286,34849,1,0,0:0:0:0:
146,221,35063,1,0,0:0:0:0:
142,297,35278,1,0,0:0:0:0:
111,206,35492,1,0,0:0:0:0:
106,306,35706,1,0,0:0:0:0:
46,252,35920,1,0,0:0:0:0:
17,159,36135,6,0,P|26:120|61:86,1,70
161,127,36563,1,0,0:0:0:0:
161,127,36778,1,0,0:0:0:0:
3,24,36992,2,0,P|38:7|92:11,1,70
185,43,37420,1,0,0:0:0:0:
185,43,37635,1,0,0:0:0:0:
333,40,37849,6,0,P|349:77|383:106,1,70
420,33,38278,1,0,0:0:0:0:
420,33,38492,1,0,0:0:0:0:
341,161,38706,2,0,P|376:186|425:184,1,70
404,113,39135,1,0,0:0:0:0:
404,113,39349,1,0,0:0:0:0:
495,264,39563,6,0,P|450:296|419:297,1,70
429,224,39992,1,0,0:0:0:0:
429,224,40206,1,0,0:0:0:0:
405,373,40420,2,0,P|353:368|324:344,1,70
381,295,40849,1,0,0:0:0:0:
381,295,41063,1,0,0:0:0:0:
317,244,41277,5,0,0:0:0:0:
314,209,41492,1,0,0:0:0:0:
279,240,41706,1,0,0:0:0:0:
310,180,41920,1,0,0:0:0:0:
254,234,42135,1,0,0:0:0:0:
298,151,42349,1,0,0:0:0:0:
220,222,42563,1,0,0:0:0:0:
218,143,42777,1,0,0:0:0:0:
0,108,42992,6,0,P|23:160|45:179,1,70
80,184,43420,1,0,0:0:0:0:
130,192,43634,1,0,0:0:0:0:
134,269,43849,6,0,P|181:274|208:286,1,70
232,324,44277,1,0,0:0:0:0:
264,367,44492,1,0,0:0:0:0:
440,296,44706,6,0,P|398:222|320:216,1,140
360,288,45349,1,0,0:0:0:0:
271,244,45563,2,0,P|210:186|216:120,1,140
288,168,46206,1,0,0:0:0:0:
318,41,46420,6,0,L|239:73,1,70
190,20,46849,2,0,L|153:87,1,70
71,67,47277,2,0,L|85:142,1,70
35,208,47706,1,0,0:0:0:0:
65,319,47920,1,0,0:0:0:0:
183,267,48134,6,0,P|226:196|301:216,1,140
257,268,48777,1,0,0:0:0:0:
344,308,48991,2,0,P|411:279|418:219,1,140
347,235,49634,1,0,0:0:0:0:
216,180,49849,6,0,L|290:165,1,70
264,128,50170,1,0,0:0:0:0:
249,86,50277,2,0,L|322:98,1,70
326,24,50706,2,0,L|403:58,1,70
449,0,51134,1,0,0:0:0:0:
510,105,51348,1,0,0:0:0:0:
495,278,51563,6,0,P|418:291|370:340,1,140
319,277,52206,1,0,0:0:0:0:
246,350,52420,2,0,P|160:330|114:287,1,140
56,340,53063,1,0,0:0:0:0:
20,165,53277,6,0,L|45:233,1,70
93,90,53706,2,0,L|93:162,1,70
176,49,54134,2,0,L|159:127,1,70
295,5,54563,1,0,0:0:0:0:
235,88,54777,1,0,0:0:0:0:
162,234,54991,6,0,P|194:301|261:294,1,140
336,259,55634,1,0,0:0:0:0:
233,220,55848,2,0,P|306:210|334:280,1,140
251,300,56491,1,0,0:0:0:0:
428,361,56705,6,0,L|444:309,1,41.9999987182618
504,250,57134,2,0,L|480:193,1,41.9999987182618
408,152,57562,2,0,L|400:176,1,20.9999993591309
352,128,57777,2,0,L|344:160,1,20.9999993591309
288,128,57991,2,0,L|296:168,1,20.9999993591309
232,136,58205,2,0,L|240:176,1,20.9999993591309
189,149,58420,6,0,P|169:181|161:217,1,70
216,281,58848,2,0,P|238:254|248:221,1,70
132,288,59277,2,0,L|96:306,3,28
68,326,59705,1,0,0:0:0:0:
37,135,60134,5,0,0:0:0:0:
163,23,60562,1,0,0:0:0:0:
325,60,60991,2,0,L|336:97,1,28
401,118,61205,2,0,P|422:145|443:160,1,56
508,152,61634,1,0,0:0:0:0:
415,273,61848,5,0,0:0:0:0:
261,186,62277,1,0,0:0:0:0:
121,259,62705,2,0,L|118:293,1,28
64,307,62919,2,0,L|72:342,1,28
77,368,63134,1,0,0:0:0:0:
255,320,63562,5,0,0:0:0:0:
254,171,63991,1,0,0:0:0:0:
126,211,64420,2,0,L|113:182,1,28
39,190,64635,2,0,P|36:148|45:115,1,56
11,61,65063,1,0,0:0:0:0:
168,11,65277,6,0,L|291:56,1,112
344,21,66134,2,0,L|350:50,1,28
405,77,66348,2,0,L|396:119,1,28
394,140,66562,1,0,0:0:0:0:
493,223,66991,6,0,L|410:319,1,112
397,376,67849,2,0,L|351:353,1,28
305,374,68063,2,0,P|265:342|249:319,1,56
336,301,68492,1,0,0:0:0:0:
301,187,68706,6,0,B|244:212|244:212|207:259,1,112
336,301,69563,2,0,L|293:321,1,28
278,344,69777,2,0,L|249:350,1,28
189,357,69992,1,0,0:0:0:0:
129,357,70206,1,0,0:0:0:0:
24,309,70420,6,0,L|70:259,1,56
58,192,70848,2,0,L|110:164,1,56
112,88,71277,2,0,L|172:78,1,56
183,6,71706,2,0,L|242:13,1,56
319,27,72027,5,0,0:0:0:0:
399,46,72135,2,0,B|428:54|428:54|444:79,1,56
377,123,72563,2,0,B|402:149|402:149|426:151,1,56
430,229,72992,2,0,B|459:237|459:237|481:259,1,56
421,305,73420,2,0,B|387:298|387:298|356:268,1,56
315,343,73849,6,0,B|277:344|277:344|256:361,1,56
216,291,74277,2,0,B|175:283|175:283|157:258,1,56
223,207,74705,2,0,B|205:177|205:177|206:151,1,56
126,124,75135,2,0,B|142:86|142:86|168:73,1,56
257,42,75563,5,0,0:0:0:0:
294,33,75777,1,0,0:0:0:0:
277,73,75992,1,0,0:0:0:0:
329,29,76206,1,0,0:0:0:0:
300,97,76420,1,0,0:0:0:0:
360,27,76635,1,0,0:0:0:0:
328,119,76849,1,0,0:0:0:0:
405,93,77063,1,0,0:0:0:0:
432,286,77277,6,0,L|454:345,1,56
352,331,77706,2,0,L|329:384,1,56
252,336,78135,2,0,L|200:368,1,56
158,286,78563,2,0,L|97:296,1,56
2,100,78992,5,0,0:0:0:0:
38,17,79206,1,0,0:0:0:0:
87,92,79420,2,0,L|134:40,1,56
141,162,79849,5,0,0:0:0:0:
207,42,80063,1,0,0:0:0:0:
267,165,80277,2,0,L|314:113,1,56
313,239,80706,5,0,0:0:0:0:
389,125,80920,1,0,0:0:0:0:
475,279,81135,2,0,L|522:227,1,56
292,268,81562,5,0,0:0:0:0:
400,103,81777,1,0,0:0:0:0:
512,237,81991,2,0,L|474:278,1,56
338,197,82420,5,0,0:0:0:0:
322,158,82635,1,0,0:0:0:0:
301,213,82849,1,0,0:0:0:0:
305,133,83063,1,0,0:0:0:0:
274,215,83277,1,0,0:0:0:0:
291,108,83492,1,0,0:0:0:0:
240,219,83706,1,0,0:0:0:0:
215,143,83920,1,0,0:0:0:0:
344,312,84135,6,0,L|381:265,1,56
447,181,84563,1,0,0:0:0:0:
447,181,84777,1,0,0:0:0:0:
363,63,84992,6,0,L|355:118,1,56
352,184,85420,2,0,L|312:184,1,28
347,250,85635,2,0,L|315:250,1,28
344,312,85849,1,0,0:0:0:0:
44,48,90992,6,0,P|98:47|137:74,1,74.6666666666667
146,76,91420,1,0,0:0:0:0:
238,92,91706,2,0,L|245:140,1,37.3333333333333
331,126,92135,2,0,L|325:167,1,37.3333333333333
321,206,92420,1,0,0:0:0:0:
314,248,92563,1,0,0:0:0:0:
360,320,92706,6,0,L|339:353,1,37.3333333333333
272,336,92992,2,0,L|230:353,1,37.3333333333333
91,327,93563,2,0,L|81:266,1,55.9999982910157
73,230,93849,1,0,0:0:0:0:
64,185,93992,1,0,0:0:0:0:
97,27,94420,6,0,L|142:73,1,55.9999982910157
164,94,94706,1,0,0:0:0:0:
229,27,94849,2,0,L|251:87,1,55.9999982910157
262,115,95135,1,0,0:0:0:0:
330,58,95277,2,0,P|364:114|366:207,1,149.333333333333
358,225,95706,1,0,0:0:0:0:
201,232,96135,6,0,L|159:285,2,55.9999982910157
223,202,96563,1,0,0:0:0:0:
145,147,96992,2,0,L|189:110,1,55.9999982910157
221,94,97277,2,0,L|276:84,1,55.9999982910157
385,304,97849,6,0,L|348:232,1,55.9999982910157
340,219,98135,1,0,0:0:0:0:
267,275,98277,2,0,L|257:189,1,55.9999982910157
257,177,98563,1,0,0:0:0:0:
174,209,98706,2,0,P|175:125|216:65,1,111.999996582031
214,69,99135,1,0,0:0:0:0:
431,33,99563,6,0,L|417:89,1,55.9999982910157
405,128,99849,1,0,0:0:0:0:
395,170,99992,1,0,0:0:0:0:
476,240,100420,2,0,L|427:282,1,55.9999982910157
395,297,100706,2,0,L|333:300,1,55.9999982910157
230,348,101277,6,0,L|214:270,1,55.9999982910157
213,249,101563,1,0,0:0:0:0:
129,293,101706,2,0,L|138:218,1,55.9999982910157
139,193,101992,1,0,0:0:0:0:
48,216,102135,2,0,P|61:143|118:99,1,111.999996582031
120,88,102563,1,0,0:0:0:0:
284,56,102992,6,0,L|310:0,2,55.9999982910157
269,93,103420,1,0,0:0:0:0:
361,131,103849,2,0,L|378:194,1,55.9999982910157
440,240,104135,2,0,L|453:178,1,55.9999982910157
476,33,104706,6,0,L|453:90,1,55.9999982910157
441,126,104992,1,0,0:0:0:0:
363,63,105135,2,0,L|356:140,1,55.9999982910157
357,161,105420,1,0,0:0:0:0:
279,117,105563,2,0,P|271:189|311:243,1,111.999996582031
291,251,105992,2,0,P|277:313|204:344,1,111.999996582031
121,295,106420,6,0,L|143:240,1,55.9999982910157
181,157,106706,1,0,0:0:0:0:
241,81,106849,2,0,L|299:66,1,55.9999982910157
386,48,107135,1,0,0:0:0:0:
356,143,107277,6,0,L|349:214,1,55.9999982910157
443,233,107563,2,0,L|467:296,1,55.9999982910157
344,357,108135,6,0,L|320:289,1,55.9999982910157
297,222,108420,1,0,0:0:0:0:
183,160,108563,2,0,L|181:234,1,55.9999982910157
180,317,108849,1,0,0:0:0:0:
77,356,108992,2,0,L|61:234,1,111.999996582031
49,130,109420,1,0,0:0:0:0:
175,16,109849,6,0,L|253:30,1,55.9999982910157
332,40,110135,1,0,0:0:0:0:
408,117,110277,2,0,L|326:150,1,55.9999982910157
272,180,110563,1,0,0:0:0:0:
202,264,110706,2,0,L|282:292,1,55.9999982910157
344,312,110992,1,0,0:0:0:0:
344,312,111135,2,0,P|416:302|446:255,1,111.999996582031
471,234,111563,6,0,L|507:195,2,37.3333333333333
446,175,111992,2,0,L|472:138,2,37.3333333333333
387,108,112420,6,0,L|317:89,1,55.9999982910157
298,83,112706,1,0,0:0:0:0:
260,73,112849,1,0,0:0:0:0:
120,16,113135,5,0,0:0:0:0:
120,16,113277,2,0,L|112:72,1,55.9999982910157
100,166,113563,1,0,0:0:0:0:
206,179,113706,2,0,L|165:238,1,55.9999982910157
106,303,113992,1,0,0:0:0:0:
174,225,114135,2,0,L|245:254,1,55.9999982910157
323,286,114420,1,0,0:0:0:0:
323,286,114563,1,0,0:0:0:0:
480,238,114992,6,0,L|456:176,1,55.9999982910157
445,148,115277,1,0,0:0:0:0:
381,206,115420,2,0,L|351:157,1,55.9999982910157
329,122,115706,1,0,0:0:0:0:
306,88,115849,2,0,P|257:53|183:66,1,111.999996582031
181,87,116277,1,0,0:0:0:0:
37,163,116706,6,0,L|91:180,1,55.9999982910157
131,195,116992,1,0,0:0:0:0:
75,264,117135,2,0,L|131:295,1,55.9999982910157
162,313,117420,1,0,0:0:0:0:
200,334,117563,2,0,P|262:338|319:289,1,111.999996582031
318,270,117992,1,0,0:0:0:0:
458,188,118420,6,0,L|428:129,2,55.9999982910157
467,268,118849,2,0,L|450:322,2,55.9999982910157
458,188,119277,2,0,P|455:114|422:67,1,111.999996582031
371,32,119706,2,0,P|316:15|242:20,1,111.999996582031
306,96,120135,6,0,P|285:151|207:228,1,163.333328348796
204,245,120992,2,0,P|241:281|279:290,1,65.3333313395183
277,281,121420,2,0,P|314:257|349:253,1,65.3333313395183
352,268,121849,2,0,P|387:288|431:284,1,65.3333313395183
432,276,122277,2,0,P|465:214|457:99,1,163.333328348796
425,18,123135,6,0,P|374:33|347:29,1,65.3333313395183
344,78,123563,2,0,P|288:72|265:55,1,65.3333313395183
243,101,123992,2,0,P|201:85|179:62,1,65.3333313395183
143,92,124420,2,0,P|115:58|106:24,1,65.3333313395183
61,42,124849,2,0,P|60:80|41:123,1,65.3333313395183
83,139,125277,2,0,P|107:180|301:227,1,261.333325358073
300,227,126563,5,0,0:0:0:0:
408,48,126849,2,0,L|411:91,1,32.6666656697591
296,71,127420,1,0,0:0:0:0:
472,22,127706,2,0,L|475:65,1,32.6666656697591
296,71,128277,1,0,0:0:0:0:
487,176,128706,6,0,P|450:218|396:234,1,97.9999970092775
363,322,129277,2,0,L|317:302,2,32.6666656697591
486,318,129992,1,0,0:0:0:0:
486,318,130420,2,0,P|452:254|408:223,1,97.9999970092775
343,176,130992,2,0,L|308:161,2,32.6666656697591
342,176,131706,1,0,0:0:0:0:
229,96,132135,2,0,P|171:130|124:255,1,195.999994018555
231,204,133277,5,0,0:0:0:0:
231,204,133420,1,0,0:0:0:0:
189,339,133849,6,0,L|140:293,1,65.3333313395183
55,309,134277,2,0,L|71:243,1,65.3333313395183
7,183,134706,2,0,L|75:151,1,65.3333313395183
138,99,135135,6,0,L|60:56,1,65.3333313395183
223,115,135563,2,0,L|211:45,1,65.3333313395183
281,180,135992,2,0,L|317:116,1,65.3333313395183
408,61,136420,1,0,0:0:0:0:
408,61,136706,2,0,L|441:66,1,32.6666656697591
464,200,137277,5,0,0:0:0:0:
421,307,137706,2,0,L|381:326,1,32.6666656697591
334,324,137992,1,0,0:0:0:0:
277,321,138135,2,0,P|230:298|168:200,1,163.333328348796
261,225,138992,2,0,P|241:169|274:67,1,163.333328348796
306,51,139849,1,0,0:0:0:0:
479,165,140277,6,0,L|441:172,1,32.6666656697591
421,238,140563,1,0,0:0:0:0:
366,289,140706,2,0,P|319:284|280:259,1,65.3333313395183
193,322,141135,6,0,L|183:289,1,32.6666656697591
116,256,141420,1,0,0:0:0:0:
55,208,141563,2,0,P|71:154|96:130,1,65.3333313395183
75,147,141992,1,0,0:0:0:0:
22,11,142420,6,0,P|22:72|59:148,1,130.666662679037
26,185,143135,1,0,0:0:0:0:
39,237,143277,2,0,P|80:273|119:283,1,65.3333313395183
107,325,143706,1,0,0:0:0:0:
266,274,144135,6,0,P|301:202|311:130,1,130.666662679037
354,125,144849,1,0,0:0:0:0:
377,78,144992,2,0,P|361:47|327:25,1,65.3333313395183
292,8,145420,2,0,P|257:3|225:10,1,65.3333313395183
136,53,145849,6,0,L|115:88,1,32.6666656697591
99,111,146135,1,0,0:0:0:0:
179,116,146277,6,0,L|178:164,1,41.9999987182618
176,199,146563,1,0,0:0:0:0:
256,188,146706,6,0,L|281:233,1,51.3333348999024
306,275,146992,1,0,0:0:0:0:
373,225,147135,6,0,L|426:266,1,60.6666638895672
477,305,147420,1,0,0:0:0:0:
510,168,147563,6,0,P|457:100|392:88,1,125.999996154785
300,105,148420,2,0,P|369:163|413:170,1,125.999996154785
353,26,149277,2,0,P|268:11|209:32,1,125.999996154785
161,93,150135,2,0,P|245:119|306:98,1,125.999996154785
470,67,150992,6,0,L|342:131,1,125.999996154785
445,187,151849,2,0,L|300:207,1,125.999996154785
390,298,152706,2,0,L|233:262,1,125.999996154785
305,373,153563,2,0,L|182:310,1,125.999996154785
73,111,154420,6,0,P|88:84|162:119,1,125.999996154785
256,144,155277,2,0,P|279:170|234:235,1,125.999996154785
136,240,156135,2,0,P|109:262|155:332,1,125.999996154785
240,336,156992,2,0,P|279:292|246:244,1,125.999996154785
17,178,157849,6,0,B|58:152|58:152|70:119|70:119|114:94,1,125.999996154785
161,168,158706,2,0,B|206:157|206:157|236:186|236:186|275:183,1,125.999996154785
267,84,159563,2,0,B|311:83|311:83|333:49|333:49|375:48,1,125.999996154785
389,142,160420,2,0,B|439:156|439:156|448:198|448:198|491:218,1,125.999996154785
280,111,161277,6,0,P|218:117|161:93,1,125.999996154785
230,20,162135,2,0,P|292:9|353:26,1,125.999996154785
402,169,162992,2,0,P|342:150|300:105,1,125.999996154785
421,88,163849,2,0,P|477:114|510:168,1,125.999996154785
192,315,164706,6,0,L|305:373,1,125.999996154785
267,269,165563,2,0,L|390:298,1,125.999996154785
320,204,166420,2,0,L|445:187,1,125.999996154785
357,123,167277,2,0,L|470:67,1,125.999996154785
132,307,168135,6,0,P|190:309|208:253,1,125.999996154785
120,216,168992,2,0,P|81:173|114:125,1,125.999996154785
208,152,169849,2,0,P|252:115|228:62,1,125.999996154785
152,0,170706,2,0,P|101:52|128:88,1,125.999996154785
476,211,171563,6,0,B|448:198|448:198|439:156|439:156|389:142,1,125.999996154785
373,231,172420,2,0,B|331:232|331:232|309:266|309:266|265:267,1,125.999996154785
175,297,173277,5,0,0:0:0:0:
164,332,173421,2,0,L|155:364,1,32.6666656697591
146,214,173706,5,0,0:0:0:0:
122,250,173850,2,0,L|99:285,1,41.9999987182618
172,116,174135,5,0,0:0:0:0:
127,140,174278,2,0,L|83:166,1,51.3333348999024
274,37,174563,5,0,0:0:0:0:
197,37,174707,2,0,L|146:39,1,51.3333348999024
376,38,174992,6,0,L|396:84,1,41.9999987182618
479,91,175277,2,0,L|467:137,1,41.9999987182618
484,239,175849,2,0,L|437:255,1,41.9999987182618
440,337,176135,2,0,L|388:330,1,41.9999987182618
224,282,176706,6,0,L|271:254,1,41.9999987182618
325,227,176992,1,0,0:0:0:0:
362,127,177135,2,0,L|315:153,1,41.9999987182618
262,180,177420,1,0,0:0:0:0:
166,177,177563,2,0,P|176:129|218:98,1,83.9999974365235
260,54,177992,1,0,0:0:0:0:
118,19,178420,6,0,L|130:67,1,41.9999987182618
49,98,178706,2,0,L|84:139,1,41.9999987182618
75,236,179277,2,0,L|34:236,1,41.9999987182618
81,320,179563,2,0,L|122:313,1,41.9999987182618
229,187,180135,6,0,L|229:252,1,41.9999987182618
227,300,180420,1,0,0:0:0:0:
313,358,180563,2,0,L|313:314,1,41.9999987182618
312,243,180849,1,0,0:0:0:0:
396,189,180992,2,0,L|396:243,1,41.9999987182618
396,302,181277,2,0,L|396:352,1,41.9999987182618
503,247,181706,5,0,0:0:0:0:
501,200,181849,2,0,P|490:148|459:110,1,83.9999974365235
443,87,182277,1,0,0:0:0:0:
318,42,182706,2,0,L|276:36,1,41.9999987182618
182,41,182992,2,0,L|135:57,1,41.9999987182618
18,110,183563,6,0,L|62:126,1,41.9999987182618
146,154,183849,1,0,0:0:0:0:
218,222,183992,2,0,L|159:242,1,41.9999987182618
84,267,184277,1,0,0:0:0:0:
0,299,184420,2,0,P|50:351|98:349,1,83.9999974365235
161,350,184849,1,0,0:0:0:0:
319,275,185277,6,0,L|353:241,2,41.9999987182618
260,330,185706,1,0,0:0:0:0:
234,185,186135,6,0,L|240:138,2,41.9999987182618
228,265,186563,1,0,0:0:0:0:
94,202,186992,6,0,L|132:250,1,41.9999987182618
94,202,187277,1,0,0:0:0:0:
157,109,187420,2,0,L|169:173,1,41.9999987182618
157,109,187706,1,0,0:0:0:0:
238,44,187849,2,0,P|284:35|333:46,1,83.9999974365235
331,86,188277,2,0,P|367:113|430:121,1,83.9999974365235
444,99,188706,1,4,0:0:0:0:
256,192,192992,12,0,195563,0:0:0:0:
374,113,195992,5,8,0:0:0:0:
406,241,196206,1,0,0:0:0:0:
406,241,196313,1,0,0:0:0:0:
406,241,196420,2,0,L|354:262,1,41.9999987182618
324,347,196849,1,8,0:0:0:0:
176,290,197277,6,0,P|185:238|216:205,1,70
117,158,197706,1,8,0:0:0:0:
136,32,197920,1,0,0:0:0:0:
136,32,198027,1,0,0:0:0:0:
136,32,198135,2,0,L|178:42,1,41.9999987182618
271,9,198563,1,8,0:0:0:0:
392,104,198992,6,0,L|368:72,1,20.9999993591309
336,144,199206,2,0,L|312:112,1,20.9999993591309
280,184,199420,2,0,L|256:152,1,20.9999993591309
224,224,199635,1,0,0:0:0:0:
120,248,199849,6,0,L|104:280,1,20.9999993591309
184,280,200063,2,0,L|168:312,1,20.9999993591309
248,312,200277,2,0,L|232:344,1,20.9999993591309
312,344,200492,1,0,0:0:0:0:
441,290,200706,6,0,P|456:256|453:212,1,70
428,143,201135,1,0,0:0:0:0:
371,212,201349,1,0,0:0:0:0:
371,212,201456,1,0,0:0:0:0:
371,212,201563,2,0,L|341:176,1,41.9999987182618
289,111,201992,1,0,0:0:0:0:
163,28,202420,6,0,P|141:62|136:93,1,70
151,180,202849,1,0,0:0:0:0:
66,153,203063,1,0,0:0:0:0:
66,153,203170,1,0,0:0:0:0:
66,153,203277,2,0,L|68:197,1,41.9999987182618
68,278,203706,1,0,0:0:0:0:
221,366,204135,6,0,P|273:356|303:330,1,70
341,279,204563,1,0,0:0:0:0:
254,267,204777,1,0,0:0:0:0:
254,267,204885,1,0,0:0:0:0:
254,267,204992,2,0,L|251:217,1,41.9999987182618
249,142,205420,1,0,0:0:0:0:
384,32,205849,6,0,L|352:96,1,62.9999980773926
448,136,206277,2,0,L|400:176,1,62.9999980773926
464,256,206706,2,0,L|384:264,1,62.9999980773926
408,360,207135,2,0,L|336:344,1,62.9999980773926
190,349,207563,5,0,0:0:0:0:
90,297,207777,1,0,0:0:0:0:
61,191,207992,1,0,0:0:0:0:
95,86,208206,1,0,0:0:0:0:
192,32,208420,1,0,0:0:0:0:
302,40,208635,1,0,0:0:0:0:
389,111,208849,1,0,0:0:0:0:
440,280,209063,5,0,0:0:0:0:
416,296,209170,1,0,0:0:0:0:
392,312,209277,2,0,P|360:328|320:328,1,62.9999980773926
336,232,209706,2,0,P|304:224|256:240,1,62.9999980773926
248,320,210135,2,0,P|208:304|192:280,1,62.9999980773926
96,288,210563,2,0,P|104:248|144:224,1,62.9999980773926
224,176,210992,6,0,P|168:168|144:152,1,62.9999980773926
112,80,211420,2,0,P|144:72|184:80,1,62.9999980773926
264,96,211849,2,0,P|312:112|344:104,1,62.9999980773926
336,16,212277,2,0,P|376:16|408:32,1,62.9999980773926
432,124,212706,5,0,0:0:0:0:
461,159,212920,1,0,0:0:0:0:
405,162,213135,1,0,0:0:0:0:
476,191,213349,1,0,0:0:0:0:
398,195,213563,1,0,0:0:0:0:
484,223,213777,1,0,0:0:0:0:
390,229,213992,1,0,0:0:0:0:
441,297,214206,1,0,0:0:0:0:
192,246,214420,6,0,L|136:288,1,70
272,184,214849,1,0,0:0:0:0:
272,184,215063,1,0,0:0:0:0:
136,136,215277,2,0,L|216:104,1,70
296,72,215706,1,0,0:0:0:0:
296,72,215920,1,0,0:0:0:0:
448,160,216135,6,0,P|408:144|360:144,1,70
288,176,216563,2,0,P|328:208|376:216,1,70
432,264,216992,2,0,P|400:288|344:304,1,70
312,368,217420,2,0,P|280:352|256:328,1,70
208,224,217849,6,0,P|200:272|176:304,1,70
104,344,218277,2,0,P|96:304|104:256,1,70
16,224,218706,2,0,P|40:184|80:160,1,70
32,80,219135,2,0,P|80:64|120:72,1,70
220,45,219563,5,0,0:0:0:0:
219,82,219777,1,0,0:0:0:0:
259,59,219992,1,0,0:0:0:0:
222,117,220206,1,0,0:0:0:0:
290,74,220420,1,0,0:0:0:0:
231,147,220635,1,0,0:0:0:0:
315,95,220849,1,0,0:0:0:0:
308,175,221063,1,0,0:0:0:0:
104,216,221277,6,0,L|184:200,1,70
272,184,221706,1,0,0:0:0:0:
272,184,221920,1,0,0:0:0:0:
232,280,222135,2,0,L|304:288,1,70
400,304,222563,1,0,0:0:0:0:
400,304,222777,1,0,0:0:0:0:
472,152,222992,6,0,P|432:128|376:128,1,83.9999974365235
280,160,223420,1,0,0:0:0:0:
280,160,223635,1,0,0:0:0:0:
368,232,223849,2,0,P|320:256|264:264,1,83.9999974365235
184,240,224277,1,0,0:0:0:0:
184,240,224492,1,0,0:0:0:0:
200,352,224706,6,0,P|128:336|96:312,1,83.9999974365235
56,248,225135,1,0,0:0:0:0:
56,248,225349,1,0,0:0:0:0:
96,144,225563,2,0,P|144:152|192:184,1,83.9999974365235
232,256,225992,1,0,0:0:0:0:
232,256,226206,1,0,0:0:0:0:
299,245,226420,5,0,0:0:0:0:
299,207,226635,1,0,0:0:0:0:
333,239,226849,1,0,0:0:0:0:
302,176,227063,1,0,0:0:0:0:
361,229,227277,1,0,0:0:0:0:
311,143,227492,1,0,0:0:0:0:
393,214,227706,1,0,0:0:0:0:
400,129,227920,1,0,0:0:0:0:
136,110,228135,6,0,P|102:86|88:48,1,83.9999974365235
240,120,228563,1,0,0:0:0:0:
240,120,228777,1,0,0:0:0:0:
200,216,228992,2,0,P|248:224|312:200,1,83.9999974365235
376,160,229420,1,0,0:0:0:0:
376,160,229635,1,0,0:0:0:0:
472,40,229849,6,0,L|456:128,1,83.9999974365235
440,224,230277,1,0,0:0:0:0:
328,192,230492,1,0,0:0:0:0:
456,122,230706,2,0,L|440:218,1,83.9999974365235
424,320,231135,1,0,0:0:0:0:
272,264,231349,1,0,0:0:0:0:
144,328,231563,6,0,L|112:232,1,83.9999974365235
83,143,231992,1,0,0:0:0:0:
192,112,232206,1,0,0:0:0:0:
117,248,232420,2,0,L|83:142,1,83.9999974365235
40,64,232849,1,0,0:0:0:0:
184,16,233063,1,0,0:0:0:0:
284,17,233277,5,0,0:0:0:0:
310,44,233492,1,0,0:0:0:0:
271,56,233706,1,0,0:0:0:0:
334,64,233920,1,0,0:0:0:0:
267,89,234135,1,0,0:0:0:0:
359,94,234349,1,0,0:0:0:0:
271,125,234563,1,0,0:0:0:0:
342,177,234777,1,0,0:0:0:0:
176,344,234992,6,0,P|144:296|144:256,1,83.9999974365235
141,271,235420,1,0,0:0:0:0:
141,271,235635,1,0,0:0:0:0:
48,240,235849,2,0,P|56:184|88:152,1,83.9999974365235
72,163,236277,1,0,0:0:0:0:
72,163,236492,1,0,0:0:0:0:
32,40,236706,6,0,L|136:64,1,83.9999974365235
208,80,237135,1,0,0:0:0:0:
336,112,237349,1,0,0:0:0:0:
216,176,237563,2,0,L|312:208,1,83.9999974365235
392,232,237992,1,0,0:0:0:0:
512,264,238206,1,0,0:0:0:0:
416,344,238420,6,0,L|328:312,1,83.9999974365235
224,336,238849,1,0,0:0:0:0:
104,336,239063,1,0,0:0:0:0:
168,240,239277,2,0,L|112:176,1,83.9999974365235
0,200,239706,2,0,L|40:104,1,83.9999974365235
103,82,240135,5,0,0:0:0:0:
118,48,240349,1,0,0:0:0:0:
137,94,240563,1,0,0:0:0:0:
148,25,240777,1,0,0:0:0:0:
171,95,240992,1,0,0:0:0:0:
177,8,241206,1,0,0:0:0:0:
206,98,241420,1,0,0:0:0:0:
257,31,241635,1,0,0:0:0:0:
176,128,241849,6,0,P|160:168|160:216,1,83.9999974365235
224,296,242277,1,0,0:0:0:0:
224,296,242492,1,0,0:0:0:0:
272,208,242706,2,0,P|320:216|360:240,1,83.9999974365235
416,312,243135,1,0,0:0:0:0:
416,312,243349,1,0,0:0:0:0:
496,184,243563,6,0,L|408:160,1,83.9999974365235
480,72,243992,1,0,0:0:0:0:
480,72,244206,1,0,0:0:0:0:
376,16,244420,2,0,L|288:32,1,83.9999974365235
360,120,244849,1,0,0:0:0:0:
360,120,245063,1,0,0:0:0:0:
288,208,245277,6,0,L|208:152,1,83.9999974365235
192,264,245706,1,0,0:0:0:0:
192,264,245920,1,0,0:0:0:0:
296,320,246135,2,0,L|376:280,1,83.9999974365235
397,190,246563,1,0,0:0:0:0:
397,190,246777,1,0,0:0:0:0:
286,149,246992,5,0,0:0:0:0:
261,124,247206,1,0,0:0:0:0:
309,123,247420,1,0,0:0:0:0:
245,100,247635,1,0,0:0:0:0:
325,97,247849,1,0,0:0:0:0:
236,68,248063,1,0,0:0:0:0:
336,67,248277,1,0,0:0:0:0:
284,0,248492,1,0,0:0:0:0:
96,32,248706,6,0,L|152:112,1,83.9999974365235
48,120,249135,2,0,L|128:176,1,83.9999974365235
40,216,249563,2,0,L|136:248,1,83.9999974365235
64,304,249992,2,0,L|168:320,1,83.9999974365235
192,320,250313,5,0,0:0:0:0:
240,320,250420,2,0,P|304:320|352:288,1,83.9999974365235
320,264,250849,2,0,P|344:224|384:208,1,83.9999974365235
448,272,251277,2,0,L|480:304,2,41.9999987182618
368,208,251599,1,0,0:0:0:0:
432,88,252135,5,0,0:0:0:0:
288,48,252563,1,0,0:0:0:0:
144,64,252992,2,0,L|136:112,1,41.9999987182618
64,112,253206,2,0,P|72:168|96:192,1,83.9999974365235
136,208,253635,1,0,0:0:0:0:
80,312,253849,6,0,P|168:312|240:272,1,167.999994873047
176,216,254492,1,0,0:0:0:0:
248,176,254706,2,0,L|304:184,1,41.9999987182618
320,152,254920,2,0,L|368:176,1,41.9999987182618
464,256,255563,5,0,0:0:0:0:
328,336,255992,1,0,0:0:0:0:
168,320,256420,2,0,L|144:272,1,41.9999987182618
72,280,256635,2,0,P|64:224|88:184,1,83.9999974365235
112,160,257063,1,0,0:0:0:0:
32,56,257277,6,0,P|120:32|224:56,1,167.999994873047
272,24,257920,1,0,0:0:0:0:
304,96,258135,2,0,L|312:144,1,41.9999987182618
360,144,258349,2,0,L|352:192,1,41.9999987182618
448,288,258992,5,0,0:0:0:0:
288,240,259420,1,0,0:0:0:0:
144,272,259849,2,0,L|128:312,1,41.9999987182618
64,296,260063,2,0,P|40:336|0:360,1,83.9999974365235
0,352,260492,1,0,0:0:0:0:
8,216,260706,6,0,P|24:176|144:112,1,167.999994873047
192,184,261349,1,0,0:0:0:0:
264,120,261563,2,0,L|304:88,3,41.9999987182618
480,120,262420,6,0,L|408:168,1,83.9999974365235
480,224,262849,2,0,L|384:240,1,83.9999974365235
448,312,263277,2,0,L|344:304,1,83.9999974365235
384,384,263706,2,0,L|296:360,1,83.9999974365235
256,344,264027,1,0,0:0:0:0:
216,320,264135,1,0,0:0:0:0:
256,192,264242,12,0,267563,0:0:0:0:
