osu file format v14

[General]
AudioFilename: Waterflame - King Poseidon (HD).mp3
AudioLeadIn: 0
PreviewTime: 3565
Countdown: 0
SampleSet: Normal
StackLeniency: 0.9
Mode: 0
LetterboxInBreaks: 1
WidescreenStoryboard: 1

[Editor]
Bookmarks: 3565,44706,78990,90990,161273,174986,195557
DistanceSpacing: 2
BeatDivisor: 3
GridSize: 16
TimelineZoom: 2.1

[Metadata]
Title:King Poseidon
TitleUnicode:King Poseidon
Artist:Waterflame
ArtistUnicode:Waterflame
Creator:TheLeviathan
Version:Collab Extra
Source:
Tags:Arphimigon Electro Progressive House
BeatmapID:961125
BeatmapSetID:432180

[Difficulty]
HPDrainRate:5.8
CircleSize:4
OverallDifficulty:9.1
ApproachRate:9.5
SliderMultiplier:1.4
SliderTickRate:1

[Events]
//Background and Video events
0,0,"maxresdefault.jpg",0,0
//Break Periods
2,86049,92181
2,120335,133324
2,188906,192467
//Storyboard Layer 0 (Background)
//Storyboard Layer 1 (Fail)
//Storyboard Layer 2 (Pass)
//Storyboard Layer 3 (Foreground)
//Storyboard Sound Samples

[TimingPoints]
2708,428.571428571429,4,1,0,30,1,0
3350,-100,4,1,0,15,0,0
3457,-100,4,1,0,30,0,0
3565,-100,4,2,0,30,0,0
4207,-100,4,2,0,15,0,0
4315,-100,4,2,0,30,0,0
5065,-100,4,2,0,15,0,0
5172,-100,4,2,0,30,0,0
5922,-100,4,2,0,15,0,0
6029,-100,4,2,0,30,0,0
6779,-200,4,2,0,20,0,0
6993,-100,4,2,0,30,0,0
7636,-200,4,2,0,30,0,0
7743,-200,4,2,0,10,0,0
7850,-100,4,2,0,30,0,0
8493,-200,4,2,0,30,0,0
8600,-200,4,2,0,10,0,0
8707,-100,4,2,0,30,0,0
9350,-100,4,2,0,15,0,0
9457,-100,4,2,0,30,0,0
10207,-100,4,2,0,15,0,0
10314,-100,4,2,0,30,0,0
11064,-100,4,2,0,15,0,0
11171,-100,4,2,0,30,0,0
11921,-100,4,2,0,15,0,0
12029,-100,4,2,0,30,0,0
12779,-100,4,2,0,15,0,0
12886,-100,4,2,0,30,0,0
17278,-166.666666666667,4,2,0,15,0,0
17493,-100,4,2,0,30,0,0
18135,428.571428571429,4,1,0,30,1,0
44706,-55.5555555555556,4,1,0,30,0,0
44920,-55.5555555555556,4,1,0,5,0,0
45135,-55.5555555555556,4,1,0,30,0,0
45349,-55.5555555555556,4,1,0,15,0,0
45563,-55.5555555555556,4,1,0,30,0,0
45777,-55.5555555555556,4,1,0,15,0,0
45992,-55.5555555555556,4,1,0,30,0,0
51563,-50,4,1,0,30,0,0
52420,-55.5555555555556,4,1,0,30,0,0
71277,-55.5555555555556,4,1,0,40,0,0
72135,-55.5555555555556,4,1,0,30,0,0
92706,-100,4,1,0,30,0,1
100706,-200,4,1,0,30,0,1
100849,-100,4,1,0,30,0,1
106420,-66.6666666666667,4,1,0,30,0,1
120135,-66.6666666666667,4,1,0,30,0,0
133849,-50,4,1,0,30,0,0
144135,-66.6666666666667,4,1,0,30,0,0
174992,-66.6666666666667,4,1,0,30,0,1
181420,-76.9230769230769,4,1,0,30,0,1
181849,-66.6666666666667,4,1,0,30,0,1
188706,-66.6666666666667,4,1,0,30,0,0
195135,-66.6666666666667,4,1,0,10,0,0
195349,-66.6666666666667,4,1,0,30,0,0
195557,-100,4,1,0,30,0,0
200706,-58.8235294117647,4,1,0,30,0,0
266920,-100,4,1,0,5,0,0
267135,-100,4,1,0,30,0,0

[Colours]
Combo1 : 0,128,128
Combo2 : 55,0,0
Combo3 : 105,105,52
Combo4 : 113,56,0

[HitObjects]
176,80,3350,5,0,0:0:0:0:
256,128,3458,1,0,0:0:0:0:
336,176,3565,1,0,0:0:0:0:
432,48,3779,1,0,0:0:0:0:
336,176,3993,1,8,0:0:0:0:
256,304,4208,5,0,0:0:0:0:
176,256,4315,1,0,0:0:0:0:
96,208,4422,1,0,0:0:0:0:
0,336,4636,1,0,0:0:0:0:
96,208,4850,1,8,0:0:0:0:
59,37,5065,5,0,0:0:0:0:
144,64,5172,1,0,0:0:0:0:
220,24,5279,2,0,P|268:24|300:40,1,70
160,144,5708,1,8,0:0:0:0:
328,163,5922,5,0,0:0:0:0:
355,250,6029,1,0,0:0:0:0:
294,314,6136,2,0,P|249:323|222:341,1,70
259,167,6564,1,8,0:0:0:0:
443,81,6779,6,0,L|443:105,1,17.5
425,210,6993,5,0,0:0:0:0:
365,274,7100,1,0,0:0:0:0:
282,299,7207,1,0,0:0:0:0:
196,284,7314,1,0,0:0:0:0:
131,225,7422,1,8,0:0:0:0:
113,136,7529,1,0,0:0:0:0:
138,50,7636,2,0,L|158:38,1,17.5
36,81,7850,5,0,0:0:0:0:
36,175,7957,1,0,0:0:0:0:
65,263,8064,1,0,0:0:0:0:
128,327,8171,1,0,0:0:0:0:
213,360,8278,1,8,0:0:0:0:
305,363,8385,1,0,0:0:0:0:
399,337,8493,2,0,L|398:317,1,17.5
301,221,8707,6,0,P|324:189|352:173,1,70
493,196,9136,1,8,0:0:0:0:
439,74,9350,1,0,0:0:0:0:
355,80,9457,1,0,0:0:0:0:
284,123,9564,2,0,P|255:147|222:156,1,70
285,8,9993,1,8,0:0:0:0:
379,170,10207,5,0,0:0:0:0:
315,238,10314,1,0,0:0:0:0:
228,253,10421,2,0,B|186:238|186:238|159:241,1,70
55,341,10850,1,8,0:0:0:0:
275,328,11064,5,0,0:0:0:0:
228,253,11171,1,0,0:0:0:0:
151,211,11279,2,0,B|115:208|115:208|83:188,1,70
69,34,11707,1,0,0:0:0:0:
236,138,11921,5,0,0:0:0:0:
321,163,12029,1,0,0:0:0:0:
400,128,12136,1,0,0:0:0:0:
318,17,12350,1,0,0:0:0:0:
400,128,12564,1,8,0:0:0:0:
327,277,12779,5,0,0:0:0:0:
244,248,12886,1,0,0:0:0:0:
165,263,12993,1,0,0:0:0:0:
248,381,13207,1,0,0:0:0:0:
165,263,13421,1,8,0:0:0:0:
65,160,13636,5,0,0:0:0:0:
138,118,13743,1,0,0:0:0:0:
178,45,13850,6,0,B|221:23|221:23|259:22,1,70
404,78,14278,2,0,B|363:85|363:85|322:78,1,70
140,122,14707,2,0,B|180:150|180:150|194:176,1,70
452,176,15136,2,0,B|418:193|418:193|399:219,1,70
245,324,15564,5,0,0:0:0:0:
52,125,15778,1,0,0:0:0:0:
342,64,15993,1,0,0:0:0:0:
82,246,16207,1,0,0:0:0:0:
431,232,16421,1,0,0:0:0:0:
91,41,16636,1,0,0:0:0:0:
411,340,16850,1,0,0:0:0:0:
33,198,17064,5,0,0:0:0:0:
79,147,17171,1,0,0:0:0:0:
141,124,17278,1,0,0:0:0:0:
305,109,17493,1,0,0:0:0:0:
191,181,17707,1,0,0:0:0:0:
208,27,17921,1,0,0:0:0:0:
393,63,18135,5,0,0:0:0:0:
293,185,18350,1,0,0:0:0:0:
456,160,18564,1,0,0:0:0:0:
257,137,18778,1,0,0:0:0:0:
304,324,18993,5,0,0:0:0:0:
128,224,19207,1,0,0:0:0:0:
360,210,19421,1,0,0:0:0:0:
134,350,19635,1,0,0:0:0:0:
114,116,19850,5,0,0:0:0:0:
331,234,20064,1,0,0:0:0:0:
85,276,20278,1,0,0:0:0:0:
392,265,20493,1,0,0:0:0:0:
379,94,20707,5,0,0:0:0:0:
151,193,20921,1,0,0:0:0:0:
427,105,21135,5,0,0:0:0:0:
104,178,21350,1,0,0:0:0:0:
468,124,21564,5,0,0:0:0:0:
60,162,21778,1,0,0:0:0:0:
505,153,21992,5,0,0:0:0:0:
33,123,22207,1,0,0:0:0:0:
371,228,22420,5,0,0:0:0:0:
224,155,22635,1,0,0:0:0:0:
197,277,22849,1,0,0:0:0:0:
415,146,23063,1,0,0:0:0:0:
272,240,23277,5,0,0:0:0:0:
54,109,23491,1,0,0:0:0:0:
81,231,23705,1,0,0:0:0:0:
224,155,23920,1,0,0:0:0:0:
408,64,24135,5,0,0:0:0:0:
272,240,24349,1,0,0:0:0:0:
456,56,24563,1,0,0:0:0:0:
224,248,24777,1,0,0:0:0:0:
464,176,24992,5,0,0:0:0:0:
208,136,25206,1,0,0:0:0:0:
488,208,25420,1,0,0:0:0:0:
184,104,25635,1,0,0:0:0:0:
368,272,25849,5,0,0:0:0:0:
328,56,26063,1,0,0:0:0:0:
336,296,26277,1,0,0:0:0:0:
360,32,26492,1,0,0:0:0:0:
200,240,26706,5,0,0:0:0:0:
424,136,26920,1,0,0:0:0:0:
168,216,27135,1,0,0:0:0:0:
456,160,27349,1,0,0:0:0:0:
128,88,27563,5,0,0:0:0:0:
368,240,27777,1,0,0:0:0:0:
90,131,27992,5,0,0:0:0:0:
409,214,28206,1,0,0:0:0:0:
54,176,28420,5,0,0:0:0:0:
443,182,28635,1,0,0:0:0:0:
27,219,28849,5,0,0:0:0:0:
471,144,29063,1,0,0:0:0:0:
144,96,29277,6,0,P|176:112|208:160,1,70
144,352,29706,1,0,0:0:0:0:
144,96,29920,1,0,0:0:0:0:
304,288,30135,6,0,P|352:272|368:256,1,70
352,48,30563,1,0,0:0:0:0:
304,192,30777,1,0,0:0:0:0:
304,240,30885,1,0,0:0:0:0:
304,288,30992,6,0,P|288:336|272:352,1,70
80,320,31420,1,0,0:0:0:0:
304,192,31635,1,0,0:0:0:0:
96,80,31849,5,0,0:0:0:0:
272,32,32063,1,0,0:0:0:0:
392,51,32277,1,0,0:0:0:0:
190,151,32492,1,0,0:0:0:0:
443,329,32706,5,0,0:0:0:0:
369,167,32920,1,0,0:0:0:0:
257,131,33135,1,0,0:0:0:0:
345,317,33349,1,0,0:0:0:0:
121,194,33563,5,0,0:0:0:0:
268,339,33777,1,0,0:0:0:0:
44,174,33992,1,0,0:0:0:0:
348,351,34206,1,0,0:0:0:0:
421,96,34420,5,0,0:0:0:0:
272,328,34635,1,0,0:0:0:0:
392,69,34849,5,0,0:0:0:0:
315,342,35063,1,0,0:0:0:0:
462,97,35277,5,0,0:0:0:0:
234,345,35492,1,0,0:0:0:0:
435,59,35706,5,0,0:0:0:0:
272,371,35920,1,0,0:0:0:0:
142,339,36135,6,0,L|191:274,1,70
391,192,36563,2,0,L|338:262,1,70
143,150,36992,6,0,L|201:83,1,70
404,60,37420,2,0,L|352:119,1,70
425,335,37849,6,0,L|352:323,1,70
102,283,38277,1,0,0:0:0:0:
102,283,38492,1,0,0:0:0:0:
213,56,38706,6,0,L|231:135,1,70
283,356,39135,1,0,0:0:0:0:
283,356,39349,1,0,0:0:0:0:
383,95,39563,6,0,L|332:155,1,70
172,343,39992,1,0,0:0:0:0:
172,343,40206,1,0,0:0:0:0:
444,273,40420,6,0,L|374:261,1,70
102,209,40849,1,0,0:0:0:0:
102,209,41063,1,0,0:0:0:0:
346,69,41277,5,0,0:0:0:0:
177,70,41492,1,0,0:0:0:0:
402,133,41706,5,0,0:0:0:0:
127,133,41920,1,0,0:0:0:0:
458,194,42135,5,0,0:0:0:0:
75,196,42349,1,0,0:0:0:0:
509,257,42563,5,0,0:0:0:0:
23,257,42777,1,0,0:0:0:0:
380,210,42992,5,0,0:0:0:0:
155,208,43206,1,0,0:0:0:0:
320,156,43420,1,0,0:0:0:0:
207,151,43635,1,0,0:0:0:0:
272,95,43849,5,0,0:0:0:0:
258,95,44063,1,0,0:0:0:0:
265,60,44277,1,0,0:0:0:0:
264,32,44492,1,0,0:0:0:0:
264,238,44706,6,0,L|264:370,1,125.999996154785
70,216,45135,2,0,L|194:158,1,125.999996154785
369,249,45563,2,0,P|341:171|298:144,1,125.999996154785
70,216,45992,1,0,0:0:0:0:
261,364,46206,1,0,0:0:0:0:
453,134,46420,5,0,0:0:0:0:
291,77,46635,1,0,0:0:0:0:
495,63,46849,1,0,0:0:0:0:
204,143,47063,1,0,0:0:0:0:
36,20,47277,1,0,0:0:0:0:
248,211,47492,1,0,0:0:0:0:
1,184,47706,1,0,0:0:0:0:
291,77,47920,1,0,0:0:0:0:
489,190,48135,6,0,B|437:240|452:188|324:231|362:163|246:211,1,251.999992309571
30,345,48777,1,0,0:0:0:0:
148,149,48992,2,0,B|264:101|226:169|354:126|339:178|402:118,1,251.999992309571
205,8,49635,1,0,0:0:0:0:
61,201,49849,6,0,B|123:231|123:231|189:228,1,125.999996154785
260,281,50170,1,0,0:0:0:0:
352,285,50277,2,0,B|395:229|395:229|398:167,1,125.999996154785
210,74,50706,5,0,0:0:0:0:
354,283,50920,1,0,0:0:0:0:
61,200,51135,1,0,0:0:0:0:
354,283,51349,1,0,0:0:0:0:
500,131,51563,6,0,P|376:82|261:195,1,280
402,221,52206,1,0,0:0:0:0:
296,338,52420,2,0,P|224:328|169:299,1,125.999996154785
73,343,52849,2,0,P|58:273|82:208,1,125.999996154785
294,131,53277,5,0,0:0:0:0:
72,218,53492,1,0,0:0:0:0:
295,111,53706,1,0,0:0:0:0:
70,235,53920,1,0,0:0:0:0:
293,95,54135,1,0,0:0:0:0:
68,251,54349,1,0,0:0:0:0:
293,77,54563,1,0,0:0:0:0:
67,268,54777,1,0,0:0:0:0:
87,68,54992,6,0,P|162:100|205:174,1,125.999996154785
157,291,55420,1,0,0:0:0:0:
157,291,55635,1,0,0:0:0:0:
334,271,55849,2,0,P|380:222|400:156,1,125.999996154785
270,50,56277,1,0,0:0:0:0:
270,50,56492,1,0,0:0:0:0:
96,176,56706,6,0,L|219:205,1,125.999996154785
282,278,57135,2,0,L|157:291,1,125.999996154785
340,354,57563,5,0,0:0:0:0:
407,299,57670,1,0,0:0:0:0:
444,218,57777,1,0,0:0:0:0:
449,129,57885,1,0,0:0:0:0:
436,41,57992,1,0,0:0:0:0:
366,91,58099,1,0,0:0:0:0:
283,108,58206,1,0,0:0:0:0:
200,103,58313,1,0,0:0:0:0:
126,56,58420,6,0,P|78:98|71:173,1,125.999996154785
119,267,58849,2,0,P|167:225|174:150,1,125.999996154785
68,156,59277,5,0,0:0:0:0:
29,228,59385,1,0,0:0:0:0:
45,306,59492,1,0,0:0:0:0:
109,349,59599,1,0,0:0:0:0:
187,361,59706,1,0,0:0:0:0:
299,227,59920,6,0,P|366:218|434:249,1,125.999996154785
477,331,60349,2,0,P|410:340|342:309,1,125.999996154785
417,236,60777,1,0,0:0:0:0:
471,116,60992,5,0,0:0:0:0:
400,74,61099,1,0,0:0:0:0:
321,61,61206,1,0,0:0:0:0:
242,75,61313,1,0,0:0:0:0:
177,126,61420,2,0,B|126:168|117:138|68:198,1,125.999996154785
299,322,61849,6,0,P|372:302|401:254,1,125.999996154785
292,213,62277,2,0,P|219:233|190:281,1,125.999996154785
394,261,62706,5,0,0:0:0:0:
371,183,62813,1,0,0:0:0:0:
311,127,62920,1,0,0:0:0:0:
232,116,63027,1,0,0:0:0:0:
160,153,63135,1,0,0:0:0:0:
64,47,63349,5,0,0:0:0:0:
113,30,63456,1,0,0:0:0:0:
162,24,63563,2,0,P|226:18|288:32,1,125.999996154785
409,38,63992,2,0,P|347:24|285:30,1,125.999996154785
160,153,64420,5,0,0:0:0:0:
229,197,64527,1,0,0:0:0:0:
311,209,64635,1,0,0:0:0:0:
394,191,64742,1,0,0:0:0:0:
456,143,64849,2,0,P|491:202|486:268,1,125.999996154785
187,313,65277,6,0,L|312:341,1,125.999996154785
487,255,65706,2,0,L|383:327,1,125.999996154785
182,312,66135,5,0,0:0:0:0:
131,252,66242,1,0,0:0:0:0:
113,174,66349,1,0,0:0:0:0:
131,97,66456,1,0,0:0:0:0:
185,40,66563,1,0,0:0:0:0:
251,128,66777,5,0,0:0:0:0:
350,161,66992,2,0,P|312:210|254:231,1,125.999996154785
251,128,67421,2,0,P|289:79|347:58,1,125.999996154785
254,232,67849,5,0,0:0:0:0:
189,283,67956,1,0,0:0:0:0:
111,306,68063,1,0,0:0:0:0:
28,303,68170,1,0,0:0:0:0:
70,233,68277,2,0,B|116:184|83:164|150:124,1,125.999996154785
34,22,68706,6,0,P|118:34|171:31,1,125.999996154785
314,35,69135,2,0,P|254:77|185:103,1,125.999996154785
46,146,69563,5,0,0:0:0:0:
113,191,69670,1,0,0:0:0:0:
193,214,69777,1,0,0:0:0:0:
274,216,69885,1,0,0:0:0:0:
352,184,69992,2,0,B|436:185|396:148|490:157,1,125.999996154785
446,298,70420,6,0,P|361:333|291:333,1,125.999996154785
193,214,70849,2,0,P|261:239|328:240,1,125.999996154785
165,333,71277,5,0,0:0:0:0:
103,282,71385,1,0,0:0:0:0:
75,207,71492,1,0,0:0:0:0:
88,127,71599,1,0,0:0:0:0:
141,68,71706,1,0,0:0:0:0:
212,37,71813,1,0,0:0:0:0:
292,31,71920,1,0,0:0:0:0:
368,55,72027,1,0,0:0:0:0:
311,110,72135,6,0,B|261:148|315:135|228:208,1,125.999996154785
242,338,72563,2,0,B|292:300|238:313|325:240,1,125.999996154785
443,125,72992,6,0,P|381:90|309:119,1,125.999996154785
252,169,73420,2,0,P|314:204|386:175,1,125.999996154785
209,41,73849,6,0,P|141:75|69:78,1,125.999996154785
30,198,74277,2,0,P|98:164|170:161,1,125.999996154785
286,272,74706,6,0,L|149:288,1,125.999996154785
14,358,75135,2,0,L|146:363,1,125.999996154785
374,343,75563,5,0,0:0:0:0:
484,120,75777,1,0,0:0:0:0:
304,336,75992,5,0,0:0:0:0:
484,120,76206,1,0,0:0:0:0:
208,336,76420,5,0,0:0:0:0:
480,128,76635,1,0,0:0:0:0:
112,304,76849,5,0,0:0:0:0:
480,128,77063,1,0,0:0:0:0:
496,272,77277,6,0,P|434:266|383:229,1,125.999996154785
191,291,77706,1,0,0:0:0:0:
496,272,77920,1,0,0:0:0:0:
314,58,78135,6,0,P|228:76|186:111,1,125.999996154785
191,291,78563,1,0,0:0:0:0:
313,61,78777,1,0,0:0:0:0:
111,194,78992,6,0,L|241:222,1,125.999996154785
420,267,79420,1,0,0:0:0:0:
112,194,79635,1,0,0:0:0:0:
428,141,79849,6,0,L|302:166,1,125.999996154785
112,194,80277,1,0,0:0:0:0:
430,142,80492,1,0,0:0:0:0:
104,19,80706,6,0,L|229:64,1,125.999996154785
424,138,81135,1,0,0:0:0:0:
105,18,81349,1,0,0:0:0:0:
408,19,81563,6,0,L|283:64,1,125.999996154785
109,121,81992,1,0,0:0:0:0:
411,17,82206,1,0,0:0:0:0:
329,204,82420,5,0,0:0:0:0:
125,314,82635,1,0,0:0:0:0:
329,204,82849,5,0,0:0:0:0:
51,291,83063,1,0,0:0:0:0:
329,204,83277,5,0,0:0:0:0:
16,218,83492,1,0,0:0:0:0:
329,204,83706,5,0,0:0:0:0:
4,133,83920,1,0,0:0:0:0:
428,204,84135,6,0,P|387:137|344:108,1,125.999996154785
128,211,84563,1,0,0:0:0:0:
430,205,84777,1,0,0:0:0:0:
257,34,84992,6,0,P|163:59|133:88,1,125.999996154785
323,219,85420,1,0,0:0:0:0:
260,33,85635,1,0,0:0:0:0:
260,33,85742,1,0,0:0:0:0:
260,33,85849,1,0,0:0:0:0:
256,192,92706,6,0,L|288:192|306:192,1,46.6666666666667,4|0,0:0|0:0,0:0:0:0:
256,64,92992,1,0,0:0:0:0:
400,96,93135,1,8,0:0:0:0:
352,256,93277,1,0,0:0:0:0:
352,256,93420,1,0,0:0:0:0:
160,256,93563,2,0,L|160:208,2,46.6666666666667,4|0|0,0:0|0:0|0:0,0:0:0:0:
368,112,93992,1,8,0:0:0:0:
192,320,94135,2,0,P|160:336|141:335,1,46.6666666666667
256,64,94420,5,4,0:0:0:0:
176,112,94563,1,0,0:0:0:0:
256,160,94706,1,0,0:0:0:0:
256,256,94849,5,0,0:0:0:0:
352,256,94992,1,0,0:0:0:0:
352,160,95135,1,0,0:0:0:0:
256,43,95277,1,4,0:0:0:0:
176,256,95420,1,0,0:0:0:0:
418,161,95563,1,0,0:0:0:0:
93,161,95706,1,8,0:0:0:0:
256,80,96135,5,4,0:0:0:0:
336,32,96277,1,0,0:0:0:0:
336,128,96420,1,0,0:0:0:0:
256,304,96563,5,8,0:0:0:0:
176,352,96706,1,0,0:0:0:0:
176,256,96849,1,0,0:0:0:0:
256,192,96992,2,0,L|307:162,1,46.6666666666667
352,96,97277,1,0,0:0:0:0:
352,96,97420,1,8,0:0:0:0:
128,160,97563,1,0,0:0:0:0:
256,192,97706,5,0,0:0:0:0:
256,96,97849,1,4,0:0:0:0:
160,224,97992,1,0,0:0:0:0:
352,160,98135,1,0,0:0:0:0:
144,112,98277,1,8,0:0:0:0:
320,320,98420,1,0,0:0:0:0:
304,64,98563,1,0,0:0:0:0:
112,320,98706,6,0,P|96:288|96:272,1,46.6666666666667,4|0,0:0|0:0,0:0:0:0:
256,192,98992,1,0,0:0:0:0:
176,229,99135,2,0,P|172:252|160:272,1,46.6666666666667,0|8,0:0|0:0,0:0:0:0:
256,192,99420,1,0,0:0:0:0:
176,192,99563,5,4,0:0:0:0:
336,192,99706,1,0,0:0:0:0:
256,48,99849,1,0,0:0:0:0:
176,336,99992,5,8,0:0:0:0:
336,336,100135,1,0,0:0:0:0:
256,192,100277,1,0,0:0:0:0:
144,192,100420,5,4,0:0:0:0:
320,80,100563,1,0,0:0:0:0:
384,112,100706,1,0,0:0:0:0:
208,320,100849,1,8,0:0:0:0:
336,64,100992,1,0,0:0:0:0:
112,208,101135,1,0,0:0:0:0:
384,224,101277,5,4,0:0:0:0:
192,80,101420,1,0,0:0:0:0:
112,288,101563,1,0,0:0:0:0:
384,64,101706,1,8,0:0:0:0:
128,112,101849,1,0,0:0:0:0:
384,160,101992,1,0,0:0:0:0:
128,192,102135,1,4,0:0:0:0:
224,320,102420,6,0,L|272:320,1,46.6666666666667,0|8,0:0|0:0,0:0:0:0:
384,192,102706,2,0,P|384:160|385:146,1,46.6666666666667
96,96,102992,2,0,L|96:160,1,46.6666666666667,4|0,0:0|0:0,0:0:0:0:
96,240,103277,1,0,0:0:0:0:
256,32,103420,5,8,0:0:0:0:
256,352,103563,1,0,0:0:0:0:
256,192,103706,1,0,0:0:0:0:
54,226,103849,5,4,0:0:0:0:
48,224,103992,1,0,0:0:0:0:
184,151,104135,1,0,0:0:0:0:
256,192,104277,5,8,0:0:0:0:
256,192,104420,1,0,0:0:0:0:
256,192,104563,1,0,0:0:0:0:
184,151,104706,5,4,0:0:0:0:
316,149,104849,1,0,0:0:0:0:
256,263,104992,1,0,0:0:0:0:
167,138,105135,5,8,0:0:0:0:
333,137,105277,1,0,0:0:0:0:
256,286,105420,1,0,0:0:0:0:
150,127,105563,5,4,0:0:0:0:
348,127,105706,1,0,0:0:0:0:
256,306,105849,1,0,0:0:0:0:
256,192,105992,5,8,0:0:0:0:
256,192,106135,1,0,0:0:0:0:
256,192,106277,1,0,0:0:0:0:
480,192,106420,6,0,L|480:112,1,70.0000026702882,4|0,0:0|0:0,0:0:0:0:
256,192,106706,1,0,0:0:0:0:
32,192,106849,2,0,L|32:112,1,70.0000026702882
256,192,107135,1,0,0:0:0:0:
256,306,107277,1,4,0:0:0:0:
256,306,107420,1,0,0:0:0:0:
256,32,107563,1,0,0:0:0:0:
256,192,107706,5,8,0:0:0:0:
432,112,107849,1,0,0:0:0:0:
80,160,107992,1,0,0:0:0:0:
310,244,108135,5,4,0:0:0:0:
246,288,108277,1,0,0:0:0:0:
172,273,108420,1,0,0:0:0:0:
150,198,108563,5,8,0:0:0:0:
184,127,108706,1,0,0:0:0:0:
254,92,108849,1,0,0:0:0:0:
331,96,108992,1,4,0:0:0:0:
256,304,109135,6,0,L|192:256,1,70.0000026702882
448,192,109420,1,8,0:0:0:0:
256,48,109563,1,0,0:0:0:0:
256,336,109706,1,0,0:0:0:0:
176,96,109849,6,0,P|192:64|228:58,1,70.0000026702882,4|0,0:0|0:0,0:0:0:0:
368,224,110135,2,0,B|400:240|400:240|389:274,1,70.0000026702882,0|8,0:0|0:0,0:0:0:0:
224,336,110420,2,0,B|176:336|176:336|155:316,1,70.0000026702882
160,192,110706,2,0,B|160:144|190:144|221:119,1,70.0000026702882,4|0,0:0|0:0,0:0:0:0:
288,96,110992,1,0,0:0:0:0:
464,192,111135,1,8,0:0:0:0:
256,192,111277,1,0,0:0:0:0:
128,256,111420,1,0,0:0:0:0:
361,252,111563,5,4,0:0:0:0:
150,131,111706,1,0,0:0:0:0:
316,297,111849,1,0,0:0:0:0:
195,86,111992,5,8,0:0:0:0:
256,313,112135,1,0,0:0:0:0:
256,70,112277,1,0,0:0:0:0:
195,297,112420,5,4,0:0:0:0:
316,86,112563,1,0,0:0:0:0:
150,252,112706,1,0,0:0:0:0:
361,131,112849,5,8,0:0:0:0:
134,191,112992,1,0,0:0:0:0:
377,192,113135,1,0,0:0:0:0:
80,64,113277,6,0,B|112:48|112:48|151:63,1,70.0000026702882,4|0,0:0|0:0,0:0:0:0:
160,288,113563,2,0,P|176:320|210:329,1,70.0000026702882,0|8,0:0|0:0,0:0:0:0:
384,160,113849,2,0,P|432:144|438:130,1,70.0000026702882
320,64,114135,1,0,0:0:0:0:
208,176,114277,1,0,0:0:0:0:
304,336,114420,2,0,P|336:320|370:335,1,70.0000026702882,0|8,0:0|0:0,0:0:0:0:
112,240,114706,2,0,P|128:208|176:176,1,70.0000026702882
160,192,114992,5,4,0:0:0:0:
400,48,115135,1,0,0:0:0:0:
400,48,115277,1,0,0:0:0:0:
192,336,115420,1,8,0:0:0:0:
192,336,115563,1,0,0:0:0:0:
256,80,115706,1,0,0:0:0:0:
256,80,115849,1,4,0:0:0:0:
256,240,115992,1,0,0:0:0:0:
256,240,116135,2,0,P|304:240|320:224,1,70.0000026702882,0|8,0:0|0:0,0:0:0:0:
128,256,116706,5,4,0:0:0:0:
256,336,116849,1,0,0:0:0:0:
400,304,116992,1,0,0:0:0:0:
400,192,117135,6,0,P|384:144|352:144,1,70.0000026702882,8|0,0:0|0:0,0:0:0:0:
128,192,117420,2,0,B|96:160|96:160|101:128,1,70.0000026702882,0|4,0:0|0:0,0:0:0:0:
208,336,117706,2,0,P|224:304|255:289,1,70.0000026702882
256,32,117992,5,8,0:0:0:0:
256,112,118135,1,0,0:0:0:0:
256,192,118277,1,0,0:0:0:0:
256,272,118420,1,4,0:0:0:0:
256,352,118563,5,0,0:0:0:0:
256,352,118706,1,0,0:0:0:0:
416,192,118849,2,0,L|416:272,1,70.0000026702882,8|0,0:0|0:0,0:0:0:0:
128,272,119135,2,0,L|128:192,1,70.0000026702882,0|4,0:0|0:0,0:0:0:0:
256,272,119420,5,0,0:0:0:0:
256,192,119563,1,0,0:0:0:0:
256,192,119706,1,8,0:0:0:0:
416,160,119849,5,0,0:0:0:0:
96,224,119992,1,0,0:0:0:0:
256,32,120135,1,4,0:0:0:0:
240,176,133849,5,4,0:0:0:0:
256,64,133992,1,0,0:0:0:0:
368,128,134135,1,0,0:0:0:0:
256,336,134277,2,0,P|208:320|192:272,1,93.3333333333333,8|0,0:0|0:0,0:0:0:0:
272,256,134563,1,0,0:0:0:0:
112,64,134706,5,4,0:0:0:0:
112,64,134849,1,0,0:0:0:0:
254,97,134992,1,0,0:0:0:0:
256,192,135135,2,0,P|256:240|224:272,1,93.3333333333333,8|0,0:0|0:0,0:0:0:0:
448,192,135420,5,0,0:0:0:0:
432,320,135563,2,0,P|368:352|355:327,1,93.3333333333333,4|0,0:0|0:0,0:0:0:0:
352,256,135849,1,0,0:0:0:0:
209,160,135992,5,8,0:0:0:0:
256,320,136135,1,0,0:0:0:0:
256,96,136277,1,0,0:0:0:0:
144,192,136420,2,0,L|144:288,1,93.3333333333333,4|0,0:0|0:0,0:0:0:0:
320,288,136706,2,0,B|368:288|368:288|394:218,1,93.3333333333333,0|8,0:0|0:0,0:0:0:0:
288,80,136992,2,0,P|240:64|224:96,1,93.3333333333333
256,192,137277,5,4,0:0:0:0:
192,128,137420,1,0,0:0:0:0:
400,192,137563,1,0,0:0:0:0:
128,288,137706,1,8,0:0:0:0:
368,272,137849,1,0,0:0:0:0:
112,80,137992,1,0,0:0:0:0:
400,32,138135,1,4,0:0:0:0:
346,127,138277,1,0,0:0:0:0:
256,192,138420,1,0,0:0:0:0:
256,192,138563,5,8,0:0:0:0:
448,80,138706,1,0,0:0:0:0:
64,80,138849,1,0,0:0:0:0:
259,297,138992,2,0,P|147:185|211:89,1,280,4|8,0:0|0:0,0:0:0:0:
256,192,139563,1,0,0:0:0:0:
256,192,139706,1,0,0:0:0:0:
96,256,139849,6,0,L|96:160,1,93.3333333333333,4|0,0:0|0:0,0:0:0:0:
107,49,140135,1,0,0:0:0:0:
336,112,140277,5,8,0:0:0:0:
176,112,140420,1,0,0:0:0:0:
336,272,140563,1,0,0:0:0:0:
176,272,140706,6,0,P|116:240|116:208,1,93.3333333333333,4|0,0:0|0:0,0:0:0:0:
112,144,140992,1,0,0:0:0:0:
304,32,141135,2,0,L|400:32,1,93.3333333333333,8|0,0:0|0:0,0:0:0:0:
240,128,141420,1,0,0:0:0:0:
336,112,141563,6,0,P|394:128|419:188,1,93.3333333333333,4|0,0:0|0:0,0:0:0:0:
416,240,141849,1,0,0:0:0:0:
112,112,141992,1,8,0:0:0:0:
256,112,142135,1,0,0:0:0:0:
400,112,142277,1,0,0:0:0:0:
256,192,142420,6,0,B|144:192|144:192|144:96|144:96|187:115|224:112,1,280,4|8,0:0|0:0,0:0:0:0:
256,32,142992,1,0,0:0:0:0:
480,192,143135,1,0,0:0:0:0:
256,352,143277,1,4,0:0:0:0:
256,192,143420,1,0,0:0:0:0:
256,192,143563,1,0,0:0:0:0:
112,192,143706,2,0,P|112:144|144:112,1,93.3333333333333,12|0,0:0|0:0,0:0:0:0:
172,168,143992,1,0,0:0:0:0:
160,336,144135,6,0,L|400:336,1,210.000008010865,4|8,0:0|0:0,0:0:0:0:
256,192,144706,1,0,0:0:0:0:
256,192,144849,1,0,0:0:0:0:
352,48,144992,2,0,L|112:48,1,210.000008010865,4|8,0:0|0:0,0:0:0:0:
256,192,145563,1,0,0:0:0:0:
256,192,145706,1,0,0:0:0:0:
211,269,145849,5,8,0:0:0:0:
211,114,145992,1,8,0:0:0:0:
344,192,146135,1,8,0:0:0:0:
193,300,146277,1,8,0:0:0:0:
193,83,146420,1,8,0:0:0:0:
381,192,146563,1,8,0:0:0:0:
173,335,146706,1,8,0:0:0:0:
173,48,146849,1,8,0:0:0:0:
421,192,146992,1,8,0:0:0:0:
80,192,147135,2,8,L|176:192,1,70.0000026702882
304,192,147420,1,8,0:0:0:0:
128,96,147563,5,4,0:0:0:0:
256,96,147706,1,0,0:0:0:0:
256,96,147849,2,0,P|272:128|320:128,1,70.0000026702882,0|8,0:0|0:0,0:0:0:0:
416,96,148135,1,0,0:0:0:0:
416,288,148277,1,0,0:0:0:0:
64,304,148420,2,0,L|64:224,1,70.0000026702882,4|0,0:0|0:0,0:0:0:0:
64,234,148706,1,0,0:0:0:0:
448,144,148849,5,8,0:0:0:0:
256,192,148992,1,0,0:0:0:0:
256,192,149135,1,0,0:0:0:0:
64,192,149277,2,0,L|64:96,1,70.0000026702882,4|0,0:0|0:0,0:0:0:0:
448,192,149563,2,0,L|448:288,1,70.0000026702882,0|8,0:0|0:0,0:0:0:0:
160,288,149849,1,0,0:0:0:0:
256,32,149992,1,0,0:0:0:0:
256,192,150135,2,0,P|304:192|320:224,1,70.0000026702882,4|0,0:0|0:0,0:0:0:0:
256,304,150420,1,0,0:0:0:0:
80,192,150563,6,0,P|80:144|112:128,1,70.0000026702882
176,48,150849,1,0,0:0:0:0:
288,96,150992,1,4,0:0:0:0:
256,304,151135,1,0,0:0:0:0:
256,32,151277,1,0,0:0:0:0:
256,192,151420,2,0,B|208:240|112:256|128:256,1,140.000005340576,8|0,0:0|0:0,0:0:0:0:
256,192,151849,1,4,0:0:0:0:
128,128,151992,1,0,0:0:0:0:
128,128,152135,1,0,0:0:0:0:
400,192,152277,5,8,0:0:0:0:
112,80,152420,1,0,0:0:0:0:
112,304,152563,1,0,0:0:0:0:
256,272,152706,2,0,B|256:208|160:208|208:80,1,210.000008010865,4|8,0:0|0:0,0:0:0:0:
368,128,153277,1,0,0:0:0:0:
368,128,153420,1,0,0:0:0:0:
256,192,153563,2,0,L|192:112,1,70.0000026702882,4|0,0:0|0:0,0:0:0:0:
144,48,153849,1,0,0:0:0:0:
336,304,153992,5,8,0:0:0:0:
256,304,154135,1,0,0:0:0:0:
176,304,154277,1,0,0:0:0:0:
96,304,154420,5,4,0:0:0:0:
256,192,154563,2,0,L|192:128,1,70.0000026702882
352,96,154849,2,0,P|400:96|416:128,1,70.0000026702882,8|0,0:0|0:0,0:0:0:0:
384,224,155135,2,0,B|384:272|384:272|336:288,1,70.0000026702882,0|4,0:0|0:0,0:0:0:0:
112,288,155420,2,0,P|80:256|80:208,1,70.0000026702882
256,192,155706,1,8,0:0:0:0:
256,48,155849,1,0,0:0:0:0:
160,304,155992,1,0,0:0:0:0:
352,304,156135,6,0,P|352:240|336:224,1,70.0000026702882,4|0,0:0|0:0,0:0:0:0:
368,80,156420,1,0,0:0:0:0:
160,304,156563,2,0,P|160:240|176:224,1,70.0000026702882,8|0,0:0|0:0,0:0:0:0:
144,80,156849,1,0,0:0:0:0:
256,192,156992,1,4,0:0:0:0:
256,64,157135,1,0,0:0:0:0:
256,64,157277,1,0,0:0:0:0:
96,224,157420,1,8,0:0:0:0:
384,48,157563,1,0,0:0:0:0:
256,304,157706,1,0,0:0:0:0:
400,192,157849,6,0,B|352:112|320:112|272:176|192:176,1,210.000008010865,4|8,0:0|0:0,0:0:0:0:
64,192,158420,1,0,0:0:0:0:
256,32,158563,1,0,0:0:0:0:
256,304,158706,6,0,B|176:272|224:192|320:208|288:144,1,210.000008010865,4|8,0:0|0:0,0:0:0:0:
32,32,159277,1,0,0:0:0:0:
432,144,159420,1,0,0:0:0:0:
64,288,159563,2,0,B|128:240|192:192|128:160|64:128,1,210.000008010865,4|8,0:0|0:0,0:0:0:0:
160,96,160135,1,0,0:0:0:0:
384,176,160277,1,0,0:0:0:0:
256,352,160420,5,4,0:0:0:0:
320,288,160563,1,0,0:0:0:0:
208,272,160706,1,0,0:0:0:0:
288,208,160849,5,8,0:0:0:0:
144,80,160992,1,0,0:0:0:0:
368,80,161135,1,0,0:0:0:0:
144,304,161277,1,4,0:0:0:0:
352,176,161420,1,0,0:0:0:0:
112,192,161563,1,0,0:0:0:0:
208,80,161706,6,0,L|240:160,1,70.0000026702882,8|0,0:0|0:0,0:0:0:0:
304,336,161992,1,0,0:0:0:0:
304,80,162135,2,0,L|272:160,1,70.0000026702882,4|0,0:0|0:0,0:0:0:0:
208,336,162420,1,0,0:0:0:0:
368,144,162563,6,0,L|288:176,1,70.0000026702882,8|0,0:0|0:0,0:0:0:0:
112,240,162849,1,0,0:0:0:0:
368,240,162992,2,0,L|288:208,1,70.0000026702882,4|0,0:0|0:0,0:0:0:0:
112,144,163277,1,0,0:0:0:0:
208,304,163420,6,0,L|240:224,1,70.0000026702882,8|0,0:0|0:0,0:0:0:0:
304,48,163706,1,0,0:0:0:0:
304,304,163849,2,0,L|272:224,1,70.0000026702882,4|0,0:0|0:0,0:0:0:0:
208,48,164135,1,0,0:0:0:0:
144,192,164277,1,8,0:0:0:0:
256,96,164420,1,0,0:0:0:0:
256,320,164563,1,0,0:0:0:0:
400,240,164706,2,0,B|416:176|384:160|304:240|240:240|224:224,1,210.000008010865,4|8,0:0|0:0,0:0:0:0:
176,160,165277,1,0,0:0:0:0:
304,112,165420,1,0,0:0:0:0:
304,112,165563,5,4,0:0:0:0:
112,304,165706,1,0,0:0:0:0:
368,272,165849,1,0,0:0:0:0:
192,207,165992,2,0,P|160:191|161:155,1,70.0000026702882,8|0,0:0|0:0,0:0:0:0:
400,64,166277,1,0,0:0:0:0:
384,320,166420,2,0,B|336:320|336:320|320:288,1,70.0000026702882,4|0,0:0|0:0,0:0:0:0:
368,192,166706,1,0,0:0:0:0:
368,192,166849,2,0,L|288:192,1,70.0000026702882,8|0,0:0|0:0,0:0:0:0:
32,192,167135,1,0,0:0:0:0:
256,32,167277,5,4,0:0:0:0:
128,192,167420,1,0,0:0:0:0:
384,192,167563,1,0,0:0:0:0:
256,352,167706,1,8,0:0:0:0:
256,192,167849,2,0,L|208:128,1,70.0000026702882
416,192,168135,6,0,P|432:224|416:256,1,70.0000026702882,4|0,0:0|0:0,0:0:0:0:
256,192,168420,1,0,0:0:0:0:
96,192,168563,2,0,P|80:224|96:256,1,70.0000026702882,8|0,0:0|0:0,0:0:0:0:
256,192,168849,1,0,0:0:0:0:
416,192,168992,2,0,P|432:224|416:256,1,70.0000026702882,4|0,0:0|0:0,0:0:0:0:
256,192,169277,1,0,0:0:0:0:
96,192,169420,2,0,P|80:224|96:256,1,70.0000026702882,8|0,0:0|0:0,0:0:0:0:
256,192,169706,1,0,0:0:0:0:
200,224,169849,5,4,0:0:0:0:
256,127,169992,1,0,0:0:0:0:
312,224,170135,1,0,0:0:0:0:
168,242,170277,1,8,0:0:0:0:
256,90,170420,1,0,0:0:0:0:
343,242,170563,1,0,0:0:0:0:
154,250,170706,1,4,0:0:0:0:
256,74,170849,1,0,0:0:0:0:
357,250,170992,1,0,0:0:0:0:
160,96,171135,5,8,0:0:0:0:
352,96,171277,1,0,0:0:0:0:
160,288,171420,1,0,0:0:0:0:
352,288,171563,2,0,P|384:240|384:208,1,70.0000026702882,4|0,0:0|0:0,0:0:0:0:
384,96,171849,1,0,0:0:0:0:
224,192,171992,2,0,B|192:224|192:224|208:272,1,70.0000026702882,8|0,0:0|0:0,0:0:0:0:
304,336,172277,1,0,0:0:0:0:
112,256,172420,6,0,P|96:160|176:96,1,210.000008010865,4|8,0:0|0:0,0:0:0:0:
208,208,172992,1,0,0:0:0:0:
336,192,173135,1,0,0:0:0:0:
256,320,173277,2,0,L|344:269,1,70.0000026702882,4|0,0:0|0:0,0:0:0:0:
368,240,173563,2,0,L|352:160,1,70.0000026702882,0|8,0:0|0:0,0:0:0:0:
256,192,173849,1,0,0:0:0:0:
64,192,173992,1,0,0:0:0:0:
256,48,174135,5,4,0:0:0:0:
144,192,174277,1,0,0:0:0:0:
368,192,174420,1,0,0:0:0:0:
256,192,174563,5,8,0:0:0:0:
144,336,174706,1,0,0:0:0:0:
368,336,174849,1,0,0:0:0:0:
96,192,174992,5,4,0:0:0:0:
304,192,175135,2,0,L|288:144,2,35.0000013351441
192,304,175420,1,8,0:0:0:0:
320,304,175563,1,0,0:0:0:0:
256,96,175706,1,0,0:0:0:0:
256,96,175849,1,4,0:0:0:0:
112,192,175992,2,0,L|160:256,1,70.0000026702882
400,80,176277,5,8,0:0:0:0:
400,304,176420,1,0,0:0:0:0:
112,304,176563,1,0,0:0:0:0:
128,192,176706,2,0,L|128:112,2,70.0000026702882,4|0|0,0:0|0:0|0:0,0:0:0:0:
256,192,177135,2,0,L|256:112,2,70.0000026702882,8|0|0,0:0|0:0|0:0,0:0:0:0:
384,192,177563,2,0,L|384:112,2,70.0000026702882,4|0|0,0:0|0:0|0:0,0:0:0:0:
160,48,177992,5,8,0:0:0:0:
320,192,178135,5,0,0:0:0:0:
160,336,178277,1,0,0:0:0:0:
256,192,178420,1,4,0:0:0:0:
96,192,178563,2,0,L|96:144,2,35.0000013351441
384,48,178849,1,8,0:0:0:0:
384,192,178992,1,0,0:0:0:0:
384,336,179135,1,0,0:0:0:0:
96,192,179277,5,4,0:0:0:0:
112,96,179420,1,0,0:0:0:0:
256,192,179563,1,0,0:0:0:0:
416,192,179706,1,8,0:0:0:0:
128,320,179849,2,0,L|224:320,1,70.0000026702882
384,256,180135,6,0,P|368:208|342:189,1,70.0000026702882,4|0,0:0|0:0,0:0:0:0:
112,192,180420,2,0,P|112:144|139:115,1,70.0000026702882,0|8,0:0|0:0,0:0:0:0:
256,32,180706,2,0,L|256:128,1,70.0000026702882
128,336,180992,2,0,P|192:336|206:326,1,70.0000026702882,4|0,0:0|0:0,0:0:0:0:
256,192,181277,1,0,0:0:0:0:
128,80,181420,1,8,0:0:0:0:
384,80,181563,1,0,0:0:0:0:
256,304,181706,1,0,0:0:0:0:
256,192,181849,5,4,0:0:0:0:
80,192,181992,5,0,0:0:0:0:
80,192,182135,1,0,0:0:0:0:
368,192,182277,5,8,0:0:0:0:
368,192,182420,1,0,0:0:0:0:
176,320,182563,2,0,L|144:288,2,35.0000013351441,0|0|4,0:0|0:0|0:0,0:0:0:0:
96,64,182849,1,0,0:0:0:0:
256,64,182992,1,0,0:0:0:0:
416,64,183135,1,8,0:0:0:0:
256,192,183277,2,0,L|256:272,1,70.0000026702882
192,192,183563,5,4,0:0:0:0:
368,112,183706,1,0,0:0:0:0:
352,288,183849,1,0,0:0:0:0:
176,128,183992,1,8,0:0:0:0:
144,272,184135,1,0,0:0:0:0:
448,80,184277,1,0,0:0:0:0:
416,304,184420,6,0,B|336:304|304:240|286:211,1,140.000005340576,4|8,0:0|0:0,0:0:0:0:
80,192,184849,1,0,0:0:0:0:
128,320,185277,2,0,L|208:320,1,70.0000026702882,4|0,0:0|0:0,0:0:0:0:
256,224,185563,1,0,0:0:0:0:
272,112,185706,2,0,B|288:80|288:80|322:74,1,70.0000026702882,8|0,0:0|0:0,0:0:0:0:
432,160,185992,1,0,0:0:0:0:
256,288,186135,5,4,0:0:0:0:
256,64,186277,1,0,0:0:0:0:
256,288,186420,1,0,0:0:0:0:
256,64,186563,1,8,0:0:0:0:
256,192,186706,2,0,L|160:192,1,70.0000026702882
320,64,186992,5,4,0:0:0:0:
448,192,187135,1,0,0:0:0:0:
320,320,187277,1,0,0:0:0:0:
192,64,187420,1,8,0:0:0:0:
64,192,187563,1,0,0:0:0:0:
192,320,187706,1,0,0:0:0:0:
256,192,187849,6,0,B|256:142|256:142|275:125|275:125|274:84|274:84|248:74|248:74|247:62,1,140.000005340576
368,192,188277,1,8,0:0:0:0:
256,256,188420,1,0,0:0:0:0:
144,192,188563,1,0,0:0:0:0:
256,144,188706,1,4,0:0:0:0:
256,192,192992,12,0,195135,0:0:0:0:
341,114,195349,5,0,0:0:0:0:
253,146,195456,1,0,0:0:0:0:
161,147,195563,1,0,0:0:0:0:
239,27,195777,1,0,0:0:0:0:
161,147,195992,1,0,0:0:0:0:
241,289,196206,5,0,0:0:0:0:
315,235,196313,1,0,0:0:0:0:
402,215,196420,1,0,0:0:0:0:
368,342,196635,1,0,0:0:0:0:
402,215,196849,1,0,0:0:0:0:
71,296,197063,5,0,0:0:0:0:
92,209,197170,1,0,0:0:0:0:
66,123,197277,1,0,0:0:0:0:
189,208,197492,1,0,0:0:0:0:
66,123,197706,1,0,0:0:0:0:
225,89,197920,5,0,0:0:0:0:
311,59,198028,1,0,0:0:0:0:
389,106,198135,1,0,0:0:0:0:
494,16,198349,1,0,0:0:0:0:
389,106,198563,1,0,0:0:0:0:
480,228,198777,6,0,L|439:252,1,35
366,278,198992,1,0,0:0:0:0:
272,281,199099,1,0,0:0:0:0:
185,261,199206,1,0,0:0:0:0:
110,213,199313,1,0,0:0:0:0:
77,130,199420,1,0,0:0:0:0:
165,145,199527,1,0,0:0:0:0:
251,157,199635,2,0,L|296:156,1,35
403,210,199849,5,0,0:0:0:0:
319,224,199956,1,0,0:0:0:0:
235,223,200063,1,0,0:0:0:0:
155,195,200170,1,0,0:0:0:0:
83,146,200277,1,0,0:0:0:0:
80,229,200385,1,0,0:0:0:0:
121,302,200492,1,0,0:0:0:0:
193,346,200599,1,0,0:0:0:0:
280,339,200706,6,0,B|344:303|344:303|397:299,1,119.000002269745
494,362,201135,1,0,0:0:0:0:
483,209,201349,1,0,0:0:0:0:
434,138,201456,1,0,0:0:0:0:
355,99,201563,2,0,B|287:97|287:97|231:127,1,119.000002269745
402,215,201992,1,0,0:0:0:0:
280,338,202206,5,0,0:0:0:0:
210,286,202313,1,0,0:0:0:0:
183,207,202420,2,0,B|188:145|188:145|231:90,1,119.000002269745
268,224,202849,1,0,0:0:0:0:
203,366,203063,1,0,0:0:0:0:
126,344,203170,1,0,0:0:0:0:
63,291,203277,2,0,B|28:237|28:237|32:169,1,119.000002269745
183,207,203706,1,0,0:0:0:0:
324,113,203920,5,0,0:0:0:0:
250,68,204027,1,0,0:0:0:0:
164,59,204135,2,0,B|90:66|90:66|48:87,1,119.000002269745
200,138,204563,1,0,0:0:0:0:
72,205,204777,1,0,0:0:0:0:
136,260,204885,1,0,0:0:0:0:
216,280,204992,2,0,B|276:285|276:285|344:260,1,119.000002269745
200,138,205420,1,0,0:0:0:0:
300,27,205635,5,0,0:0:0:0:
301,107,205742,1,0,0:0:0:0:
303,188,205849,2,0,P|334:249|426:271,1,119.000002269745
486,267,206277,2,0,P|455:206|363:184,1,119.000002269745
461,85,206706,6,0,P|380:84|336:105,1,119.000002269745
274,18,207135,2,0,P|234:63|221:132,1,119.000002269745
345,268,207563,5,0,0:0:0:0:
104,318,207777,1,0,0:0:0:0:
353,183,207992,1,0,0:0:0:0:
79,151,208206,1,0,0:0:0:0:
205,371,208420,1,0,0:0:0:0:
410,234,208635,1,0,0:0:0:0:
48,220,208849,1,0,0:0:0:0:
388,87,209063,1,0,0:0:0:0:
311,59,209170,5,0,0:0:0:0:
227,57,209277,2,0,P|168:72|116:109,1,119.000002269745
90,221,209706,2,0,P|149:206|201:169,1,119.000002269745
422,221,210135,6,0,P|363:206|311:169,1,119.000002269745
288,53,210563,2,0,P|347:68|399:105,1,119.000002269745
269,292,210992,6,0,P|196:309|156:274,1,119.000002269745
42,176,211420,2,0,P|105:162|157:219,1,119.000002269745
25,346,211849,6,0,L|99:247,1,119.000002269745
245,230,212277,2,0,L|171:329,1,119.000002269745
42,176,212706,5,0,0:0:0:0:
196,50,212920,1,0,0:0:0:0:
246,226,213135,5,0,0:0:0:0:
57,43,213349,1,0,0:0:0:0:
128,310,213563,5,0,0:0:0:0:
332,123,213777,1,0,0:0:0:0:
176,320,213992,5,0,0:0:0:0:
33,15,214206,1,0,0:0:0:0:
456,290,214420,6,0,P|372:313|330:288,1,119.000002269745
246,221,214849,1,0,0:0:0:0:
128,310,215063,1,0,0:0:0:0:
41,217,215277,6,0,P|93:168|153:159,1,119.000002269745
245,225,215706,1,0,0:0:0:0:
366,126,215920,1,0,0:0:0:0:
126,66,216135,6,0,L|232:133,1,119.000002269745
349,205,216563,1,0,0:0:0:0:
126,68,216777,1,0,0:0:0:0:
41,217,216992,6,0,L|171:246,1,119.000002269745
310,272,217420,1,0,0:0:0:0:
43,218,217635,1,0,0:0:0:0:
173,354,217849,6,0,L|233:250,1,119.000002269745
304,119,218277,1,0,0:0:0:0:
172,352,218492,1,0,0:0:0:0:
369,346,218706,2,0,L|365:217,1,119.000002269745
355,77,219135,1,0,0:0:0:0:
369,346,219349,1,0,0:0:0:0:
480,199,219563,5,0,0:0:0:0:
266,136,219777,1,0,0:0:0:0:
106,306,219992,5,0,0:0:0:0:
266,136,220206,1,0,0:0:0:0:
2,59,220420,5,0,0:0:0:0:
266,136,220635,1,0,0:0:0:0:
464,0,220849,5,0,0:0:0:0:
266,136,221063,1,0,0:0:0:0:
462,65,221277,6,0,P|441:127|386:168,1,119.000002269745
259,221,221706,1,0,0:0:0:0:
259,221,221920,1,0,0:0:0:0:
50,319,222135,6,0,P|71:257|126:216,1,119.000002269745
259,221,222563,1,0,0:0:0:0:
259,221,222777,1,0,0:0:0:0:
302,218,222885,5,0,0:0:0:0:
340,218,222992,2,0,P|406:190|433:148,1,119.000002269745
314,82,223420,1,0,0:0:0:0:
339,215,223635,1,0,0:0:0:0:
73,53,223849,6,0,P|50:120|66:185,1,119.000002269745
192,122,224277,1,0,0:0:0:0:
74,53,224492,1,0,0:0:0:0:
113,276,224706,6,0,P|199:287|239:258,1,119.000002269745
162,143,225135,1,0,0:0:0:0:
114,272,225349,1,0,0:0:0:0:
410,325,225563,6,0,P|427:258|402:201,1,119.000002269745
294,263,225992,1,0,0:0:0:0:
412,329,226206,1,0,0:0:0:0:
384,109,226420,5,0,0:0:0:0:
139,216,226635,1,0,0:0:0:0:
437,130,226849,5,0,0:0:0:0:
91,197,227063,1,0,0:0:0:0:
477,165,227277,5,0,0:0:0:0:
53,161,227492,1,0,0:0:0:0:
486,215,227706,5,0,0:0:0:0:
40,112,227920,1,0,0:0:0:0:
320,72,228135,6,0,P|271:117|205:119,1,119.000002269745
233,29,228563,1,0,0:0:0:0:
204,218,228777,1,0,0:0:0:0:
360,303,228992,6,0,P|389:238|446:215,1,119.000002269745
456,308,229420,1,0,0:0:0:0:
402,128,229635,1,0,0:0:0:0:
222,142,229849,5,0,0:0:0:0:
56,208,230063,1,0,0:0:0:0:
280,213,230277,1,0,0:0:0:0:
21,189,230492,1,0,0:0:0:0:
280,213,230706,5,0,0:0:0:0:
446,147,230920,1,0,0:0:0:0:
222,142,231134,1,0,0:0:0:0:
481,166,231349,1,0,0:0:0:0:
370,334,231563,5,0,0:0:0:0:
162,245,231777,1,0,0:0:0:0:
85,349,231992,1,0,0:0:0:0:
373,220,232206,1,0,0:0:0:0:
139,164,232420,5,0,0:0:0:0:
427,35,232634,1,0,0:0:0:0:
350,139,232849,1,0,0:0:0:0:
142,50,233063,1,0,0:0:0:0:
309,278,233277,5,0,0:0:0:0:
178,128,233492,1,0,0:0:0:0:
385,279,233706,5,0,0:0:0:0:
105,122,233920,1,0,0:0:0:0:
321,349,234135,5,0,0:0:0:0:
177,58,234349,1,0,0:0:0:0:
416,240,234563,5,0,0:0:0:0:
64,144,234777,1,0,0:0:0:0:
432,126,234992,6,0,P|359:132|309:158,1,119.000002269745
222,254,235420,1,0,0:0:0:0:
86,203,235635,1,0,0:0:0:0:
210,96,235849,6,0,P|288:129|332:172,1,119.000002269745
314,274,236277,1,0,0:0:0:0:
441,341,236492,1,0,0:0:0:0:
440,292,236599,5,0,0:0:0:0:
440,243,236706,2,0,L|439:121,1,119.000002269745
436,0,237135,1,0,0:0:0:0:
436,0,237349,1,0,0:0:0:0:
283,87,237563,6,0,L|246:208,1,119.000002269745
210,316,237992,1,0,0:0:0:0:
210,316,238206,1,0,0:0:0:0:
49,360,238420,6,0,L|46:234,1,119.000002269745
44,124,238849,1,0,0:0:0:0:
44,124,239063,1,0,0:0:0:0:
176,18,239277,6,0,L|255:118,1,119.000002269745
322,212,239706,1,0,0:0:0:0:
322,212,239920,1,0,0:0:0:0:
472,101,240135,5,0,0:0:0:0:
187,124,240349,1,0,0:0:0:0:
471,257,240563,5,0,0:0:0:0:
281,19,240777,1,0,0:0:0:0:
268,294,240992,5,0,0:0:0:0:
420,3,241206,1,0,0:0:0:0:
126,218,241420,5,0,0:0:0:0:
511,178,241635,1,0,0:0:0:0:
359,335,241849,5,0,0:0:0:0:
131,336,242063,1,0,0:0:0:0:
359,335,242277,1,0,0:0:0:0:
86,335,242492,1,0,0:0:0:0:
257,236,242706,5,0,0:0:0:0:
461,236,242920,1,0,0:0:0:0:
257,236,243135,1,0,0:0:0:0:
506,235,243349,1,0,0:0:0:0:
271,136,243563,6,0,P|201:152|162:213,1,119.000002269745
168,310,243992,1,0,0:0:0:0:
272,134,244206,1,0,0:0:0:0:
332,219,244420,6,0,P|372:151|363:106,1,119.000002269745
262,47,244849,1,0,0:0:0:0:
335,220,245063,1,0,0:0:0:0:
161,65,245277,6,0,P|190:125|256:145,1,119.000002269745
368,86,245706,1,0,0:0:0:0:
161,68,245920,1,0,0:0:0:0:
162,175,246135,6,0,P|227:152|255:95,1,119.000002269745
166,9,246563,1,0,0:0:0:0:
162,175,246777,1,0,0:0:0:0:
312,335,246992,5,0,0:0:0:0:
512,253,247206,1,0,0:0:0:0:
312,335,247420,5,0,0:0:0:0:
512,155,247635,1,0,0:0:0:0:
312,335,247849,5,0,0:0:0:0:
489,69,248063,1,0,0:0:0:0:
312,335,248277,5,0,0:0:0:0:
436,1,248492,1,0,0:0:0:0:
227,83,248706,6,0,L|266:206,1,119.000002269745
121,321,249135,2,0,L|150:193,1,119.000002269745
110,49,249563,2,0,L|30:153,1,119.000002269745
56,283,249992,5,0,0:0:0:0:
119,320,250099,1,0,0:0:0:0:
188,334,250206,1,0,0:0:0:0:
258,333,250313,1,0,0:0:0:0:
328,318,250420,1,0,0:0:0:0:
450,223,250635,6,0,L|388:207,1,59.5000011348725
464,135,250849,1,0,0:0:0:0:
449,46,251063,2,0,L|376:63,1,59.5000011348725
238,18,251277,5,0,0:0:0:0:
183,75,251385,1,0,0:0:0:0:
171,150,251492,1,0,0:0:0:0:
181,226,251599,1,0,0:0:0:0:
230,285,251706,1,0,0:0:0:0:
71,340,251920,6,0,L|65:268,1,59.5000011348725
14,189,252135,1,0,0:0:0:0:
10,74,252349,2,0,L|68:47,1,59.5000011348725
162,16,252563,1,0,0:0:0:0:
283,74,252777,1,0,0:0:0:0:
151,168,252992,5,0,0:0:0:0:
213,219,253099,1,0,0:0:0:0:
290,229,253206,1,0,0:0:0:0:
364,208,253313,1,0,0:0:0:0:
418,151,253420,1,0,0:0:0:0:
282,75,253635,6,0,L|230:107,1,59.5000011348725
151,168,253849,1,0,0:0:0:0:
42,211,254063,2,0,L|86:252,1,59.5000011348725
161,314,254277,1,0,0:0:0:0:
273,344,254492,1,0,0:0:0:0:
409,286,254706,5,0,0:0:0:0:
367,218,254813,1,0,0:0:0:0:
308,166,254920,1,0,0:0:0:0:
236,137,255027,1,0,0:0:0:0:
156,127,255135,1,0,0:0:0:0:
66,34,255349,6,0,L|132:33,1,59.5000011348725
224,37,255563,1,0,0:0:0:0:
368,25,255777,2,0,L|382:86,1,59.5000011348725
401,175,255992,1,0,0:0:0:0:
479,273,256206,1,0,0:0:0:0:
364,350,256420,5,0,0:0:0:0:
281,333,256527,1,0,0:0:0:0:
211,290,256635,1,0,0:0:0:0:
164,227,256742,1,0,0:0:0:0:
149,150,256849,2,0,P|161:86|213:48,1,119.000002269745
421,38,257277,6,0,L|362:144,1,119.000002269745
485,214,257706,2,0,L|370:253,1,119.000002269745
313,356,258135,5,0,0:0:0:0:
236,352,258242,1,0,0:0:0:0:
162,348,258349,1,0,0:0:0:0:
85,344,258456,1,0,0:0:0:0:
7,341,258563,1,0,0:0:0:0:
119,251,258777,6,0,L|182:222,1,59.5000011348725
264,183,258992,1,0,0:0:0:0:
284,68,259206,2,0,L|206:106,1,59.5000011348725
145,138,259420,1,0,0:0:0:0:
31,157,259635,1,0,0:0:0:0:
56,16,259849,6,0,L|116:26,1,59.5000011348725
193,48,260063,1,0,0:0:0:0:
272,69,260170,1,0,0:0:0:0:
357,100,260277,2,0,P|366:165|324:224,1,119.000002269745
441,315,260706,6,0,L|323:336,1,119.000002269745
244,367,261135,2,0,L|131:294,1,119.000002269745
116,172,261563,6,0,L|119:103,3,59.5000011348725
273,36,262420,6,0,P|344:87|347:149,1,119.000002269745
481,191,262849,6,0,P|436:250|352:260,1,119.000002269745
236,343,263277,5,0,0:0:0:0:
165,288,263385,1,0,0:0:0:0:
129,207,263492,2,0,P|113:144|125:72,1,119.000002269745
296,36,263920,5,0,0:0:0:0:
349,100,264027,1,0,0:0:0:0:
410,159,264135,1,0,0:0:0:0:
256,192,264242,12,0,266706,0:0:0:0:
347,195,267135,6,0,L|286:240,1,70
106,161,267563,1,0,0:0:0:0:
