osu file format v14

[General]
AudioFilename: audio.mp3
AudioLeadIn: 0
PreviewTime: 52992
Countdown: 1
SampleSet: Soft
StackLeniency: 0.4
Mode: 0
LetterboxInBreaks: 0
WidescreenStoryboard: 1

[Editor]
DistanceSpacing: 0.5
BeatDivisor: 4
GridSize: 32
TimelineZoom: 1.4

[Metadata]
Title:Hexagon Force
TitleUnicode:Hexagon Force
Artist:Waterflame
ArtistUnicode:Waterflame
Creator:3312
Version:Insane
Source:Geometry Dash
Tags:GD is not a rhythm game
BeatmapID:1789291
BeatmapSetID:856164

[Difficulty]
HPDrainRate:6
CircleSize:4
OverallDifficulty:8
ApproachRate:8.5
SliderMultiplier:1.8
SliderTickRate:1

[Events]
//Background and Video events
0,0,"maxresdefault.jpg",0,0
//Break Periods
//Storyboard Layer 0 (Background)
//Storyboard Layer 1 (Fail)
//Storyboard Layer 2 (Pass)
//Storyboard Layer 3 (Foreground)
//Storyboard Sound Samples

[TimingPoints]
-4,368.030423848371,4,2,0,100,1,0
732,-100,4,2,0,5,0,0
1100,-100,4,2,0,100,0,0
1376,-100,4,2,0,5,0,0
1468,-100,4,2,0,100,0,0
5332,-80,4,2,0,100,0,0
5884,-133.333333333333,4,2,0,100,0,0
6252,-66.6666666666667,4,2,0,100,0,0
7356,-133.333333333333,4,2,0,100,0,0
7724,-66.6666666666667,4,2,0,100,0,0
10668,-133.333333333333,4,2,0,100,0,0
11220,-100,4,2,0,100,0,0
11772,-80,4,2,0,100,0,0
13061,-133.333333333333,4,2,0,100,0,0
14717,-80,4,2,0,100,0,0
17293,-100,4,2,0,100,0,0
18029,-66.6666666666667,4,2,0,100,0,0
18397,-100,4,2,0,100,0,0
18949,-133.333333333333,4,2,0,100,0,0
20605,-100,4,2,0,100,0,0
24101,-80,4,2,0,100,0,0
25022,-133.333333333333,4,2,0,100,0,0
26494,-100,4,2,0,100,0,0
29070,-80,4,2,0,100,0,0
29254,-66.6666666666667,4,2,0,100,0,0
29438,-66.6666666666667,4,2,0,100,0,1
29714,-66.6666666666667,4,2,0,100,0,0
36615,-100,4,2,0,100,0,0
36983,-66.6666666666667,4,2,0,100,0,0
41583,-50,4,2,0,100,0,0
43791,-200,4,2,0,100,0,0
44159,-50,4,2,0,100,0,0
49680,-200,4,2,0,100,0,0
50048,-40,4,2,0,100,0,0
52992,-66.6666666666667,4,2,0,100,0,1
55016,-50,4,2,0,100,0,1
55384,-50,4,2,0,100,0,0
55568,-50,4,2,0,100,0,1
58328,-50,4,2,0,100,0,0
58880,-50,4,2,0,100,0,1
61825,-50,4,2,0,100,0,0
64769,-50,4,2,0,100,0,1
68265,-66.6666666666667,4,2,0,100,0,1
68633,-57.1428571428571,4,2,0,100,0,1
69001,-133.333333333333,4,2,0,100,0,1
70289,-133.333333333333,4,2,0,100,0,0
70657,-133.333333333333,4,2,0,100,0,1
72866,-50,4,2,0,100,0,1
73234,-40,4,2,0,100,0,1
76546,-100,4,2,0,100,0,0
78386,-133.333333333333,4,2,0,100,0,0
87219,-133.333333333333,4,2,0,100,0,1
88323,-133.333333333333,4,2,0,100,0,0

[HitObjects]
267,177,364,5,0,0:0:0:0:
267,177,548,2,0,L|271:75,1,90
60,95,1100,5,0,0:0:0:0:
60,95,1284,2,0,L|57:162,1,45
58,215,1468,1,0,0:0:0:0:
267,177,1836,1,0,0:0:0:0:
58,215,2388,5,0,0:0:0:0:
163,197,2572,1,0,0:0:0:0:
267,177,2756,1,0,0:0:0:0:
235,274,2940,6,0,P|297:298|384:281,1,135
426,247,3308,2,0,L|319:211,1,90
267,177,3860,5,0,0:0:0:0:
267,177,4044,2,0,L|271:79,1,90
181,46,4412,5,0,0:0:0:0:
181,46,4596,2,0,L|174:144,2,90
79,75,5148,5,0,0:0:0:0:
79,75,5332,2,0,L|90:188,2,112.5
5,123,5884,5,0,0:0:0:0:
40,260,6252,2,0,B|67:257|67:257|98:263|98:263|138:240|190:263,1,135.000005149842
307,238,6804,5,0,0:0:0:0:
279,331,6988,2,0,B|250:335|250:335|231:329|231:329|184:344|141:327,1,135.000005149842
40,260,7356,5,0,0:0:0:0:
97,137,7724,2,0,B|141:123|141:123|167:137|167:137|217:124|272:136,1,135.000005149842
343,124,8276,5,0,0:0:0:0:
317,48,8460,2,0,B|266:35|266:35|239:48|239:48|208:39|155:46,1,135.000005149842
97,137,8828,5,0,0:0:0:0:
343,124,9196,1,0,0:0:0:0:
97,137,9748,5,0,0:0:0:0:
220,131,9932,1,0,0:0:0:0:
343,124,10116,1,0,0:0:0:0:
276,37,10300,5,0,0:0:0:0:
152,40,10484,1,0,0:0:0:0:
220,131,10668,2,0,B|236:178|236:178|221:206|221:206|235:234|219:304,1,168.750006437302
154,346,11220,6,0,P|100:347|58:338,2,90
221,291,11772,6,0,P|306:282|384:326,1,168.75
432,377,12141,2,0,L|430:255,1,112.5
430,103,12509,1,0,0:0:0:0:
367,185,12693,1,0,0:0:0:0:
485,188,12877,5,0,0:0:0:0:
430,103,13061,2,0,B|324:58|352:131|228:84,1,202.500007724762
56,33,13981,2,0,P|110:24|59:131,1,236.250009012223
15,191,14717,6,0,L|156:204,1,112.5
281,277,15085,1,0,0:0:0:0:
300,285,15453,6,0,L|173:303,1,112.5
26,331,15821,1,0,0:0:0:0:
94,273,16005,1,0,0:0:0:0:
113,364,16189,1,0,0:0:0:0:
26,331,16373,6,0,P|7:269|32:210,1,112.5
119,177,16741,2,0,L|239:175,1,112.5
393,170,17109,1,0,0:0:0:0:
303,130,17293,2,0,B|332:229|279:194|315:294,1,135
360,323,17661,6,0,P|283:338|234:321,1,90
157,284,18029,1,0,0:0:0:0:
235,260,18213,1,0,0:0:0:0:
196,356,18397,2,0,P|103:344|85:319,1,90
63,273,18765,1,0,0:0:0:0:
96,192,18949,6,0,B|151:182|151:182|180:200|180:200|235:163|299:205,1,202.500007724762
344,359,19869,2,0,B|320:298|350:251|350:251|384:195|341:131,1,236.250009012223
283,81,20605,6,0,L|170:100,1,90
40,147,20973,1,0,0:0:0:0:
19,160,21341,6,0,L|126:186,1,90
261,217,21709,1,0,0:0:0:0:
192,136,21893,1,0,0:0:0:0:
165,261,22077,5,0,0:0:0:0:
261,217,22261,2,0,L|287:111,1,90
342,55,22629,2,0,P|270:70|206:40,1,135
157,2,22997,1,0,0:0:0:0:
118,157,23181,1,0,0:0:0:0:
118,157,23549,6,0,B|100:204|100:204|106:221|106:221|65:273|96:335,1,180
171,280,24101,6,0,B|192:236|192:236|184:211|184:211|220:133|165:80,1,168.75
132,65,24470,6,0,B|239:42|197:106|328:59,1,168.75
366,37,24838,1,0,0:0:0:0:
397,193,25022,1,0,0:0:0:0:
397,193,25574,5,0,0:0:0:0:
287,242,25758,1,0,0:0:0:0:
330,111,25942,1,0,0:0:0:0:
359,311,26126,1,0,0:0:0:0:
266,166,26310,1,0,0:0:0:0:
417,250,26494,6,0,P|438:302|429:355,1,90
290,362,26862,1,0,0:0:0:0:
273,361,27230,6,0,P|259:307|259:255,1,90
299,122,27598,1,0,0:0:0:0:
339,204,27782,2,0,L|218:190,1,90
135,175,28150,1,0,0:0:0:0:
135,175,28242,1,0,0:0:0:0:
135,175,28334,5,0,0:0:0:0:
205,75,28518,1,0,0:0:0:0:
198,238,28702,1,0,0:0:0:0:
124,97,28886,1,0,0:0:0:0:
115,254,29070,1,0,0:0:0:0:
210,156,29254,1,0,0:0:0:0:
202,303,29438,6,0,P|97:345|9:284,1,202.500007724762
7,234,29806,2,0,L|22:90,1,135.000005149842
99,42,30174,5,0,0:0:0:0:
161,144,30358,2,0,P|224:171|299:149,1,135.000005149842
381,93,30726,5,0,0:0:0:0:
378,247,30910,2,0,P|293:276|224:248,1,135.000005149842
180,196,31278,1,0,0:0:0:0:
182,322,31462,1,0,0:0:0:0:
92,263,31646,5,0,0:0:0:0:
180,196,31830,1,0,0:0:0:0:
182,322,32014,6,0,B|233:311|233:311|272:329|272:329|336:286|419:354,1,202.500007724762
448,298,32382,6,0,P|478:223|441:164,1,135.000005149842
321,97,32750,1,0,0:0:0:0:
321,97,33118,1,0,0:0:0:0:
211,87,33302,1,0,0:0:0:0:
102,71,33486,1,0,0:0:0:0:
31,143,33670,6,0,B|46:193|46:193|30:242|30:242|45:298|45:298|32:362|32:362|91:354,1,270.000010299683
145,284,34222,2,0,B|130:234|130:234|146:185|146:185|131:129|131:129|144:65|144:65|85:73,1,270.000010299683
237,40,34774,1,0,0:0:0:0:
341,48,34958,1,0,0:0:0:0:
444,56,35142,1,0,0:0:0:0:
256,192,35326,5,0,0:0:0:0:
