osu file format v14

[General]
AudioFilename: 472245_-Happyland-.mp3
AudioLeadIn: 0
PreviewTime: -1
Countdown: 0
SampleSet: Soft
StackLeniency: 0.7
Mode: 3
LetterboxInBreaks: 0
SpecialStyle: 0
WidescreenStoryboard: 1

[Editor]
DistanceSpacing: 0.9
BeatDivisor: 4
GridSize: 8
TimelineZoom: 1.9

[Metadata]
Title:Happyland
TitleUnicode:Happyland
Artist:Waterflame
ArtistUnicode:Waterflame
Creator:_Hibiki_
Version:Draven
Source:
Tags:
BeatmapID:814283
BeatmapSetID:371737

[Difficulty]
HPDrainRate:8
CircleSize:4
OverallDifficulty:8
ApproachRate:5
SliderMultiplier:1.4
SliderTickRate:1

[Events]
//Background and Video events
Video,10,"It's Great to be Draven!.mp4"
0,0,"maxresdefault.jpg",0,0
//Break Periods
//Storyboard Layer 0 (Background)
//Storyboard Layer 1 (Fail)
//Storyboard Layer 2 (Pass)
//Storyboard Layer 3 (Foreground)
//Storyboard Sound Samples

[TimingPoints]
9,422.535211267606,4,2,0,31,1,0
67614,845.070422535211,4,2,0,31,1,0
67614,-55.5555555555556,4,2,0,31,0,0
67825,-58.8235294117647,4,2,0,31,0,0
68036,-62.5,4,2,0,31,0,0
68247,-66.6666666666667,4,2,0,31,0,0

[HitObjects]
320,192,9,5,0,0:0:0:0:
192,192,431,1,0,0:0:0:0:
64,192,537,1,0,0:0:0:0:
192,192,748,1,0,0:0:0:0:
64,192,1382,1,0,0:0:0:0:
192,192,1487,1,0,0:0:0:0:
320,192,1593,1,0,0:0:0:0:
448,192,1699,1,0,0:0:0:0:
64,192,1910,1,0,0:0:0:0:
192,192,2121,1,0,0:0:0:0:
320,192,2227,1,0,0:0:0:0:
64,192,2438,1,0,0:0:0:0:
448,192,2755,1,0,0:0:0:0:
320,192,3389,1,0,0:0:0:0:
320,192,3811,1,0,0:0:0:0:
448,192,3917,1,0,0:0:0:0:
64,192,4128,1,0,0:0:0:0:
64,192,4762,1,0,0:0:0:0:
192,192,4868,1,0,0:0:0:0:
320,192,4973,1,0,0:0:0:0:
448,192,5079,1,0,0:0:0:0:
64,192,5290,1,0,0:0:0:0:
192,192,5501,1,0,0:0:0:0:
320,192,5607,1,0,0:0:0:0:
64,192,5818,1,0,0:0:0:0:
320,192,6769,1,0,0:0:0:0:
192,192,7192,1,0,0:0:0:0:
64,192,7297,1,0,0:0:0:0:
192,192,7509,1,0,0:0:0:0:
64,192,8142,1,0,0:0:0:0:
192,192,8248,1,0,0:0:0:0:
320,192,8354,1,0,0:0:0:0:
448,192,8459,1,0,0:0:0:0:
64,192,8670,1,0,0:0:0:0:
192,192,8882,1,0,0:0:0:0:
320,192,8987,1,0,0:0:0:0:
64,192,9199,1,0,0:0:0:0:
448,192,9516,1,0,0:0:0:0:
320,192,10149,1,0,0:0:0:0:
320,192,10572,1,0,0:0:0:0:
448,192,10678,1,0,0:0:0:0:
64,192,10889,1,0,0:0:0:0:
64,192,11523,1,0,0:0:0:0:
192,192,11628,1,0,0:0:0:0:
320,192,11734,1,0,0:0:0:0:
448,192,11839,1,0,0:0:0:0:
64,192,12051,1,0,0:0:0:0:
192,192,12262,1,0,0:0:0:0:
320,192,12368,1,0,0:0:0:0:
64,192,12579,1,0,0:0:0:0:
192,192,13530,1,0,0:0:0:0:
448,192,13530,1,0,0:0:0:0:
320,192,13952,1,0,0:0:0:0:
192,192,13952,1,0,0:0:0:0:
64,192,14058,1,0,0:0:0:0:
320,192,14269,1,0,0:0:0:0:
64,192,14269,1,0,0:0:0:0:
64,192,14903,1,0,0:0:0:0:
320,192,14903,1,0,0:0:0:0:
192,192,15009,1,0,0:0:0:0:
320,192,15114,1,0,0:0:0:0:
448,192,15220,1,0,0:0:0:0:
192,192,15220,1,0,0:0:0:0:
64,192,15431,1,0,0:0:0:0:
192,192,15642,1,0,0:0:0:0:
320,192,15748,1,0,0:0:0:0:
448,192,15748,1,0,0:0:0:0:
64,192,15959,1,0,0:0:0:0:
448,192,16276,1,0,0:0:0:0:
192,192,16276,1,0,0:0:0:0:
448,192,16910,1,0,0:0:0:0:
64,192,16910,1,0,0:0:0:0:
448,192,17332,1,0,0:0:0:0:
192,192,17332,1,0,0:0:0:0:
320,192,17438,1,0,0:0:0:0:
192,192,17649,1,0,0:0:0:0:
64,192,17649,1,0,0:0:0:0:
448,192,18283,1,0,0:0:0:0:
192,192,18283,1,0,0:0:0:0:
64,192,18389,1,0,0:0:0:0:
320,192,18494,1,0,0:0:0:0:
192,192,18600,1,0,0:0:0:0:
64,192,18600,1,0,0:0:0:0:
320,192,18811,1,0,0:0:0:0:
448,192,18811,1,0,0:0:0:0:
320,192,19023,1,0,0:0:0:0:
64,192,19023,1,0,0:0:0:0:
192,192,19128,1,0,0:0:0:0:
64,192,19339,1,0,0:0:0:0:
448,192,20290,1,0,0:0:0:0:
192,192,20290,1,0,0:0:0:0:
320,192,20396,1,0,0:0:0:0:
192,192,20501,1,0,0:0:0:0:
64,192,20501,1,0,0:0:0:0:
64,192,20713,1,0,0:0:0:0:
192,192,20924,1,0,0:0:0:0:
448,192,21030,1,0,0:0:0:0:
64,192,21030,1,0,0:0:0:0:
320,192,21241,1,0,0:0:0:0:
64,192,21241,1,0,0:0:0:0:
192,192,21347,1,0,0:0:0:0:
192,192,21558,1,0,0:0:0:0:
192,192,21769,1,0,0:0:0:0:
448,192,21980,1,0,0:0:0:0:
64,192,21980,1,0,0:0:0:0:
320,192,22086,1,0,0:0:0:0:
64,192,22192,1,0,0:0:0:0:
192,192,22192,1,0,0:0:0:0:
192,192,22403,1,0,0:0:0:0:
192,192,22614,1,0,0:0:0:0:
320,192,22720,1,0,0:0:0:0:
64,192,22720,1,0,0:0:0:0:
192,192,22931,1,0,0:0:0:0:
448,192,22931,1,0,0:0:0:0:
64,192,23037,1,0,0:0:0:0:
320,192,23037,1,0,0:0:0:0:
64,192,23248,1,0,0:0:0:0:
64,192,23459,1,0,0:0:0:0:
448,192,23670,1,0,0:0:0:0:
192,192,23670,1,0,0:0:0:0:
320,192,23776,1,0,0:0:0:0:
64,192,23882,1,0,0:0:0:0:
192,192,23882,1,0,0:0:0:0:
320,192,24093,1,0,0:0:0:0:
320,192,24304,1,0,0:0:0:0:
192,192,24410,1,0,0:0:0:0:
448,192,24410,1,0,0:0:0:0:
320,192,24621,1,0,0:0:0:0:
64,192,24621,1,0,0:0:0:0:
192,192,24727,1,0,0:0:0:0:
192,192,24938,1,0,0:0:0:0:
192,192,25149,1,0,0:0:0:0:
448,192,25361,5,0,0:0:0:0:
192,192,25361,1,0,0:0:0:0:
64,192,25361,1,0,0:0:0:0:
320,192,25572,1,0,0:0:0:0:
192,192,25572,1,0,0:0:0:0:
192,192,25783,1,0,0:0:0:0:
448,192,25783,1,0,0:0:0:0:
320,192,25889,1,0,0:0:0:0:
64,192,25889,1,0,0:0:0:0:
192,192,26100,1,0,0:0:0:0:
64,192,26100,1,0,0:0:0:0:
448,192,26206,1,0,0:0:0:0:
320,192,26311,1,0,0:0:0:0:
64,192,26417,1,0,0:0:0:0:
192,192,26523,1,0,0:0:0:0:
448,192,26628,1,0,0:0:0:0:
320,192,26628,1,0,0:0:0:0:
192,192,26734,1,0,0:0:0:0:
320,192,26839,1,0,0:0:0:0:
64,192,26945,1,0,0:0:0:0:
192,192,27051,1,0,0:0:0:0:
448,192,27051,1,0,0:0:0:0:
320,192,27051,1,0,0:0:0:0:
64,192,27156,1,0,0:0:0:0:
192,192,27262,1,0,0:0:0:0:
448,192,27473,1,0,0:0:0:0:
320,192,27473,1,0,0:0:0:0:
64,192,27473,1,0,0:0:0:0:
320,192,27579,1,0,0:0:0:0:
192,192,27579,1,0,0:0:0:0:
448,192,27685,1,0,0:0:0:0:
192,192,27790,1,0,0:0:0:0:
448,192,27896,1,0,0:0:0:0:
64,192,27896,1,0,0:0:0:0:
320,192,28001,1,0,0:0:0:0:
192,192,28001,1,0,0:0:0:0:
64,192,28107,1,0,0:0:0:0:
64,192,28318,1,0,0:0:0:0:
448,192,28318,1,0,0:0:0:0:
192,192,28424,1,0,0:0:0:0:
320,192,28530,1,0,0:0:0:0:
192,192,28635,1,0,0:0:0:0:
64,192,28741,1,0,0:0:0:0:
448,192,28741,1,0,0:0:0:0:
320,192,28741,1,0,0:0:0:0:
192,192,28847,1,0,0:0:0:0:
448,192,28952,1,0,0:0:0:0:
64,192,28952,1,0,0:0:0:0:
320,192,29163,1,0,0:0:0:0:
192,192,29163,1,0,0:0:0:0:
64,192,29163,1,0,0:0:0:0:
448,192,29269,1,0,0:0:0:0:
320,192,29269,1,0,0:0:0:0:
192,192,29375,1,0,0:0:0:0:
64,192,29480,1,0,0:0:0:0:
320,192,29480,1,0,0:0:0:0:
192,192,29586,1,0,0:0:0:0:
448,192,29586,1,0,0:0:0:0:
320,192,29692,1,0,0:0:0:0:
192,192,29797,1,0,0:0:0:0:
448,192,29797,1,0,0:0:0:0:
320,192,30009,1,0,0:0:0:0:
64,192,30009,1,0,0:0:0:0:
320,192,30220,1,0,0:0:0:0:
192,192,30431,1,0,0:0:0:0:
64,192,30431,1,0,0:0:0:0:
448,192,30431,1,0,0:0:0:0:
320,192,30537,1,0,0:0:0:0:
448,192,30642,1,0,0:0:0:0:
320,192,30854,1,0,0:0:0:0:
64,192,30854,1,0,0:0:0:0:
192,192,30959,1,0,0:0:0:0:
448,192,31065,1,0,0:0:0:0:
64,192,31170,1,0,0:0:0:0:
192,192,31170,1,0,0:0:0:0:
320,192,31276,1,0,0:0:0:0:
448,192,31276,1,0,0:0:0:0:
192,192,31382,1,0,0:0:0:0:
320,192,31487,1,0,0:0:0:0:
320,192,31699,1,0,0:0:0:0:
64,192,31699,1,0,0:0:0:0:
192,192,31804,1,0,0:0:0:0:
320,192,31910,1,0,0:0:0:0:
192,192,32016,1,0,0:0:0:0:
448,192,32121,1,0,0:0:0:0:
320,192,32121,1,0,0:0:0:0:
64,192,32121,1,0,0:0:0:0:
192,192,32227,1,0,0:0:0:0:
320,192,32332,1,0,0:0:0:0:
64,192,32332,1,0,0:0:0:0:
448,192,32544,1,0,0:0:0:0:
192,192,32544,1,0,0:0:0:0:
320,192,32649,1,0,0:0:0:0:
192,192,32861,1,0,0:0:0:0:
320,192,32966,1,0,0:0:0:0:
448,192,32966,1,0,0:0:0:0:
192,192,33072,1,0,0:0:0:0:
64,192,33178,1,0,0:0:0:0:
320,192,33389,1,0,0:0:0:0:
192,192,33389,1,0,0:0:0:0:
192,192,33600,1,0,0:0:0:0:
192,192,33811,1,0,0:0:0:0:
448,192,33811,1,0,0:0:0:0:
320,192,33811,1,0,0:0:0:0:
64,192,33917,1,0,0:0:0:0:
192,192,34023,1,0,0:0:0:0:
448,192,34234,1,0,0:0:0:0:
320,192,34234,1,0,0:0:0:0:
64,192,34234,1,0,0:0:0:0:
320,192,34339,1,0,0:0:0:0:
192,192,34339,1,0,0:0:0:0:
448,192,34445,1,0,0:0:0:0:
192,192,34551,1,0,0:0:0:0:
448,192,34656,1,0,0:0:0:0:
64,192,34656,1,0,0:0:0:0:
320,192,34762,1,0,0:0:0:0:
192,192,34762,1,0,0:0:0:0:
64,192,34868,1,0,0:0:0:0:
64,192,35079,1,0,0:0:0:0:
448,192,35079,1,0,0:0:0:0:
192,192,35185,1,0,0:0:0:0:
320,192,35290,1,0,0:0:0:0:
192,192,35396,1,0,0:0:0:0:
64,192,35501,1,0,0:0:0:0:
448,192,35501,1,0,0:0:0:0:
320,192,35501,1,0,0:0:0:0:
192,192,35607,1,0,0:0:0:0:
448,192,35713,1,0,0:0:0:0:
64,192,35713,1,0,0:0:0:0:
320,192,35924,1,0,0:0:0:0:
192,192,35924,1,0,0:0:0:0:
64,192,35924,1,0,0:0:0:0:
448,192,36030,1,0,0:0:0:0:
320,192,36030,1,0,0:0:0:0:
192,192,36135,1,0,0:0:0:0:
64,192,36241,1,0,0:0:0:0:
320,192,36241,1,0,0:0:0:0:
192,192,36347,1,0,0:0:0:0:
448,192,36347,1,0,0:0:0:0:
320,192,36452,1,0,0:0:0:0:
192,192,36558,1,0,0:0:0:0:
448,192,36558,1,0,0:0:0:0:
320,192,36769,1,0,0:0:0:0:
64,192,36769,1,0,0:0:0:0:
320,192,36980,1,0,0:0:0:0:
192,192,37192,1,0,0:0:0:0:
64,192,37192,1,0,0:0:0:0:
448,192,37192,1,0,0:0:0:0:
320,192,37297,1,0,0:0:0:0:
448,192,37403,1,0,0:0:0:0:
320,192,37614,1,0,0:0:0:0:
64,192,37614,1,0,0:0:0:0:
192,192,37720,1,0,0:0:0:0:
448,192,37825,1,0,0:0:0:0:
64,192,37931,1,0,0:0:0:0:
192,192,37931,1,0,0:0:0:0:
320,192,38037,1,0,0:0:0:0:
448,192,38037,1,0,0:0:0:0:
192,192,38142,1,0,0:0:0:0:
320,192,38248,1,0,0:0:0:0:
320,192,38459,1,0,0:0:0:0:
64,192,38459,1,0,0:0:0:0:
192,192,38565,1,0,0:0:0:0:
320,192,38670,1,0,0:0:0:0:
192,192,38776,1,0,0:0:0:0:
448,192,38882,1,0,0:0:0:0:
320,192,38882,1,0,0:0:0:0:
64,192,38882,1,0,0:0:0:0:
192,192,38987,1,0,0:0:0:0:
320,192,39093,1,0,0:0:0:0:
64,192,39093,1,0,0:0:0:0:
448,192,39304,1,0,0:0:0:0:
192,192,39304,1,0,0:0:0:0:
320,192,39410,5,0,0:0:0:0:
192,192,39621,1,0,0:0:0:0:
320,192,39727,1,0,0:0:0:0:
448,192,39727,1,0,0:0:0:0:
192,192,39832,1,0,0:0:0:0:
64,192,39938,1,0,0:0:0:0:
320,192,40149,1,0,0:0:0:0:
192,192,40149,1,0,0:0:0:0:
192,192,40361,1,0,0:0:0:0:
448,192,40572,5,0,0:0:0:0:
192,192,40572,1,0,0:0:0:0:
64,192,40572,1,0,0:0:0:0:
192,192,40783,1,0,0:0:0:0:
320,192,40783,1,0,0:0:0:0:
448,192,40994,1,0,0:0:0:0:
192,192,40994,1,0,0:0:0:0:
64,192,40994,1,0,0:0:0:0:
320,192,41206,1,0,0:0:0:0:
448,192,41206,1,0,0:0:0:0:
320,192,41417,1,0,0:0:0:0:
192,192,41417,1,0,0:0:0:0:
64,192,41417,1,0,0:0:0:0:
192,192,41628,1,0,0:0:0:0:
320,192,41628,1,0,0:0:0:0:
64,192,41839,1,0,0:0:0:0:
320,192,41839,1,0,0:0:0:0:
448,192,41839,1,0,0:0:0:0:
192,192,42051,1,0,0:0:0:0:
64,192,42051,1,0,0:0:0:0:
320,192,42262,1,0,0:0:0:0:
448,192,42262,1,0,0:0:0:0:
64,192,42262,1,0,0:0:0:0:
192,192,42368,1,0,0:0:0:0:
320,192,42473,1,0,0:0:0:0:
64,192,42473,1,0,0:0:0:0:
192,192,42579,1,0,0:0:0:0:
448,192,42685,1,0,0:0:0:0:
320,192,42685,1,0,0:0:0:0:
64,192,42685,1,0,0:0:0:0:
320,192,42896,1,0,0:0:0:0:
64,192,42896,1,0,0:0:0:0:
64,192,43107,1,0,0:0:0:0:
192,192,43107,1,0,0:0:0:0:
448,192,43107,1,0,0:0:0:0:
320,192,43213,1,0,0:0:0:0:
448,192,43318,1,0,0:0:0:0:
192,192,43318,1,0,0:0:0:0:
320,192,43424,1,0,0:0:0:0:
192,192,43530,1,0,0:0:0:0:
64,192,43530,1,0,0:0:0:0:
448,192,43530,1,0,0:0:0:0:
192,192,43741,1,0,0:0:0:0:
320,192,43741,1,0,0:0:0:0:
64,192,43952,5,0,0:0:0:0:
320,192,43952,1,0,0:0:0:0:
448,192,43952,1,0,0:0:0:0:
320,192,44163,1,0,0:0:0:0:
192,192,44163,1,0,0:0:0:0:
64,192,44375,1,0,0:0:0:0:
320,192,44375,1,0,0:0:0:0:
448,192,44375,1,0,0:0:0:0:
192,192,44586,1,0,0:0:0:0:
64,192,44586,1,0,0:0:0:0:
192,192,44797,1,0,0:0:0:0:
320,192,44797,1,0,0:0:0:0:
448,192,44797,1,0,0:0:0:0:
320,192,45009,1,0,0:0:0:0:
192,192,45009,1,0,0:0:0:0:
448,192,45220,1,0,0:0:0:0:
192,192,45220,1,0,0:0:0:0:
64,192,45220,1,0,0:0:0:0:
320,192,45431,1,0,0:0:0:0:
448,192,45431,1,0,0:0:0:0:
192,192,45642,1,0,0:0:0:0:
64,192,45642,1,0,0:0:0:0:
448,192,45642,1,0,0:0:0:0:
320,192,45748,1,0,0:0:0:0:
192,192,45854,1,0,0:0:0:0:
448,192,45854,1,0,0:0:0:0:
320,192,45959,1,0,0:0:0:0:
64,192,46065,1,0,0:0:0:0:
192,192,46065,1,0,0:0:0:0:
448,192,46065,1,0,0:0:0:0:
192,192,46276,1,0,0:0:0:0:
448,192,46276,1,0,0:0:0:0:
448,192,46487,1,0,0:0:0:0:
320,192,46487,1,0,0:0:0:0:
64,192,46487,1,0,0:0:0:0:
192,192,46593,1,0,0:0:0:0:
64,192,46699,1,0,0:0:0:0:
320,192,46699,1,0,0:0:0:0:
192,192,46804,1,0,0:0:0:0:
320,192,46910,1,0,0:0:0:0:
448,192,46910,1,0,0:0:0:0:
64,192,46910,1,0,0:0:0:0:
320,192,47121,1,0,0:0:0:0:
192,192,47121,1,0,0:0:0:0:
448,192,47332,5,0,0:0:0:0:
192,192,47332,1,0,0:0:0:0:
64,192,47332,1,0,0:0:0:0:
192,192,47544,1,0,0:0:0:0:
320,192,47544,1,0,0:0:0:0:
448,192,47755,1,0,0:0:0:0:
192,192,47755,1,0,0:0:0:0:
64,192,47755,1,0,0:0:0:0:
320,192,47966,1,0,0:0:0:0:
448,192,47966,1,0,0:0:0:0:
320,192,48178,1,0,0:0:0:0:
192,192,48178,1,0,0:0:0:0:
64,192,48178,1,0,0:0:0:0:
192,192,48389,1,0,0:0:0:0:
320,192,48389,1,0,0:0:0:0:
64,192,48600,1,0,0:0:0:0:
320,192,48600,1,0,0:0:0:0:
448,192,48600,1,0,0:0:0:0:
192,192,48811,1,0,0:0:0:0:
64,192,48811,1,0,0:0:0:0:
320,192,49023,1,0,0:0:0:0:
448,192,49023,1,0,0:0:0:0:
64,192,49023,1,0,0:0:0:0:
192,192,49128,1,0,0:0:0:0:
320,192,49234,1,0,0:0:0:0:
64,192,49234,1,0,0:0:0:0:
192,192,49339,1,0,0:0:0:0:
448,192,49445,1,0,0:0:0:0:
320,192,49445,1,0,0:0:0:0:
64,192,49445,1,0,0:0:0:0:
320,192,49656,1,0,0:0:0:0:
64,192,49656,1,0,0:0:0:0:
64,192,49868,1,0,0:0:0:0:
192,192,49868,1,0,0:0:0:0:
448,192,49868,1,0,0:0:0:0:
320,192,49973,1,0,0:0:0:0:
448,192,50079,1,0,0:0:0:0:
192,192,50079,1,0,0:0:0:0:
320,192,50185,1,0,0:0:0:0:
192,192,50290,1,0,0:0:0:0:
64,192,50290,1,0,0:0:0:0:
448,192,50290,1,0,0:0:0:0:
192,192,50501,1,0,0:0:0:0:
320,192,50501,1,0,0:0:0:0:
64,192,50713,5,0,0:0:0:0:
320,192,50713,1,0,0:0:0:0:
448,192,50713,1,0,0:0:0:0:
320,192,50924,1,0,0:0:0:0:
192,192,50924,1,0,0:0:0:0:
64,192,51135,1,0,0:0:0:0:
320,192,51135,1,0,0:0:0:0:
448,192,51135,1,0,0:0:0:0:
192,192,51347,1,0,0:0:0:0:
64,192,51347,1,0,0:0:0:0:
192,192,51558,1,0,0:0:0:0:
320,192,51558,1,0,0:0:0:0:
448,192,51558,1,0,0:0:0:0:
320,192,51769,1,0,0:0:0:0:
192,192,51769,1,0,0:0:0:0:
448,192,51980,1,0,0:0:0:0:
192,192,51980,1,0,0:0:0:0:
64,192,51980,1,0,0:0:0:0:
320,192,52192,1,0,0:0:0:0:
448,192,52192,1,0,0:0:0:0:
192,192,52403,1,0,0:0:0:0:
64,192,52403,1,0,0:0:0:0:
448,192,52403,1,0,0:0:0:0:
320,192,52509,1,0,0:0:0:0:
192,192,52614,1,0,0:0:0:0:
448,192,52614,1,0,0:0:0:0:
320,192,52720,1,0,0:0:0:0:
64,192,52825,1,0,0:0:0:0:
192,192,52825,1,0,0:0:0:0:
448,192,52825,1,0,0:0:0:0:
192,192,53037,1,0,0:0:0:0:
448,192,53037,1,0,0:0:0:0:
448,192,53248,1,0,0:0:0:0:
320,192,53248,1,0,0:0:0:0:
192,192,53354,1,0,0:0:0:0:
64,192,53354,1,0,0:0:0:0:
320,192,53459,1,0,0:0:0:0:
448,192,53459,1,0,0:0:0:0:
192,192,53565,1,0,0:0:0:0:
64,192,53565,1,0,0:0:0:0:
448,192,53670,1,0,0:0:0:0:
320,192,53670,1,0,0:0:0:0:
192,192,53670,1,0,0:0:0:0:
320,192,53882,1,0,0:0:0:0:
192,192,53882,1,0,0:0:0:0:
64,192,53882,1,0,0:0:0:0:
320,192,54093,1,0,0:0:0:0:
64,192,54093,1,0,0:0:0:0:
192,192,54093,1,0,0:0:0:0:
448,192,54199,1,0,0:0:0:0:
320,192,54304,1,0,0:0:0:0:
64,192,54516,1,0,0:0:0:0:
192,192,54516,1,0,0:0:0:0:
448,192,54516,1,0,0:0:0:0:
192,192,54621,1,0,0:0:0:0:
320,192,54621,1,0,0:0:0:0:
64,192,54727,1,0,0:0:0:0:
320,192,54832,1,0,0:0:0:0:
64,192,54938,1,0,0:0:0:0:
448,192,54938,1,0,0:0:0:0:
192,192,55044,1,0,0:0:0:0:
320,192,55044,1,0,0:0:0:0:
448,192,55149,1,0,0:0:0:0:
448,192,55361,1,0,0:0:0:0:
64,192,55361,1,0,0:0:0:0:
320,192,55466,1,0,0:0:0:0:
192,192,55572,1,0,0:0:0:0:
320,192,55678,1,0,0:0:0:0:
448,192,55783,1,0,0:0:0:0:
64,192,55783,1,0,0:0:0:0:
192,192,55783,1,0,0:0:0:0:
320,192,55889,1,0,0:0:0:0:
64,192,55994,1,0,0:0:0:0:
448,192,55994,1,0,0:0:0:0:
192,192,56206,1,0,0:0:0:0:
320,192,56206,1,0,0:0:0:0:
448,192,56206,1,0,0:0:0:0:
64,192,56311,1,0,0:0:0:0:
192,192,56311,1,0,0:0:0:0:
320,192,56417,1,0,0:0:0:0:
448,192,56523,1,0,0:0:0:0:
192,192,56523,1,0,0:0:0:0:
320,192,56628,1,0,0:0:0:0:
64,192,56628,1,0,0:0:0:0:
192,192,56734,1,0,0:0:0:0:
320,192,56839,1,0,0:0:0:0:
64,192,56839,1,0,0:0:0:0:
192,192,57051,1,0,0:0:0:0:
448,192,57051,1,0,0:0:0:0:
192,192,57262,1,0,0:0:0:0:
320,192,57473,1,0,0:0:0:0:
448,192,57473,1,0,0:0:0:0:
64,192,57473,1,0,0:0:0:0:
192,192,57579,1,0,0:0:0:0:
64,192,57685,1,0,0:0:0:0:
192,192,57896,1,0,0:0:0:0:
448,192,57896,1,0,0:0:0:0:
320,192,58001,1,0,0:0:0:0:
64,192,58107,1,0,0:0:0:0:
448,192,58213,1,0,0:0:0:0:
320,192,58213,1,0,0:0:0:0:
192,192,58318,1,0,0:0:0:0:
64,192,58318,1,0,0:0:0:0:
320,192,58424,1,0,0:0:0:0:
192,192,58530,1,0,0:0:0:0:
192,192,58741,1,0,0:0:0:0:
448,192,58741,1,0,0:0:0:0:
320,192,58847,1,0,0:0:0:0:
192,192,58952,1,0,0:0:0:0:
320,192,59058,1,0,0:0:0:0:
64,192,59163,1,0,0:0:0:0:
192,192,59163,1,0,0:0:0:0:
448,192,59163,1,0,0:0:0:0:
320,192,59269,1,0,0:0:0:0:
192,192,59375,1,0,0:0:0:0:
448,192,59375,1,0,0:0:0:0:
64,192,59586,1,0,0:0:0:0:
320,192,59586,1,0,0:0:0:0:
192,192,59692,1,0,0:0:0:0:
320,192,59903,1,0,0:0:0:0:
192,192,60009,1,0,0:0:0:0:
64,192,60009,1,0,0:0:0:0:
320,192,60114,1,0,0:0:0:0:
448,192,60220,1,0,0:0:0:0:
192,192,60431,1,0,0:0:0:0:
320,192,60431,1,0,0:0:0:0:
320,192,60642,1,0,0:0:0:0:
320,192,60854,1,0,0:0:0:0:
64,192,60854,1,0,0:0:0:0:
192,192,60854,1,0,0:0:0:0:
448,192,60959,1,0,0:0:0:0:
320,192,61065,1,0,0:0:0:0:
64,192,61276,1,0,0:0:0:0:
192,192,61276,1,0,0:0:0:0:
448,192,61276,1,0,0:0:0:0:
192,192,61382,1,0,0:0:0:0:
320,192,61382,1,0,0:0:0:0:
64,192,61487,1,0,0:0:0:0:
320,192,61593,1,0,0:0:0:0:
64,192,61699,1,0,0:0:0:0:
448,192,61699,1,0,0:0:0:0:
192,192,61804,1,0,0:0:0:0:
320,192,61804,1,0,0:0:0:0:
448,192,61910,1,0,0:0:0:0:
448,192,62121,1,0,0:0:0:0:
64,192,62121,1,0,0:0:0:0:
320,192,62227,1,0,0:0:0:0:
192,192,62332,1,0,0:0:0:0:
320,192,62438,1,0,0:0:0:0:
448,192,62544,1,0,0:0:0:0:
64,192,62544,1,0,0:0:0:0:
192,192,62544,1,0,0:0:0:0:
320,192,62649,1,0,0:0:0:0:
64,192,62755,1,0,0:0:0:0:
448,192,62755,1,0,0:0:0:0:
192,192,62966,1,0,0:0:0:0:
320,192,62966,1,0,0:0:0:0:
448,192,62966,1,0,0:0:0:0:
64,192,63072,1,0,0:0:0:0:
192,192,63072,1,0,0:0:0:0:
320,192,63178,1,0,0:0:0:0:
448,192,63283,1,0,0:0:0:0:
192,192,63283,1,0,0:0:0:0:
320,192,63389,1,0,0:0:0:0:
64,192,63389,1,0,0:0:0:0:
192,192,63494,1,0,0:0:0:0:
320,192,63600,1,0,0:0:0:0:
64,192,63600,1,0,0:0:0:0:
192,192,63811,1,0,0:0:0:0:
448,192,63811,1,0,0:0:0:0:
192,192,64023,1,0,0:0:0:0:
320,192,64234,1,0,0:0:0:0:
448,192,64234,1,0,0:0:0:0:
64,192,64234,1,0,0:0:0:0:
192,192,64339,1,0,0:0:0:0:
64,192,64445,1,0,0:0:0:0:
192,192,64656,1,0,0:0:0:0:
448,192,64656,1,0,0:0:0:0:
320,192,64762,1,0,0:0:0:0:
64,192,64868,1,0,0:0:0:0:
448,192,64973,1,0,0:0:0:0:
320,192,64973,1,0,0:0:0:0:
192,192,65079,1,0,0:0:0:0:
64,192,65079,1,0,0:0:0:0:
320,192,65185,1,0,0:0:0:0:
192,192,65290,1,0,0:0:0:0:
192,192,65501,1,0,0:0:0:0:
448,192,65501,1,0,0:0:0:0:
320,192,65607,1,0,0:0:0:0:
192,192,65713,1,0,0:0:0:0:
320,192,65818,1,0,0:0:0:0:
64,192,65924,1,0,0:0:0:0:
192,192,65924,1,0,0:0:0:0:
448,192,65924,1,0,0:0:0:0:
320,192,66030,1,0,0:0:0:0:
192,192,66135,1,0,0:0:0:0:
448,192,66135,1,0,0:0:0:0:
64,192,66347,1,0,0:0:0:0:
320,192,66347,1,0,0:0:0:0:
192,192,66452,5,0,0:0:0:0:
320,192,66663,1,0,0:0:0:0:
192,192,66769,1,0,0:0:0:0:
64,192,66769,1,0,0:0:0:0:
320,192,66875,1,0,0:0:0:0:
448,192,66980,1,0,0:0:0:0:
192,192,67192,1,0,0:0:0:0:
320,192,67192,1,0,0:0:0:0:
320,192,67403,1,0,0:0:0:0:
448,192,67614,5,0,0:0:0:0:
64,192,67614,1,0,0:0:0:0:
320,192,67614,1,0,0:0:0:0:
192,192,67825,1,0,0:0:0:0:
320,192,68036,1,0,0:0:0:0:
192,192,68247,1,0,0:0:0:0:
448,192,68459,1,0,0:0:0:0:
64,192,68459,1,0,0:0:0:0:
320,192,68670,1,0,0:0:0:0:
192,192,68881,1,0,0:0:0:0:
320,192,69092,1,0,0:0:0:0:
64,192,69304,1,0,0:0:0:0:
192,192,69304,1,0,0:0:0:0:
320,192,69515,1,0,0:0:0:0:
192,192,69726,1,0,0:0:0:0:
64,192,69937,1,0,0:0:0:0:
192,192,70149,1,0,0:0:0:0:
320,192,70149,1,0,0:0:0:0:
448,192,70149,1,0,0:0:0:0:
64,192,70360,1,0,0:0:0:0:
320,192,70571,1,0,0:0:0:0:
192,192,70783,1,0,0:0:0:0:
448,192,70994,1,0,0:0:0:0:
64,192,70994,1,0,0:0:0:0:
320,192,71205,1,0,0:0:0:0:
192,192,71416,1,0,0:0:0:0:
448,192,71628,1,0,0:0:0:0:
320,192,71839,1,0,0:0:0:0:
192,192,71839,1,0,0:0:0:0:
64,192,71839,1,0,0:0:0:0:
448,192,72050,1,0,0:0:0:0:
192,192,72261,1,0,0:0:0:0:
320,192,72473,1,0,0:0:0:0:
192,192,72684,1,0,0:0:0:0:
448,192,72684,1,0,0:0:0:0:
320,192,72895,1,0,0:0:0:0:
64,192,73106,1,0,0:0:0:0:
192,192,73318,1,0,0:0:0:0:
320,192,73529,1,0,0:0:0:0:
448,192,73529,1,0,0:0:0:0:
64,192,73529,1,0,0:0:0:0:
192,192,73740,1,0,0:0:0:0:
320,192,73952,1,0,0:0:0:0:
448,192,74163,1,0,0:0:0:0:
320,192,74374,1,0,0:0:0:0:
192,192,74374,1,0,0:0:0:0:
64,192,74585,1,0,0:0:0:0:
320,192,74797,1,0,0:0:0:0:
192,192,75008,1,0,0:0:0:0:
448,192,75219,1,0,0:0:0:0:
320,192,75219,1,0,0:0:0:0:
64,192,75219,1,0,0:0:0:0:
192,192,75430,1,0,0:0:0:0:
320,192,75642,1,0,0:0:0:0:
448,192,75853,1,0,0:0:0:0:
320,192,76064,1,0,0:0:0:0:
64,192,76064,1,0,0:0:0:0:
192,192,76275,1,0,0:0:0:0:
320,192,76487,1,0,0:0:0:0:
192,192,76698,1,0,0:0:0:0:
448,192,76909,5,0,0:0:0:0:
64,192,76909,1,0,0:0:0:0:
320,192,76909,1,0,0:0:0:0:
