osu file format v14

[General]
AudioFilename: audio.mp3
AudioLeadIn: 0
PreviewTime: 50868
Countdown: 1
SampleSet: Normal
StackLeniency: 0.7
Mode: 0
LetterboxInBreaks: 0
WidescreenStoryboard: 0

[Editor]
DistanceSpacing: 1.7
BeatDivisor: 6
GridSize: 4
TimelineZoom: 1.2

[Metadata]
Title:Glorious morning
TitleUnicode:Glorious morning
Artist:Waterflame
ArtistUnicode:Waterflame
Creator:Muukeh
Version:Future Age
Source:Age of War
Tags:
BeatmapID:1739502
BeatmapSetID:830224

[Difficulty]
HPDrainRate:4
CircleSize:4.1
OverallDifficulty:8.7
ApproachRate:9.7
SliderMultiplier:2.2
SliderTickRate:1

[Events]
//Background and Video events
0,0,"age of war.jpg",0,0
//Break Periods
//Storyboard Layer 0 (Background)
//Storyboard Layer 1 (Fail)
//Storyboard Layer 2 (Pass)
//Storyboard Layer 3 (Foreground)
//Storyboard Layer 4 (Overlay)
//Storyboard Sound Samples

[TimingPoints]
350,1578.94736842105,4,1,0,25,1,0
4560,-50,4,1,0,25,0,0
9823,-75.187969924812,4,1,0,25,0,0
25613,3157.89473684211,4,1,0,80,1,0
25613,-303.030303030303,4,1,0,80,0,0
26007,-263.157894736842,4,1,0,70,0,0
26401,-227.272727272727,4,1,0,60,0,0
26796,-188.679245283019,4,1,0,50,0,0
27191,-151.515151515152,4,1,0,40,0,0
27586,-113.636363636364,4,1,0,30,0,0
27980,-75.7575757575758,4,1,0,20,0,0
28375,-37.8787878787879,4,1,0,10,0,0
31928,394.736842105263,4,1,0,10,1,0
31928,-133.333333333333,4,1,0,40,0,0
38243,-100,4,1,0,50,0,0
50875,-133.333333333333,4,1,0,40,0,0
63506,-100,4,1,0,50,0,0
76138,-80,4,1,0,60,0,1
101401,-133.333333333333,4,1,0,40,0,0

[HitObjects]
61,87,350,5,0,0:0:0:0:
221,153,744,1,0,0:0:0:0:
72,98,1007,1,0,0:0:0:0:
451,87,1928,5,0,0:0:0:0:
291,153,2323,1,0,0:0:0:0:
440,98,2586,1,0,0:0:0:0:
412,253,3113,1,0,0:0:0:0:
227,323,3507,5,0,0:0:0:0:
291,153,3902,1,0,0:0:0:0:
245,316,4165,1,0,0:0:0:0:
121,202,4560,2,0,L|117:166,1,36.6666666666667
300,102,5086,5,0,0:0:0:0:
315,312,5481,1,0,0:0:0:0:
280,128,5744,1,0,0:0:0:0:
129,268,6271,1,0,0:0:0:0:
392,258,6665,5,0,0:0:0:0:
200,334,7060,1,0,0:0:0:0:
378,285,7323,1,0,0:0:0:0:
392,126,8244,5,0,0:0:0:0:
200,50,8639,1,0,0:0:0:0:
378,99,8902,1,0,0:0:0:0:
245,223,9428,1,0,0:0:0:0:
36,296,9823,6,0,P|122:240|136:56,1,293.330409100333
25,200,10218,1,0,0:0:0:0:
132,225,10481,1,0,0:0:0:0:
75,134,11007,1,0,0:0:0:0:
139,62,11402,6,0,P|198:70|103:121,1,293.330409100333
267,20,11797,1,0,0:0:0:0:
220,123,12060,1,0,0:0:0:0:
39,190,12586,1,0,0:0:0:0:
103,123,12981,6,0,B|133:150|141:205|122:236|122:236|132:293|132:293|243:306,1,292.599987945252
39,190,13376,1,0,0:0:0:0:
122,236,13639,1,0,0:0:0:0:
245,306,14560,6,0,B|239:266|286:211|352:230|352:230|335:121|335:121|352:96,1,292.599987945252
326,308,14955,1,0,0:0:0:0:
321,227,15218,1,0,0:0:0:0:
258,156,15744,1,0,0:0:0:0:
351,97,16139,6,0,B|497:129|497:129|466:164|460:226|492:262,1,292.599987945252
391,204,16534,1,0,0:0:0:0:
469,123,16797,1,0,0:0:0:0:
391,204,17192,1,0,0:0:0:0:
391,204,17324,1,0,0:0:0:0:
491,263,17718,6,0,B|382:301|382:301|203:284,1,292.599987945252
459,381,18113,1,0,0:0:0:0:
381,300,18376,1,0,0:0:0:0:
246,204,18902,1,0,0:0:0:0:
205,284,19297,6,0,B|127:278|127:278|83:332|83:332|46:263|46:263|88:207,1,292.599987945252
165,364,19692,1,0,0:0:0:0:
99,312,19955,1,0,0:0:0:0:
85,209,20876,6,0,B|50:145|50:145|74:103|74:103|126:137|195:125|236:64,1,292.599987945252
3,49,21270,1,0,0:0:0:0:
73,103,21533,1,0,0:0:0:0:
137,32,22059,1,0,0:0:0:0:
226,76,22455,6,0,B|250:107|301:118|342:102|342:102|368:53|368:53|406:67|451:66|451:66|432:83,1,292.599987945252
291,199,22849,1,0,0:0:0:0:
337,104,23112,1,0,0:0:0:0:
431,83,24033,6,0,B|406:126|412:187|437:222|437:222|412:208|384:204|384:204|368:229|328:243|292:233,1,292.599987945252
510,149,24428,1,0,0:0:0:0:
404,293,24691,1,0,0:0:0:0:
320,155,25217,1,0,0:0:0:0:
304,235,25613,6,0,L|172:168,1,145.199999556885
286,263,26007,6,0,L|170:165,1,146.299998214111
262,283,26401,6,0,L|171:164,1,145.200004431153
234,300,26796,6,0,L|171:163,1,145.750000222397
204,309,27192,6,0,L|171:159,1,145.199999556885
172,312,27586,6,0,L|172:155,1,145.200004431153
141,308,27980,6,0,L|173:158,1,145.199999556885
112,298,28375,6,0,L|174:158,1,145.199999556885
170,165,31928,5,0,0:0:0:0:
453,142,32321,2,0,P|455:172|466:204,2,55.0000020980836
506,55,32717,2,0,P|445:37|362:86,1,165.000006294251
263,330,33506,5,0,0:0:0:0:
22,247,33901,1,0,0:0:0:0:
25,256,34033,1,0,0:0:0:0:
29,265,34164,1,0,0:0:0:0:
108,288,34296,2,0,P|55:243|38:188,1,110.000004196167
52,122,34691,2,0,L|90:107,5,27.5000010490418
155,130,35085,5,0,0:0:0:0:
382,208,35480,1,0,0:0:0:0:
375,240,35612,1,0,0:0:0:0:
368,272,35743,1,0,0:0:0:0:
258,351,35875,2,0,B|266:333|285:320|308:319|308:319|333:350|378:357|411:336,1,165.000006294251
241,57,36664,5,0,0:0:0:0:
90,143,37059,1,0,0:0:0:0:
129,181,37191,1,0,0:0:0:0:
181,170,37322,1,0,0:0:0:0:
227,252,37454,2,0,P|177:255|122:287,1,110.000004196167
35,357,37849,2,0,L|39:322,5,27.5000010490418
47,246,38243,6,0,P|60:209|56:174,1,73.3333333333333
26,89,38506,1,0,0:0:0:0:
187,49,38638,2,0,P|201:91|195:134,1,73.3333333333333
114,103,38901,1,0,0:0:0:0:
286,49,39033,6,0,L|305:124,1,73.3333333333333
348,221,39296,1,0,0:0:0:0:
260,269,39428,2,0,P|251:232|256:191,1,73.3333333333333
304,120,39691,1,0,0:0:0:0:
418,151,39822,6,0,P|456:151|493:137,2,73.3333333333333
388,255,40217,2,0,P|417:279|452:290,2,73.3333333333333
278,205,40612,5,0,0:0:0:0:
171,231,40743,1,0,0:0:0:0:
248,301,40875,1,0,0:0:0:0:
77,268,41006,1,0,0:0:0:0:
70,247,41072,1,0,0:0:0:0:
66,225,41138,1,0,0:0:0:0:
67,202,41204,1,0,0:0:0:0:
72,180,41270,1,0,0:0:0:0:
82,161,41335,1,0,0:0:0:0:
96,144,41401,6,0,B|132:127|132:127|170:132,2,73.3333333333333
162,229,41796,1,0,0:0:0:0:
245,184,41928,1,0,0:0:0:0:
165,131,42059,1,0,0:0:0:0:
342,166,42191,6,0,B|347:202|347:202|330:241,1,73.3333333333333
191,335,42454,1,0,0:0:0:0:
6,288,42585,2,0,L|90:283,1,73.3333333333333
162,229,42849,1,0,0:0:0:0:
246,121,42980,5,0,0:0:0:0:
281,189,43112,1,0,0:0:0:0:
326,102,43231,1,0,0:0:0:0:
381,267,43375,1,0,0:0:0:0:
266,264,43506,1,0,0:0:0:0:
324,323,43638,1,0,0:0:0:0:
174,262,43770,6,0,P|128:262|94:280,1,73.3333333333333
43,354,44033,1,0,0:0:0:0:
265,315,44164,1,0,0:0:0:0:
274,294,44230,1,0,0:0:0:0:
278,272,44296,1,0,0:0:0:0:
276,249,44362,1,0,0:0:0:0:
266,229,44428,1,0,0:0:0:0:
251,212,44493,1,0,0:0:0:0:
231,200,44559,5,0,0:0:0:0:
91,174,44691,1,0,0:0:0:0:
130,87,44822,1,0,0:0:0:0:
155,243,44954,1,0,0:0:0:0:
221,136,45085,1,0,0:0:0:0:
211,315,45217,1,0,0:0:0:0:
294,214,45349,6,0,B|328:202|328:202|370:207,2,73.3333333333333
121,321,45743,2,0,P|84:334|43:327,1,73.3333333333333
182,219,46006,1,0,0:0:0:0:
358,298,46138,2,0,P|356:336|347:370,2,73.3333333333333
283,138,46533,5,0,0:0:0:0:
241,292,46664,1,0,0:0:0:0:
131,120,46796,1,0,0:0:0:0:
259,304,46927,2,0,P|302:311|346:299,1,73.3333333333333
418,169,47191,1,0,0:0:0:0:
283,138,47322,1,0,0:0:0:0:
291,166,47388,1,0,0:0:0:0:
299,194,47454,1,0,0:0:0:0:
307,222,47520,1,0,0:0:0:0:
315,250,47585,1,0,0:0:0:0:
323,278,47651,1,0,0:0:0:0:
331,306,47717,5,0,0:0:0:0:
232,265,47849,1,0,0:0:0:0:
172,337,47980,1,0,0:0:0:0:
131,228,48112,1,0,0:0:0:0:
240,285,48243,1,0,0:0:0:0:
198,152,48375,1,0,0:0:0:0:
315,250,48506,5,0,0:0:0:0:
113,229,48638,1,0,0:0:0:0:
290,146,48770,1,0,0:0:0:0:
101,109,48901,1,0,0:0:0:0:
214,270,49033,1,0,0:0:0:0:
305,125,49164,1,0,0:0:0:0:
446,271,49296,5,0,0:0:0:0:
479,106,49428,1,0,0:0:0:0:
479,106,49493,1,0,0:0:0:0:
479,106,49559,1,0,0:0:0:0:
326,26,49691,1,0,0:0:0:0:
388,176,49822,1,0,0:0:0:0:
326,321,49954,1,0,0:0:0:0:
218,141,50085,5,0,0:0:0:0:
132,333,50217,1,0,0:0:0:0:
132,333,50283,1,0,0:0:0:0:
132,333,50349,1,0,0:0:0:0:
318,232,50480,1,0,0:0:0:0:
205,51,50612,1,0,0:0:0:0:
25,162,50743,1,0,0:0:0:0:
132,333,50875,6,0,P|196:323|249:334,1,110.000004196167
331,345,51270,2,0,P|323:318|322:284,2,55.0000020980836
400,248,51664,2,0,P|362:215|297:209,1,110.000004196167
230,280,52059,2,0,P|259:241|266:166,1,110.000004196167
202,54,52454,6,0,B|145:51|145:51|89:74,1,110.000004196167
28,127,52849,1,0,0:0:0:0:
94,231,52980,1,0,0:0:0:0:
115,156,53112,1,0,0:0:0:0:
26,264,53243,2,0,B|20:304|20:304|37:337|84:340,1,110.000004196167
147,298,53638,2,0,L|174:293,5,27.5000010490418
248,327,54033,6,0,P|276:277|276:206,1,110.000004196167
210,153,54427,1,0,0:0:0:0:
301,188,54559,1,0,0:0:0:0:
380,130,54691,1,0,0:0:0:0:
290,81,54822,2,0,P|287:134|312:207,1,110.000004196167
413,282,55217,2,0,P|355:276|284:289,1,110.000004196167
178,367,55612,6,0,P|174:319|148:249,1,110.000004196167
172,173,56006,1,0,0:0:0:0:
253,266,56138,1,0,0:0:0:0:
257,148,56270,1,0,0:0:0:0:
327,206,56401,2,0,P|359:220|450:201,1,110.000004196167
488,140,56796,2,0,L|495:103,5,27.5000010490418
457,45,57191,6,0,L|438:173,1,110.000004196167
422,259,57585,2,0,L|345:273,1,55.0000020980836
281,288,57849,1,0,0:0:0:0:
243,195,57980,2,0,P|296:189|354:217,1,110.000004196167
172,273,58375,2,0,P|140:226|145:162,1,110.000004196167
323,110,58770,6,0,L|200:104,1,110.000004196167
56,84,59164,1,0,0:0:0:0:
185,31,59296,1,0,0:0:0:0:
61,121,59427,1,0,0:0:0:0:
180,196,59559,2,0,P|221:202|250:200,1,55.0000020980836
333,140,59822,1,0,0:0:0:0:
198,281,59954,1,0,0:0:0:0:
191,299,60020,1,0,0:0:0:0:
184,316,60085,2,0,L|193:355,3,27.5000010490418
81,345,60349,6,0,P|100:296|84:231,1,110.000004196167
27,166,60743,1,0,0:0:0:0:
184,218,60875,1,0,0:0:0:0:
247,164,61006,1,0,0:0:0:0:
198,304,61138,2,0,P|157:299|141:292,1,55.0000020980836
164,133,61401,1,0,0:0:0:0:
330,195,61533,2,0,L|356:204,2,27.5000010490418
276,332,61796,1,0,0:0:0:0:
176,244,61927,5,0,0:0:0:0:
239,199,62059,1,0,0:0:0:0:
372,284,62191,1,0,0:0:0:0:
372,284,62256,1,0,0:0:0:0:
372,284,62322,1,0,0:0:0:0:
442,242,62454,1,0,0:0:0:0:
301,152,62585,1,0,0:0:0:0:
112,292,62717,2,0,P|149:321|216:313,1,110.000004196167
159,163,63112,2,0,P|106:160|62:199,1,110.000004196167
248,234,63506,6,0,P|285:227|323:226,1,73.3333333333333
447,249,63770,1,0,0:0:0:0:
325,330,63901,1,0,0:0:0:0:
394,157,64033,1,0,0:0:0:0:
314,341,64164,1,0,0:0:0:0:
127,259,64296,6,0,B|81:230|81:230|41:140,1,146.666666666667
126,33,64691,2,0,P|124:75|117:111,2,73.3333333333333
288,174,65085,2,0,P|215:165|143:180,1,146.666666666667
47,263,65480,1,0,0:0:0:0:
220,263,65612,1,0,0:0:0:0:
228,77,65743,1,0,0:0:0:0:
69,180,65875,2,0,P|109:205|125:308,1,146.666666666667
273,340,66270,5,0,0:0:0:0:
291,309,66335,1,0,0:0:0:0:
310,277,66401,1,0,0:0:0:0:
329,245,66467,1,0,0:0:0:0:
348,213,66533,1,0,0:0:0:0:
367,181,66599,1,0,0:0:0:0:
388,152,66664,2,0,B|432:108|486:117|486:117|446:86,1,146.666666666667
328,22,67059,5,0,0:0:0:0:
249,99,67191,1,0,0:0:0:0:
163,25,67322,1,0,0:0:0:0:
97,164,67454,2,0,L|116:244,1,73.3333333333333
144,347,67717,1,0,0:0:0:0:
309,275,67849,2,0,L|231:262,1,73.3333333333333
408,292,68112,1,0,0:0:0:0:
364,71,68243,6,0,P|352:127|374:232,1,146.666666666667
271,102,68638,1,0,0:0:0:0:
230,320,68770,1,0,0:0:0:0:
397,355,68901,1,0,0:0:0:0:
250,236,69033,2,0,P|194:238|166:253,1,73.3333333333333
92,354,69296,1,0,0:0:0:0:
16,171,69427,5,0,0:0:0:0:
47,189,69493,1,0,0:0:0:0:
82,197,69559,1,0,0:0:0:0:
118,197,69625,1,0,0:0:0:0:
154,192,69691,1,0,0:0:0:0:
187,178,69756,1,0,0:0:0:0:
215,154,69822,2,0,P|252:140|296:139,1,73.3333333333333
380,172,70085,1,0,0:0:0:0:
316,325,70217,5,0,0:0:0:0:
302,214,70349,1,0,0:0:0:0:
415,330,70480,1,0,0:0:0:0:
469,154,70612,2,0,P|477:107|476:74,1,73.3333333333333
325,104,70875,1,0,0:0:0:0:
222,245,71006,2,0,P|264:258|303:258,1,73.3333333333333
373,240,71270,1,0,0:0:0:0:
147,119,71401,6,0,B|67:114|67:114|1:145,1,146.666666666667
177,208,71796,1,0,0:0:0:0:
160,290,71927,1,0,0:0:0:0:
297,151,72059,1,0,0:0:0:0:
426,319,72191,2,0,P|387:316|330:325,1,73.3333333333333
220,359,72454,1,0,0:0:0:0:
161,195,72585,5,0,0:0:0:0:
176,174,72651,1,0,0:0:0:0:
191,153,72717,2,0,B|192:135|192:135|189:117,3,36.6666666666667
241,238,72980,2,0,P|281:237|322:245,1,73.3333333333333
189,304,73243,1,0,0:0:0:0:
106,112,73375,5,0,0:0:0:0:
181,154,73506,1,0,0:0:0:0:
39,179,73638,1,0,0:0:0:0:
114,350,73770,1,0,0:0:0:0:
164,229,73902,1,0,0:0:0:0:
239,373,74034,1,0,0:0:0:0:
463,293,74164,1,0,0:0:0:0:
314,220,74296,1,0,0:0:0:0:
189,304,74427,1,0,0:0:0:0:
6,238,74559,6,0,L|90:250,1,73.3333333333333
270,151,74822,1,0,0:0:0:0:
251,149,74888,1,0,0:0:0:0:
232,147,74954,1,0,0:0:0:0:
103,167,75085,1,0,0:0:0:0:
258,254,75217,1,0,0:0:0:0:
437,172,75349,5,0,0:0:0:0:
360,228,75480,2,0,P|320:234|281:230,1,73.3333333333333
445,140,75743,1,0,0:0:0:0:
283,323,75875,2,0,P|246:309|207:275,1,73.3333333333333
455,108,76138,5,0,0:0:0:0:
362,139,76270,1,0,0:0:0:0:
325,227,76401,1,0,0:0:0:0:
103,170,76533,1,0,0:0:0:0:
182,232,76664,1,0,0:0:0:0:
215,326,76796,1,0,0:0:0:0:
41,257,76927,6,0,L|76:68,1,183.333333333333
308,99,77322,1,0,0:0:0:0:
188,110,77454,1,0,0:0:0:0:
324,82,77585,1,0,0:0:0:0:
419,250,77717,5,0,0:0:0:0:
270,181,77849,1,0,0:0:0:0:
191,308,77980,1,0,0:0:0:0:
265,162,78112,1,0,0:0:0:0:
165,303,78243,1,0,0:0:0:0:
21,219,78375,1,0,0:0:0:0:
142,300,78506,6,0,B|229:278|229:278|320:308,1,183.333333333333
447,232,78901,1,0,0:0:0:0:
401,241,78967,1,0,0:0:0:0:
355,234,79033,1,0,0:0:0:0:
312,216,79099,1,0,0:0:0:0:
277,186,79164,1,0,0:0:0:0:
255,145,79230,1,0,0:0:0:0:
252,99,79296,5,0,0:0:0:0:
355,82,79427,1,0,0:0:0:0:
454,122,79559,1,0,0:0:0:0:
196,201,79691,1,0,0:0:0:0:
137,122,79822,1,0,0:0:0:0:
176,22,79954,1,0,0:0:0:0:
307,185,80085,6,0,P|334:271|295:359,1,183.333333333333
55,310,80480,1,0,0:0:0:0:
234,290,80612,1,0,0:0:0:0:
101,235,80743,1,0,0:0:0:0:
269,76,80875,5,0,0:0:0:0:
389,278,81006,1,0,0:0:0:0:
463,25,81138,1,0,0:0:0:0:
296,151,81270,1,0,0:0:0:0:
421,206,81401,1,0,0:0:0:0:
404,80,81533,1,0,0:0:0:0:
284,250,81664,5,0,0:0:0:0:
284,250,81796,1,0,0:0:0:0:
28,103,81927,1,0,0:0:0:0:
147,348,82059,1,0,0:0:0:0:
189,330,82125,1,0,0:0:0:0:
214,291,82191,1,0,0:0:0:0:
212,245,82256,1,0,0:0:0:0:
222,200,82322,1,0,0:0:0:0:
255,168,82388,1,0,0:0:0:0:
300,156,82454,6,0,P|348:156|394:163,1,91.6666666666667
215,323,82717,1,0,0:0:0:0:
123,113,82849,2,0,P|85:80|36:56,1,91.6666666666667
133,277,83112,1,0,0:0:0:0:
257,80,83243,5,0,0:0:0:0:
86,184,83375,1,0,0:0:0:0:
266,279,83506,1,0,0:0:0:0:
178,49,83638,1,0,0:0:0:0:
98,266,83770,1,0,0:0:0:0:
324,219,83901,1,0,0:0:0:0:
244,141,84033,6,0,P|199:131|138:139,1,91.6666666666667
347,297,84296,1,0,0:0:0:0:
423,143,84427,2,0,L|411:252,1,91.6666666666667
292,362,84691,1,0,0:0:0:0:
98,266,84822,6,0,B|76:224|69:184|69:184|70:133|83:88,1,183.333333333333
249,40,85217,1,0,0:0:0:0:
286,67,85283,1,0,0:0:0:0:
296,111,85349,1,0,0:0:0:0:
279,153,85414,1,0,0:0:0:0:
278,198,85480,1,0,0:0:0:0:
299,238,85546,1,0,0:0:0:0:
337,262,85612,5,0,0:0:0:0:
464,223,85743,1,0,0:0:0:0:
335,353,85875,1,0,0:0:0:0:
512,308,86006,1,0,0:0:0:0:
370,174,86138,1,0,0:0:0:0:
211,287,86270,1,0,0:0:0:0:
202,148,86401,5,0,0:0:0:0:
383,271,86533,1,0,0:0:0:0:
130,354,86664,1,0,0:0:0:0:
142,93,86796,1,0,0:0:0:0:
271,220,86927,1,0,0:0:0:0:
390,76,87059,1,0,0:0:0:0:
159,227,87191,5,0,0:0:0:0:
365,168,87322,1,0,0:0:0:0:
365,168,87388,1,0,0:0:0:0:
365,168,87454,1,0,0:0:0:0:
97,20,87585,1,0,0:0:0:0:
273,279,87717,1,0,0:0:0:0:
31,285,87849,1,0,0:0:0:0:
219,169,87980,5,0,0:0:0:0:
387,346,88112,1,0,0:0:0:0:
387,346,88177,1,0,0:0:0:0:
387,346,88243,1,0,0:0:0:0:
476,177,88375,1,0,0:0:0:0:
262,355,88506,1,0,0:0:0:0:
100,139,88638,1,0,0:0:0:0:
359,86,88770,6,0,B|365:180|365:180|321:271,1,183.333333333333
29,239,89164,1,0,0:0:0:0:
280,155,89296,1,0,0:0:0:0:
146,331,89427,1,0,0:0:0:0:
215,66,89559,6,0,P|256:47|326:42,1,91.6666666666667
440,59,89822,1,0,0:0:0:0:
212,222,89954,2,0,P|158:216|111:200,1,91.6666666666667
31,93,90217,1,0,0:0:0:0:
246,349,90349,6,0,P|287:299|436:243,1,183.333333333333
131,355,90743,1,0,0:0:0:0:
252,155,90875,1,0,0:0:0:0:
424,352,91006,1,0,0:0:0:0:
97,260,91138,2,0,P|48:219|14:102,1,183.333333333333
342,119,91533,5,0,0:0:0:0:
288,130,91599,1,0,0:0:0:0:
251,169,91664,1,0,0:0:0:0:
249,224,91730,1,0,0:0:0:0:
224,273,91796,1,0,0:0:0:0:
171,289,91862,1,0,0:0:0:0:
117,280,91927,2,0,P|185:288|286:361,1,183.333333333333
481,311,92322,5,0,0:0:0:0:
339,192,92454,1,0,0:0:0:0:
475,30,92585,1,0,0:0:0:0:
254,101,92717,2,0,P|223:152|228:282,1,183.333333333333
46,132,93112,2,0,P|100:126|156:131,1,91.6666666666667
358,217,93375,1,0,0:0:0:0:
94,341,93506,6,0,P|111:253|80:143,1,183.333333333333
235,305,93901,1,0,0:0:0:0:
357,126,94033,1,0,0:0:0:0:
192,14,94164,1,0,0:0:0:0:
297,215,94296,2,0,P|349:229|396:227,1,91.6666666666667
177,106,94559,1,0,0:0:0:0:
68,328,94691,5,0,0:0:0:0:
115,354,94756,1,0,0:0:0:0:
168,366,94822,1,0,0:0:0:0:
223,362,94888,1,0,0:0:0:0:
276,348,94954,1,0,0:0:0:0:
319,313,95020,1,0,0:0:0:0:
340,262,95085,6,0,B|342:162|342:162|289:77,1,183.333333333333
45,34,95480,1,0,0:0:0:0:
374,37,95612,1,0,0:0:0:0:
185,277,95743,1,0,0:0:0:0:
484,153,95875,2,0,P|424:142|367:152,1,91.6666666666667
273,254,96138,1,0,0:0:0:0:
27,319,96270,2,0,P|78:328|142:320,1,91.6666666666667
289,244,96533,1,0,0:0:0:0:
137,24,96664,6,0,P|120:90|133:214,1,183.333333333333
270,344,97059,1,0,0:0:0:0:
35,172,97191,1,0,0:0:0:0:
262,74,97322,1,0,0:0:0:0:
378,302,97454,1,0,0:0:0:0:
228,193,97585,1,0,0:0:0:0:
121,332,97717,1,0,0:0:0:0:
409,218,97849,5,0,0:0:0:0:
425,166,97914,1,0,0:0:0:0:
414,111,97980,1,0,0:0:0:0:
374,72,98046,1,0,0:0:0:0:
321,56,98112,1,0,0:0:0:0:
266,61,98177,1,0,0:0:0:0:
224,97,98243,2,0,B|194:184|194:184|188:288,1,183.333333333333
57,184,98638,5,0,0:0:0:0:
237,178,98770,1,0,0:0:0:0:
300,333,98901,1,0,0:0:0:0:
67,279,99033,1,0,0:0:0:0:
144,77,99164,1,0,0:0:0:0:
304,219,99296,1,0,0:0:0:0:
18,132,99427,1,0,0:0:0:0:
278,87,99558,1,0,0:0:0:0:
199,336,99690,1,0,0:0:0:0:
439,253,99822,6,0,P|383:252|326:276,1,91.6666666666667
150,362,100085,1,0,0:0:0:0:
99,338,100151,1,0,0:0:0:0:
50,311,100217,1,0,0:0:0:0:
54,72,100349,1,0,0:0:0:0:
363,158,100480,1,0,0:0:0:0:
111,144,100612,5,0,0:0:0:0:
380,73,100743,1,0,0:0:0:0:
436,312,100875,1,0,0:0:0:0:
235,39,101006,1,0,0:0:0:0:
174,363,101138,1,0,0:0:0:0:
456,184,101270,1,0,0:0:0:0:
111,144,101401,6,0,B|118:171|112:201|112:201|139:202|162:225,1,110.000004196167
109,283,101796,1,0,0:0:0:0:
187,259,101927,1,0,0:0:0:0:
178,341,102059,1,0,0:0:0:0:
254,309,102191,2,0,P|313:302|356:273,1,110.000004196167
402,208,102585,1,0,0:0:0:0:
308,71,102849,5,0,0:0:0:0:
308,71,102980,2,0,P|314:101|312:136,2,55.0000020980836
149,58,103375,1,0,0:0:0:0:
230,44,103506,1,0,0:0:0:0:
308,71,103638,1,0,0:0:0:0:
387,49,103770,6,0,P|379:89|393:156,1,110.000004196167
453,211,104164,2,0,L|426:205,5,27.5000010490418
370,260,104559,6,0,B|310:262|310:262|262:287,1,110.000004196167
176,350,104954,2,0,L|189:281,1,55.0000020980836
184,213,105217,1,0,0:0:0:0:
126,153,105349,6,0,B|181:166|181:166|245:152,1,110.000004196167
306,117,105743,2,0,L|311:83,2,27.5000010490418
357,181,106006,1,0,0:0:0:0:
311,249,106138,5,0,0:0:0:0:
233,220,106270,1,0,0:0:0:0:
170,273,106401,5,0,0:0:0:0:
170,273,106467,1,0,0:0:0:0:
170,273,106533,1,0,0:0:0:0:
233,220,106664,1,0,0:0:0:0:
223,137,106796,1,0,0:0:0:0:
157,87,106927,6,0,P|221:104|279:84,1,110.000004196167
327,43,107322,2,0,P|313:95|325:149,1,110.000004196167
387,203,107717,1,0,0:0:0:0:
256,192,107816,12,0,110857,0:0:0:0:
