osu file format v14

[General]
AudioFilename: audio.mp3
AudioLeadIn: 0
PreviewTime: 0
Countdown: 1
SampleSet: Soft
StackLeniency: 0.7
Mode: 0
LetterboxInBreaks: 0
WidescreenStoryboard: 1

[Editor]
Bookmarks: 53234,60034,63500,66834
DistanceSpacing: 1.2
BeatDivisor: 3
GridSize: 16
TimelineZoom: 2

[Metadata]
Title:Glorious Morning 2
TitleUnicode:Glorious Morning 2
Artist:Waterflame
ArtistUnicode:Waterflame
Creator:QuiescentRabbit
Version:Hyper
Source:
Tags:Electronic Dance Victorfernando
BeatmapID:1385883
BeatmapSetID:650099

[Difficulty]
HPDrainRate:5
CircleSize:4
OverallDifficulty:6
ApproachRate:8
SliderMultiplier:1.4
SliderTickRate:1

[Events]
//Background and Video events
0,0,"glory.jpg",0,0
//Break Periods
//Storyboard Layer 0 (Background)
//Storyboard Layer 1 (Fail)
//Storyboard Layer 2 (Pass)
//Storyboard Layer 3 (Foreground)
//Storyboard Sound Samples

[TimingPoints]
2434,400,4,2,0,45,1,0
5100,-100,4,2,0,45,0,0
25900,-80,4,2,0,45,0,0
53100,-68.9655172413793,4,2,0,45,0,0
66434,-68.9655172413793,4,2,0,45,0,1
79234,-60.6060606060606,4,2,0,45,0,0

[Colours]
Combo1 : 157,213,235
Combo2 : 255,255,128
Combo3 : 255,128,255
Combo4 : 255,128,64

[HitObjects]
256,192,34,12,0,2034,0:0:0:0:
202,245,2434,5,0,0:0:0:0:
257,198,2834,2,0,P|239:181|164:184,2,93.3333333333333
322,150,4034,6,0,P|388:103|430:123,1,93.3333333333333
390,175,4434,2,0,P|440:223|497:205,2,93.3333333333333
190,329,5234,6,0,P|159:284|160:229,1,93.3333333333333
82,233,5634,2,0,P|113:184|154:172,1,93.3333333333333
216,150,6034,2,0,P|187:110|137:100,2,93.3333333333333
272,255,6700,1,4,0:0:0:0:
272,255,6834,6,2,P|311:205|357:192,1,93.3333333333333
346,269,7234,2,0,P|412:272|444:309,1,93.3333333333333
375,337,7634,2,0,P|408:362|478:329,2,93.3333333333333
122,172,8434,6,0,P|177:142|233:167,1,93.3333333333333
181,213,8834,2,0,P|190:277|242:307,1,93.3333333333333
256,240,9234,2,0,P|283:289|276:326,2,93.3333333333333
297,221,10434,6,0,P|224:243|211:284,1,93.3333333333333
204,323,10834,2,0,P|271:310|288:279,2,93.3333333333333
217,253,11634,6,0,P|166:260|133:303,1,93.3333333333333
58,303,12034,2,0,P|109:214|125:205,1,93.3333333333333
78,150,12434,2,0,P|129:152|169:212,2,93.3333333333333
3,134,13234,6,0,P|51:80|105:79,1,93.3333333333333
74,5,13634,6,0,P|141:72|140:93,1,93.3333333333333
172,127,14034,2,0,P|214:70|201:21,2,93.3333333333333,0|0|0,0:3|0:0|0:0,0:0:0:0:
219,180,14834,6,0,P|143:193|104:160,1,93.3333333333333
92,123,15234,2,0,P|65:58|78:24,1,93.3333333333333
140,67,15634,2,0,P|196:46|246:94,2,93.3333333333333
256,64,16834,6,0,P|210:64|171:103,1,93.3333333333333
237,131,17234,2,0,P|186:166|132:144,2,93.3333333333333
114,102,18034,6,0,P|86:184|110:215,1,93.3333333333333
18,206,18434,2,0,P|52:251|112:255,1,93.3333333333333
153,303,18834,2,0,P|107:331|50:327,2,93.3333333333333
211,257,19500,1,4,0:0:0:0:
211,257,19634,6,2,P|259:225|325:252,1,93.3333333333333
368,222,20034,2,0,P|342:176|286:155,1,93.3333333333333
227,157,20434,2,0,P|184:178|134:247,2,93.3333333333333
392,185,21234,6,0,P|399:135|368:96,1,93.3333333333333
324,156,21634,2,0,P|264:212|275:252,1,93.3333333333333
335,232,22034,2,0,P|389:259|448:224,2,93.3333333333333
304,326,23234,6,0,P|361:351|416:317,1,93.3333333333333
357,279,23634,2,0,P|412:276|451:306,2,93.3333333333333
284,254,24434,6,0,P|330:211|396:205,1,93.3333333333333
432,201,24834,2,0,P|402:144|361:129,1,93.3333333333333
309,105,25234,2,0,P|350:68|395:62,2,93.3333333333333
256,192,25900,12,0,27234,0:0:0:0:
320,128,27634,6,0,P|256:96|196:113,1,116.666666666667
145,141,28034,2,0,P|113:174|112:219,1,58.3333333333333
129,274,28300,2,2,L|226:310,1,58.3333333333333
267,296,28567,2,2,L|343:279,1,58.3333333333333
409,260,28834,2,0,P|462:191|402:92,1,175
499,75,29634,6,0,P|449:40|366:80,1,116.666666666667
300,68,30034,2,2,L|237:91,1,58.3333333333333
186,129,30300,2,2,L|146:184,1,58.3333333333333
95,220,30567,2,4,P|132:246|196:242,1,58.3333333333333
119,319,30834,6,0,P|188:309|219:268,1,116.666666666667
289,282,31234,2,0,P|267:218|210:205,1,116.666666666667
151,176,31634,2,2,L|198:121,1,58.3333333333333
258,96,31900,2,2,L|339:103,1,58.3333333333333
468,124,32167,2,4,P|456:157|420:187,1,58.3333333333333
393,119,32434,6,0,P|371:171|391:226,1,116.666666666667
467,246,32834,2,0,P|421:293|341:294,1,116.666666666667
285,319,33234,2,2,L|209:341,1,58.3333333333333
150,342,33500,2,2,L|60:309,1,58.3333333333333
45,220,33767,2,4,P|58:170|89:144,1,58.3333333333333
14,114,34034,6,0,P|97:102|131:168,1,116.666666666667
157,57,34434,2,0,P|192:116|174:166,1,116.666666666667
176,251,34834,2,2,L|251:270,1,58.3333333333333
313,252,35100,2,2,L|383:207,1,58.3333333333333
466,173,35367,2,4,P|445:132|415:103,1,58.3333333333333
502,87,35634,2,0,P|439:50|369:105,1,116.666666666667
359,123,36034,6,0,P|283:125|260:62,1,116.666666666667
333,51,36434,2,2,L|251:12,1,58.3333333333333
201,26,36700,2,2,L|120:65,1,58.3333333333333
57,107,36967,2,4,P|81:142|118:158,1,58.3333333333333
168,122,37234,6,0,P|167:171|108:225,1,116.666666666667
54,233,37634,2,0,P|95:284|130:288,1,58.3333333333333
179,325,37900,2,2,L|243:346,1,58.3333333333333
319,341,38167,2,2,L|391:318,1,58.3333333333333
446,286,38434,2,4,P|471:251|456:212,1,58.3333333333333
424,126,38700,1,0,0:0:0:0:
479,71,38834,6,0,P|430:47|352:103,1,116.666666666667
306,30,39234,2,0,P|298:82|351:140,1,116.666666666667
370,212,39634,2,2,L|291:242,1,58.3333333333333
241,230,39900,2,2,L|186:205,1,58.3333333333333
99,168,40167,2,4,P|88:103|93:99,1,58.3333333333333
6,128,40434,6,0,P|45:55|119:67,1,116.666666666667
145,45,40834,2,0,P|149:113|181:156,1,116.666666666667
140,235,41234,2,2,L|214:262,1,58.3333333333333
277,261,41500,2,2,L|348:230,1,58.3333333333333
376,145,41767,2,4,P|425:176|432:211,1,58.3333333333333
486,139,42034,2,0,P|476:226|427:249,1,116.666666666667
423,174,42434,6,0,P|385:239|396:274,1,116.666666666667
483,310,42834,6,2,L|397:356,1,58.3333333333333
345,338,43100,2,2,L|240:313,1,58.3333333333333
196,317,43367,2,4,P|176:314|153:273,1,58.3333333333333
101,339,43634,6,0,P|82:279|154:211,1,116.666666666667
76,168,44034,2,0,P|149:173|179:221,1,116.666666666667
214,277,44434,2,2,L|300:305,1,58.3333333333333
348,297,44700,2,2,L|402:257,1,58.3333333333333
455,198,44967,2,4,P|466:168|460:134,1,58.3333333333333
496,71,45234,6,0,P|446:69|394:111,1,116.666666666667
388,183,45634,2,0,P|335:154|322:89,1,116.666666666667
369,43,46034,2,2,L|277:14,1,58.3333333333333
232,25,46300,2,2,L|154:55,1,58.3333333333333
65,99,46567,2,4,P|106:156|133:172,1,58.3333333333333
146,205,46834,6,0,L|237:289,1,116.666666666667
218,360,47234,2,0,P|271:349|311:295,1,116.666666666667
372,242,47634,2,2,L|412:169,1,58.3333333333333
420,114,47900,2,2,L|386:47,1,58.3333333333333
327,27,48167,2,4,P|277:63|263:108,1,58.3333333333333
233,5,48434,2,0,P|229:111|242:120,1,116.666666666667
282,163,48834,6,0,P|219:183|162:147,1,116.666666666667
102,118,49234,2,2,L|83:190,1,58.3333333333333
95,255,49500,2,2,L|138:317,1,58.3333333333333
216,332,49767,2,4,P|268:346|307:330,1,58.3333333333333
346,341,50034,6,0,L|371:205,1,116.666666666667
433,194,50434,2,0,P|394:158|324:164,1,116.666666666667
263,154,50834,2,2,L|170:113,1,58.3333333333333
130,128,51100,2,2,L|54:163,1,58.3333333333333
45,285,51367,2,4,L|45:223,4,58.3333333333333
0,341,52034,6,0,P|67:355|121:291,1,116.666666666667
164,275,52434,2,2,L|222:243,1,58.3333333333333
297,244,52700,2,2,L|360:263,1,58.3333333333333
431,283,52967,1,0,0:0:0:0:
426,145,53234,6,0,L|429:223,2,67.6666687316895
487,95,53634,2,0,P|425:70|344:137,1,135.333337463379
294,151,54034,5,0,0:0:0:0:
213,161,54167,2,0,P|241:222|299:248,1,67.6666687316895
310,254,54434,2,0,P|270:295|214:314,1,67.6666687316895
190,324,54700,1,0,0:0:0:0:
117,323,54834,5,0,0:0:0:0:
52,360,54967,2,0,P|45:302|85:253,1,67.6666687316895
41,222,55234,2,0,P|45:185|72:148,1,67.6666687316895
126,126,55500,1,0,0:0:0:0:
193,93,55634,5,0,0:0:0:0:
205,23,55767,2,0,P|255:57|265:113,1,67.6666687316895
264,135,56034,2,0,P|279:179|327:196,1,67.6666687316895
339,134,56300,1,0,0:0:0:0:
413,134,56434,5,0,0:0:0:0:
486,137,56567,2,0,P|468:184|417:201,1,67.6666687316895
397,249,56834,2,0,P|372:211|322:217,1,67.6666687316895
323,272,57100,1,0,0:0:0:0:
263,322,57234,5,0,0:0:0:0:
201,365,57367,2,0,P|163:337|137:296,1,67.6666687316895
97,254,57634,2,0,P|94:211|126:167,1,77.0000007343292
166,230,57900,1,0,0:0:0:0:
183,151,58034,5,0,0:0:0:0:
244,192,58167,2,0,P|253:128|213:89,1,67.6666687316895
249,58,58434,2,0,P|253:42|312:71,1,67.6666687316895
362,73,58700,5,0,0:0:0:0:
421,122,58834,1,0,0:0:0:0:
489,106,58967,2,4,P|493:139|477:168,1,67.6666687316895
426,226,59234,2,4,P|403:258|369:277,1,67.6666687316895
220,216,59500,1,8,0:0:0:0:
150,232,59634,2,4,P|172:271|217:281,1,67.6666687316895
190,352,59900,2,4,P|239:337|255:283,1,67.6666687316895
290,250,60167,5,0,0:0:0:0:
371,296,60300,1,0,0:0:0:0:
399,361,60434,2,0,P|434:292|418:273,1,67.6666687316895
451,228,60700,2,0,P|441:180|386:142,1,67.6666687316895
375,111,60967,5,0,0:0:0:0:
312,70,61100,1,0,0:0:0:0:
238,26,61234,2,0,P|238:59|221:89,1,67.6666687316895
168,40,61500,2,0,P|143:86|186:140,1,67.6666687316895
151,173,61767,5,0,0:0:0:0:
241,183,61900,1,0,0:0:0:0:
315,207,62034,2,0,P|289:242|243:266,1,67.6666687316895
198,278,62300,2,0,P|252:330|292:334,1,67.6666687316895
316,334,62567,5,0,0:0:0:0:
410,334,62700,1,0,0:0:0:0:
477,364,62834,2,0,P|473:286|460:264,1,67.6666687316895
466,223,63100,2,0,P|436:185|375:167,1,67.6666687316895
395,243,63367,5,0,0:0:0:0:
297,314,63500,1,0,0:0:0:0:
220,309,63634,6,2,L|219:219,1,77.0000007343292
91,125,63900,2,2,L|50:50,1,77.0000007343292
77,310,64167,2,2,L|18:248,1,77.0000007343292
29,176,64434,5,0,0:0:0:0:
29,176,64567,1,0,0:0:0:0:
28,96,64700,6,2,L|94:56,1,77.0000007343292
145,117,64967,2,2,L|199:62,1,77.0000007343292
253,136,65234,2,2,L|290:69,1,77.0000007343292
369,142,65500,2,2,L|370:66,1,77.0000007343292
457,146,65767,1,0,0:0:0:0:
459,228,65900,1,0,0:0:0:0:
372,227,66034,2,0,L|317:279,1,67.6666687316895
264,315,66300,1,0,0:0:0:0:
196,286,66434,6,0,P|132:221|124:195,1,67.6666687316895
153,120,66834,5,0,0:0:0:0:
170,48,66967,2,0,P|207:68|229:102,1,67.6666687316895
218,162,67234,2,0,P|263:153|291:130,1,67.6666687316895
331,83,67500,1,4,0:0:0:0:
395,143,67634,5,4,0:0:0:0:
469,163,67767,2,0,P|447:196|401:223,1,67.6666687316895
345,216,68034,2,0,P|363:269|414:294,1,67.6666687316895
445,298,68300,1,4,0:0:0:0:
373,352,68434,5,4,0:3:0:0:
248,367,68567,2,0,P|215:345|195:300,1,67.6666687316895
231,253,68834,2,0,P|173:253|140:286,1,67.6666687316895
98,303,69100,1,4,0:0:0:0:
74,231,69234,5,4,0:0:0:0:
2,213,69367,2,0,P|22:174|76:147,1,67.6666687316895
105,116,69634,2,0,P|144:95|196:103,1,67.6666687316895
251,101,69900,1,4,0:0:0:0:
314,180,70034,5,4,0:0:0:0:
324,258,70167,2,0,P|352:246|385:211,1,67.6666687316895
410,151,70434,2,0,P|400:109|375:77,1,67.6666687316895
322,33,70700,1,4,0:0:0:0:
241,38,70834,5,4,0:0:0:0:
169,34,70967,2,0,P|175:71|223:109,1,67.6666687316895
275,128,71234,2,0,P|220:180|172:168,1,67.6666687316895
145,205,71500,1,4,0:0:0:0:
176,283,71634,5,4,0:0:0:0:
119,330,71767,2,2,P|189:355|235:332,1,67.6666687316895
250,356,72034,2,2,P|312:350|347:323,1,67.6666687316895
385,310,72300,1,4,0:0:0:0:
431,233,72434,5,4,0:0:0:0:
507,213,72567,2,2,P|485:180|435:156,1,67.6666687316895
470,91,72834,2,2,P|398:129|385:158,1,67.6666687316895
330,129,73100,1,4,0:0:0:0:
256,96,73234,5,4,0:0:0:0:
241,22,73367,2,0,P|181:92|179:117,1,67.6666687316895
224,167,73634,2,0,P|245:200|300:196,1,67.6666687316895
359,237,73900,1,4,0:0:0:0:
418,192,74034,5,4,0:0:0:0:
486,147,74167,2,0,P|466:120|433:87,1,67.6666687316895
375,52,74434,2,0,P|333:62|302:91,1,67.6666687316895
244,137,74700,1,4,0:0:0:0:
172,193,74834,5,4,0:0:0:0:
151,120,74967,2,0,P|118:142|95:187,1,67.6666687316895
94,244,75234,2,0,P|116:277|165:298,1,67.6666687316895
215,312,75500,1,4,0:0:0:0:
295,314,75634,5,4,0:0:0:0:
313,383,75767,2,0,P|346:361|375:313,1,67.6666687316895
409,286,76034,2,0,P|430:247|419:180,1,67.6666687316895
438,151,76300,1,4,0:0:0:0:
383,105,76434,5,4,0:0:0:0:
370,30,76567,2,2,P|345:43|317:70,1,67.6666687316895
264,123,76834,2,2,P|237:155|227:189,1,67.6666687316895
199,258,77100,1,4,0:0:0:0:
278,289,77234,5,4,0:0:0:0:
243,351,77367,2,10,P|285:361|352:320,1,67.6666687316895
384,288,77634,2,2,L|384:192,1,67.6666687316895
384,144,77900,1,4,0:0:0:0:
304,144,78034,5,4,0:0:0:0:
224,144,78167,2,2,L|128:144,1,67.6666687316895
80,144,78434,2,2,L|80:240,1,67.6666687316895
80,288,78700,1,4,0:0:0:0:
160,288,78834,2,2,L|288:288,1,67.6666687316895
320,288,79100,1,4,0:0:0:0:
256,192,79234,12,0,80434,0:0:0:0:
256,192,80834,5,0,0:0:0:0:
160,192,81234,2,4,L|160:112,3,77.0000007343292
352,192,82034,2,4,L|352:112,3,77.0000007343292
