osu file format v14

[General]
AudioFilename: audio.mp3
AudioLeadIn: 0
PreviewTime: 0
Countdown: 1
SampleSet: Soft
StackLeniency: 0.7
Mode: 0
LetterboxInBreaks: 0
WidescreenStoryboard: 1

[Editor]
Bookmarks: 53234,60034,63500,66834
DistanceSpacing: 1.2
BeatDivisor: 4
GridSize: 16
TimelineZoom: 2

[Metadata]
Title:Glorious Morning 2
TitleUnicode:Glorious Morning 2
Artist:Waterflame
ArtistUnicode:Waterflame
Creator:QuiescentRabbit
Version:Glorious War 2
Source:
Tags:Electronic Dance Victorfernando
BeatmapID:1384771
BeatmapSetID:650099

[Difficulty]
HPDrainRate:5
CircleSize:4
OverallDifficulty:8
ApproachRate:9.3
SliderMultiplier:1.4
SliderTickRate:1

[Events]
//Background and Video events
0,0,"glory.jpg",0,0
//Break Periods
//Storyboard Layer 0 (Background)
//Storyboard Layer 1 (Fail)
//Storyboard Layer 2 (Pass)
//Storyboard Layer 3 (Foreground)
//Storyboard Sound Samples

[TimingPoints]
2434,400,4,2,0,45,1,0
5100,-90.9090909090909,4,2,0,45,0,0
25900,-68.9655172413793,4,2,0,45,0,0
53100,-60.6060606060606,4,2,0,45,0,0
66434,-54.054054054054,4,2,0,45,0,1
79234,-54.054054054054,4,2,0,45,0,0

[Colours]
Combo1 : 157,213,235
Combo2 : 255,255,128
Combo3 : 255,128,255
Combo4 : 255,128,64

[HitObjects]
256,192,34,12,0,2034,0:0:0:0:
317,258,2434,5,0,0:0:0:0:
166,202,2834,2,0,P|135:173|116:128,1,70
56,116,3134,2,0,P|107:76|127:74,1,70
209,281,4034,6,0,P|287:296|309:333,1,93.3333333333333
226,140,4434,2,0,P|194:154|171:180,1,70
237,213,4734,2,0,P|254:242|281:265,1,70
321,333,5234,6,0,P|352:288|352:240,1,102.666669799805
430,233,5634,2,0,P|399:184|354:170,1,102.666669799805
367,86,6034,2,0,P|352:39|296:17,1,77.0000023498536
292,85,6334,2,0,P|250:141|251:168,1,77.0000023498536
240,255,6700,1,4,0:0:0:0:
240,255,6834,6,2,P|201:205|154:192,1,102.666669799805
167,268,7234,2,0,P|101:271|68:314,1,102.666669799805
136,338,7634,2,0,P|203:337|228:310,1,77.0000023498536
245,266,7934,2,0,P|275:302|289:337,1,77.0000023498536
393,170,8434,6,0,P|338:140|270:176,1,102.666669799805
332,214,8834,2,0,P|323:278|275:312,1,102.666669799805
263,242,9234,2,0,P|232:213|213:164,1,77.0000023498536
153,152,9534,2,0,P|204:112|228:112,1,77.0000023498536
215,221,10434,6,0,P|288:243|303:286,1,102.666669799805
232,296,10834,2,0,P|261:327|308:347,1,77.0000023498536
359,314,11134,2,0,P|372:258|363:226,1,77.0000023498536
298,261,11634,6,0,P|352:262|390:308,1,102.666669799805
458,302,12034,2,0,P|407:213|392:206,1,102.666669799805
385,294,12434,2,0,P|354:265|335:216,1,77.0000023498536
274,202,12734,2,0,P|327:163|352:163,1,77.0000023498536
468,130,13234,6,0,P|420:76|365:83,1,102.666669799805
396,2,13634,6,0,P|326:56|332:101,1,102.666669799805
252,92,14034,2,0,P|281:123|327:145,1,77.0000023498536
382,149,14334,2,0,P|373:181|334:210,1,77.0000023498536
299,308,14834,6,0,P|346:316|400:287,1,102.666669799805
449,241,15234,2,0,P|475:179|466:147,1,102.666669799805
399,181,15634,2,0,P|368:152|349:101,1,77.0000023498536
288,89,15934,2,0,P|339:49|365:48,1,77.0000023498536
256,64,16834,6,0,P|302:64|348:112,1,102.666669799805
277,135,17234,2,0,P|248:166|206:187,1,77.0000023498536
187,248,17534,2,0,P|147:197|146:177,1,77.0000023498536
404,109,18034,6,0,P|432:191|408:227,1,102.666669799805
500,218,18434,2,0,P|466:263|403:266,1,102.666669799805
359,173,18834,2,0,P|330:204|288:225,1,77.0000023498536
269,286,19134,2,0,P|229:235|228:215,1,77.0000023498536
235,146,19500,1,4,0:0:0:0:
235,146,19634,6,2,P|187:114|120:144,1,102.666669799805
71,112,20034,2,0,P|97:66|156:43,1,102.666669799805
227,47,20434,2,0,P|265:65|297:99,1,77.0000023498536
360,98,20734,2,0,P|322:151|304:157,1,77.0000023498536
120,185,21234,6,0,P|113:135|144:96,1,102.666669799805
188,156,21634,2,0,P|248:212|238:252,1,102.666669799805
175,229,22034,2,0,P|146:260|104:281,1,77.0000023498536
85,342,22334,2,0,P|45:291|44:271,1,77.0000023498536
210,319,23234,6,0,P|165:340|76:318,1,102.666669799805
150,268,23634,2,0,P|179:237|221:216,1,77.0000023498536
240,155,23934,2,0,P|280:206|281:226,1,77.0000023498536
219,249,24434,6,0,P|183:204|107:200,1,102.666669799805
67,199,24834,2,0,P|86:142|168:126,1,102.666669799805
272,140,25234,2,0,P|243:171|201:192,1,77.0000023498536
182,253,25534,2,0,P|142:202|141:182,1,77.0000023498536
256,192,25900,12,0,27234,0:0:0:0:
192,128,27634,6,0,P|256:96|320:112,1,135.333337463379
400,160,28034,2,0,P|416:208|384:256,1,63.0000002403259
368,288,28300,2,2,L|272:320,1,67.6666687316895
224,320,28566,2,2,L|144:304,1,67.6666687316895
64,288,28834,2,0,P|48:208|128:96,1,203.000006195069
208,48,29634,6,0,P|272:32|352:48,1,135.333337463379
416,80,30034,2,2,L|448:160,1,67.6666687316895
464,224,30300,2,2,L|416:288,1,67.6666687316895
364,328,30567,2,4,P|321:355|255:354,1,67.6666687316895
208,352,30834,6,0,P|160:320|128:240,1,135.333337463379
147,132,31234,2,0,P|239:79|292:80,1,135.333337463379
480,64,31634,2,2,L|400:48,1,67.6666687316895
336,64,31900,2,2,L|256:80,1,67.6666687316895
512,304,32167,2,4,P|480:336|432:352,1,67.6666687316895
392,378,32434,6,0,P|328:378|269:335,1,135.333337463379
240,256,32834,2,0,P|256:192|322:163,1,135.333337463379
250,337,33234,2,2,L|161:360,1,67.6666687316895
111,342,33500,2,2,L|31:310,1,67.6666687316895
240,32,33767,2,4,P|192:48|160:80,1,67.6666687316895
128,128,34034,6,0,P|149:202|192:240,1,135.333337463379
265,220,34434,2,0,P|249:284|185:316,1,135.333337463379
429,348,34834,2,2,L|429:268,1,67.6666687316895
409,183,35100,2,2,L|361:119,1,67.6666687316895
32,207,35367,2,4,P|53:166|93:135,1,67.6666687316895
122,101,35634,2,0,P|158:65|238:97,1,135.333337463379
191,145,36034,6,0,P|259:154|300:104,1,135.333337463379
280,350,36434,2,2,L|367:390,1,67.6666687316895
421,384,36700,2,2,L|509:343,1,67.6666687316895
464,160,36967,2,4,P|440:195|400:208,1,67.6666687316895
351,245,37234,6,0,P|300:271|219:276,1,135.333337463379
145,271,37634,2,0,P|98:302|99:331,1,67.6666687316895
118,66,37900,2,2,L|190:43,1,67.6666687316895
254,47,38167,2,2,L|333:70,1,67.6666687316895
494,270,38434,2,4,P|464:299|426:303,1,67.6666687316895
384,229,38700,1,0,0:0:0:0:
328,299,38834,6,0,P|259:313|194:287,1,135.333337463379
137,255,39234,2,0,P|91:209|76:138,1,135.333337463379
229,323,39634,2,2,L|318:354,1,67.6666687316895
379,352,39900,2,2,L|430:309,1,67.6666687316895
224,32,40167,2,4,P|196:29|156:57,1,67.6666687316895
99,96,40434,6,0,P|62:167|71:233,1,135.333337463379
82,293,40834,2,0,P|142:335|206:335,1,135.333337463379
85,21,41234,2,2,L|54:95,1,67.6666687316895
59,158,41500,2,2,L|93:230,1,67.6666687316895
394,19,41767,2,4,P|449:50|460:86,1,67.6666687316895
471,125,42034,2,0,P|478:185|420:246,1,135.333337463379
361,274,42434,6,0,P|322:302|223:301,1,135.333337463379
458,67,42834,6,2,L|370:117,1,67.6666687316895
316,108,43100,2,2,L|209:83,1,67.6666687316895
37,295,43367,2,4,P|79:281|103:290,1,67.6666687316895
76,354,43634,6,0,P|153:337|168:285,1,135.333337463379
190,170,44034,2,0,P|216:222|288:224,1,135.333337463379
31,82,44434,2,2,L|35:169,1,67.6666687316895
54,218,44700,2,2,L|97:269,1,67.6666687316895
426,306,44967,2,4,P|450:263|454:206,1,67.6666687316895
472,165,45234,6,0,P|409:104|367:80,1,135.333337463379
294,57,45634,2,0,P|226:65|166:110,1,135.333337463379
259,318,46034,2,2,L|360:292,1,67.6666687316895
384,256,46300,2,2,L|434:181,1,67.6666687316895
40,152,46567,2,4,P|70:94|96:78,1,67.6666687316895
163,18,46834,6,0,L|262:127,1,135.333337463379
283,185,47234,2,0,P|248:243|190:291,1,135.333337463379
254,52,47634,2,2,L|343:7,1,67.6666687316895
401,24,47900,2,2,L|472:50,1,67.6666687316895
118,236,48167,2,4,P|171:203|213:197,1,67.6666687316895
246,178,48434,2,0,P|316:172|377:197,1,135.333337463379
436,236,48834,6,0,P|487:320|476:357,1,135.333337463379
244,326,49234,2,2,L|167:347,1,67.6666687316895
107,332,49500,2,2,L|49:285,1,67.6666687316895
77,96,49767,2,4,P|127:74|170:76,1,67.6666687316895
221,68,50034,6,0,L|372:103,1,135.333337463379
489,142,50434,2,0,P|429:179|367:211,1,135.333337463379
260,260,50834,2,2,L|160:304,1,67.6666687316895
102,341,51100,2,2,L|57:262,1,67.6666687316895
59,207,51367,2,4,L|59:140,4,67.6666687316895
64,65,52034,6,0,P|128:33|191:61,1,135.333337463379
152,263,52434,2,2,L|212:301,1,67.6666687316895
286,294,52700,2,2,L|350:269,1,67.6666687316895
460,222,52967,1,0,0:0:0:0:
228,56,53234,6,0,L|340:93,2,77.0000007343292
83,56,53634,2,0,P|100:130|75:209,1,154.000001468658
13,127,54034,5,0,0:0:0:0:
300,47,54167,2,0,P|265:73|241:125,1,77.0000007343292
215,170,54434,2,0,P|204:212|219:267,1,77.0000007343292
284,312,54700,1,0,0:0:0:0:
342,229,54834,5,0,0:0:0:0:
419,315,54967,2,0,P|445:280|441:227,1,77.0000007343292
468,139,55234,2,0,P|436:88|398:54,1,77.0000007343292
348,25,55500,1,0,0:0:0:0:
254,24,55634,5,0,0:0:0:0:
153,45,55767,2,0,P|119:73|95:137,1,77.0000007343292
204,99,56034,2,0,P|173:123|157:185,1,77.0000007343292
49,194,56300,1,0,0:0:0:0:
155,246,56434,5,0,0:0:0:0:
325,167,56567,2,0,P|290:193|266:245,1,77.0000007343292
246,288,56834,2,0,P|326:272|334:259,1,77.0000007343292
262,366,57100,1,0,0:0:0:0:
369,228,57234,5,0,0:0:0:0:
369,134,57367,2,0,P|343:99|282:86,1,77.0000007343292
339,20,57634,2,0,P|296:17|252:49,1,77.0000007343292
181,71,57900,1,0,0:0:0:0:
240,181,58034,5,0,0:0:0:0:
288,274,58167,2,0,P|314:309|366:333,1,77.0000007343292
489,301,58434,2,0,P|463:266|411:242,1,77.0000007343292
415,323,58700,5,0,0:0:0:0:
365,253,58834,1,0,0:0:0:0:
298,179,58967,2,4,P|272:144|220:120,1,77.0000007343292
141,105,59234,2,4,P|62:144|46:166,1,77.0000007343292
0,204,59500,1,8,0:0:0:0:
93,234,59634,2,4,P|84:280|136:317,1,77.0000007343292
205,298,59900,2,4,P|212:252|160:228,1,77.0000007343292
40,108,60166,5,0,0:0:0:0:
101,25,60300,1,0,0:0:0:0:
170,106,60434,2,0,P|196:141|248:165,1,77.0000007343292
480,109,60701,2,0,P|454:74|402:50,1,77.0000007343292
308,33,60967,5,0,0:0:0:0:
415,170,61101,1,0,0:0:0:0:
234,171,61234,2,0,P|260:206|312:230,1,77.0000007343292
233,310,61501,2,0,P|207:275|155:251,1,77.0000007343292
31,245,61767,5,0,0:0:0:0:
118,140,61901,1,0,0:0:0:0:
291,265,62034,2,0,P|317:300|369:324,1,77.0000007343292
491,185,62301,2,0,P|465:150|413:126,1,77.0000007343292
326,73,62567,5,0,0:0:0:0:
238,164,62701,1,0,0:0:0:0:
198,37,62834,2,0,P|224:72|276:96,1,77.0000007343292
481,269,63101,2,0,P|455:304|403:328,1,77.0000007343292
302,337,63367,5,0,0:0:0:0:
180,339,63501,1,0,0:0:0:0:
0,224,63634,6,2,L|1:134,1,77.0000007343292
175,223,63900,2,2,L|208:144,1,77.0000007343292
368,224,64167,2,2,L|432:160,1,77.0000007343292
495,32,64434,5,0,0:0:0:0:
495,32,64567,1,0,0:0:0:0:
496,112,64700,6,2,L|432:160,1,77.0000007343292
339,96,64967,2,2,L|288:160,1,77.0000007343292
179,84,65234,2,2,L|142:151,1,77.0000007343292
16,80,65500,2,2,L|16:160,1,77.0000007343292
16,288,65767,1,0,0:0:0:0:
112,176,65900,1,0,0:0:0:0:
208,288,66034,2,0,L|208:192,1,77.0000007343292
352,288,66300,1,0,0:0:0:0:
400,160,66434,6,0,P|336:80|256:64,1,172.666666007996
128,96,66834,5,0,0:0:0:0:
101,11,66967,2,0,P|79:44|28:69,1,86.3333330039978
53,154,67234,2,0,P|95:164|128:192,1,86.3333330039978
240,288,67500,1,4,0:0:0:0:
336,192,67634,5,4,0:0:0:0:
416,304,67767,2,0,P|394:337|343:362,1,86.3333330039978
276,336,68034,2,0,P|298:303|349:278,1,86.3333330039978
482,262,68300,1,4,0:0:0:0:
381,146,68434,5,4,0:3:0:0:
315,51,68567,2,0,P|293:84|242:109,1,86.3333330039978
105,111,68834,2,0,P|147:121|180:149,1,86.3333330039978
266,264,69100,1,4,0:0:0:0:
363,193,69234,5,4,0:0:0:0:
253,166,69367,2,0,P|231:199|180:224,1,86.3333330039978
322,221,69634,2,0,P|364:231|397:259,1,86.3333330039978
401,370,69900,1,4,0:0:0:0:
285,372,70034,5,4,0:0:0:0:
338,304,70167,2,0,P|261:292|214:345,1,86.3333330039978
153,296,70434,2,0,P|163:254|191:221,1,86.3333330039978
335,225,70700,1,4,0:0:0:0:
257,100,70834,5,4,0:0:0:0:
330,118,70967,2,0,P|308:151|257:176,1,86.3333330039978
263,287,71234,2,0,P|305:297|338:325,1,86.3333330039978
492,324,71500,1,4,0:0:0:0:
415,199,71634,5,4,0:0:0:0:
322,158,71767,2,2,P|300:191|249:216,1,86.3333330039978
177,219,72034,2,2,P|135:229|102:257,1,86.3333330039978
112,112,72300,1,4,0:0:0:0:
179,20,72434,5,4,0:0:0:0:
255,119,72567,2,2,P|288:141|313:192,1,86.3333330039978
325,296,72834,2,2,P|367:286|400:258,1,86.3333330039978
465,175,73100,1,4,0:0:0:0:
324,90,73234,5,4,0:0:0:0:
367,176,73367,2,0,P|345:209|294:234,1,86.3333330039978
211,235,73634,2,0,P|161:225|132:193,1,86.3333330039978
45,90,73900,1,4,0:0:0:0:
199,163,74034,5,4,0:0:0:0:
192,93,74167,2,0,P|234:101|264:133,1,86.3333330039978
336,123,74434,2,0,P|326:165|298:198,1,86.3333330039978
168,307,74700,1,4,0:0:0:0:
340,304,74834,5,4,0:0:0:0:
198,192,74967,2,0,P|165:170|140:119,1,86.3333330039978
219,119,75234,2,0,P|241:86|292:61,1,86.3333330039978
430,65,75500,1,4,0:0:0:0:
345,175,75634,5,4,0:0:0:0:
443,282,75767,2,0,P|421:315|370:340,1,86.3333330039978
236,342,76034,2,0,P|203:320|178:269,1,86.3333330039978
42,280,76300,1,4,0:0:0:0:
112,158,76434,5,4,0:0:0:0:
256,161,76567,2,2,P|285:136|336:111,1,86.3333330039978
426,111,76834,2,2,P|464:130|497:158,1,86.3333330039978
479,344,77100,1,4,0:0:0:0:
400,272,77234,5,4,0:0:0:0:
320,352,77367,2,2,P|278:362|214:298,1,86.3333330039978
64,240,77634,2,2,L|64:144,1,86.3333330039978
64,64,77900,1,4,0:0:0:0:
224,320,78034,5,4,0:0:0:0:
224,240,78167,2,2,L|224:128,1,86.3333330039978
384,240,78434,2,2,L|384:128,1,86.3333330039978
384,64,78700,1,4,0:0:0:0:
144,240,78834,2,2,L|144:112,1,86.3333330039978
144,64,79100,1,4,0:0:0:0:
256,192,79234,12,0,80434,0:0:0:0:
256,192,80834,5,0,0:0:0:0:
256,326,81234,5,0,0:0:0:0:
121,191,81367,1,0,0:0:0:0:
256,57,81500,1,0,0:0:0:0:
390,192,81634,1,0,0:0:0:0:
161,286,82034,1,0,0:0:0:0:
161,97,82167,1,0,0:0:0:0:
350,97,82301,1,0,0:0:0:0:
350,286,82434,1,0,0:0:0:0:
