osu file format v14

[General]
AudioFilename: audio.mp3
AudioLeadIn: 0
PreviewTime: 38274
Countdown: 1
SampleSet: None
StackLeniency: 0.7
Mode: 0
LetterboxInBreaks: 0
WidescreenStoryboard: 1

[Editor]
DistanceSpacing: 0.8
BeatDivisor: 4
GridSize: 16
TimelineZoom: 0.8

[Metadata]
Title:Glorious Morning
TitleUnicode:Glorious Morning
Artist:Waterflame
ArtistUnicode:Waterflame
Creator:EmojiBoi69
Version:Easy
Source:Age of War, Siegius
Tags:
BeatmapID:1794916
BeatmapSetID:858893

[Difficulty]
HPDrainRate:2
CircleSize:3
OverallDifficulty:3
ApproachRate:2
SliderMultiplier:0.9
SliderTickRate:1

[Events]
//Background and Video events
0,0,"hqdefault[1].jpg",0,0
//Break Periods
2,26238,36714
//Storyboard Layer 0 (Background)
//Storyboard Layer 1 (Fail)
//Storyboard Layer 2 (Pass)
//Storyboard Layer 3 (Foreground)
//Storyboard Sound Samples

[TimingPoints]
380.18990131734,394.736842105263,4,1,0,30,1,0

[HitObjects]
48,48,380,5,0,0:0:0:0:
48,112,676,2,0,L|48:192,1,67.5,0|4,0:0|0:0,0:0:0:0:
208,192,1959,5,0,0:0:0:0:
208,128,2353,2,0,L|272:128,1,45,0|4,0:0|0:0,0:0:0:0:
368,128,3143,5,0,0:0:0:0:
368,192,3538,1,0,0:0:0:0:
368,256,3932,2,0,L|304:256,1,45,0|4,0:0|0:0,0:0:0:0:
208,256,4722,5,0,0:0:0:0:
144,256,5117,1,0,0:0:0:0:
80,256,5511,2,0,L|80:192,1,45,0|4,0:0|0:0,0:0:0:0:
80,96,6301,5,0,0:0:0:0:
144,96,6695,1,0,0:0:0:0:
208,96,7090,2,0,L|272:96,1,45,0|4,0:0|0:0,0:0:0:0:
432,96,8274,5,0,0:0:0:0:
432,160,8669,2,0,L|432:224,1,45,0|4,0:0|0:0,0:0:0:0:
432,320,9459,5,0,0:0:0:0:
368,320,9853,1,0,0:0:0:0:
288,320,10248,2,8,B|16:320|-48:256|464:144,1,630
464,80,13406,6,8,B|320:0|208:128,1,270
224,192,14985,2,8,B|368:272|480:144,1,270
464,80,16564,2,0,L|384:80,1,67.5,8|4,0:0|0:0,0:0:0:0:
304,80,17353,5,0,0:0:0:0:
240,80,17748,1,0,0:0:0:0:
176,80,18143,2,0,L|176:160,1,67.5,0|4,0:0|0:0,0:0:0:0:
176,240,18932,5,0,0:0:0:0:
176,304,19327,1,0,0:0:0:0:
256,304,19722,2,0,L|336:304,1,67.5,0|4,0:0|0:0,0:0:0:0:
320,144,20906,6,0,P|256:32|112:144,1,360,0|8,0:0|0:0,0:0:0:0:
112,224,22880,2,0,L|112:304,1,67.5,8|4,0:0|0:0,0:0:0:0:
272,288,24064,5,0,0:0:0:0:
352,288,24459,2,0,L|352:208,1,67.5,0|4,0:0|0:0,0:0:0:0:
352,128,25248,5,0,0:0:0:0:
288,128,25643,1,8,0:0:0:0:
224,128,26038,1,8,0:0:0:0:
48,48,38274,5,0,0:0:0:0:
48,192,39064,2,2,P|48:288|128:320,1,180
256,320,40643,5,0,0:0:0:0:
256,320,41432,1,4,0:0:0:0:
397,321,42222,6,2,P|470:277|464:192,1,180
320,192,43801,1,0,0:0:0:0:
192,192,44492,1,4,0:0:0:0:
48,192,45380,6,2,P|48:288|128:320,1,180
397,321,46959,2,2,P|470:277|464:192,1,180
256,192,48538,12,0,50906,0:0:0:0:
256,192,52485,5,4,0:0:0:0:
400,192,53274,1,0,0:0:0:0:
400,336,54064,1,0,0:0:0:0:
256,336,54853,1,0,0:0:0:0:
112,336,55643,1,0,0:0:0:0:
112,192,56432,1,0,0:0:0:0:
256,192,57222,6,2,L|448:192,1,180,6|2,0:0|0:0,0:0:0:0:
432,336,58801,1,8,0:0:0:0:
368,336,59195,1,8,0:0:0:0:
304,336,59590,1,8,0:0:0:0:
240,336,59985,1,8,0:0:0:0:
240,192,60774,6,0,L|240:96,1,90,0|4,0:0|0:0,0:0:0:0:
240,102,61959,1,8,0:0:0:0:
240,102,62748,1,8,0:0:0:0:
240,240,63538,6,8,L|432:240,1,180,8|4,0:0|0:0,0:0:0:0:
416,96,65117,1,0,0:0:0:0:
272,96,65906,1,0,0:0:0:0:
128,96,66695,2,2,P|80:160|128:240,1,180
272,240,68274,5,0,0:0:0:0:
272,240,69064,1,0,0:0:0:0:
272,240,69853,1,8,0:0:0:0:
416,240,70643,6,0,L|416:48,1,180,0|4,0:0|0:0,0:0:0:0:
272,64,72222,2,0,L|80:64,1,180,0|4,0:0|0:0,0:0:0:0:
96,208,73801,2,0,L|288:208,1,180,0|4,0:0|0:0,0:0:0:0:
276,208,75380,5,4,0:0:0:0:
276,208,76169,1,4,0:0:0:0:
400,288,76959,6,2,P|444:215|396:145,1,180
256,144,78538,2,2,P|208:208|256:288,1,180
400,288,80117,5,8,0:0:0:0:
400,144,80906,1,8,0:0:0:0:
256,144,81695,1,8,0:0:0:0:
256,288,82485,1,8,0:0:0:0:
400,272,83274,6,2,B|400:32|96:32|96:288,1,517.5
256,272,86432,5,8,0:0:0:0:
256,272,87222,1,8,0:0:0:0:
256,272,88011,1,8,0:0:0:0:
256,272,88801,1,12,0:0:0:0:
256,96,89590,6,2,P|208:176|272:96,1,360
256,240,91959,5,8,0:0:0:0:
112,240,92748,1,8,0:0:0:0:
256,240,93538,1,8,0:0:0:0:
400,240,94327,1,8,0:0:0:0:
256,240,95117,6,2,P|208:160|272:240,1,360
128,240,97485,5,8,0:0:0:0:
128,96,98274,1,8,0:0:0:0:
272,96,99064,1,8,0:0:0:0:
416,96,99853,1,8,0:0:0:0:
416,240,100643,1,8,0:0:0:0:
272,240,101432,1,12,0:0:0:0:
256,192,103011,5,0,0:0:0:0:
256,192,103801,1,0,0:0:0:0:
256,192,104590,1,8,0:0:0:0:
256,192,106169,5,0,0:0:0:0:
256,192,106959,1,8,0:0:0:0:
256,192,107748,1,8,0:0:0:0:
