osu file format v14

[General]
AudioFilename: audio.mp3
AudioLeadIn: 0
PreviewTime: 33149
Countdown: 0
SampleSet: Soft
StackLeniency: 0.7
Mode: 0
LetterboxInBreaks: 0
WidescreenStoryboard: 1

[Editor]
Bookmarks: 49003
DistanceSpacing: 1.5
BeatDivisor: 6
GridSize: 4
TimelineZoom: 2.799999

[Metadata]
Title:Endgame
TitleUnicode:Endgame
Artist:Waterflame
ArtistUnicode:Waterflame
Creator:N0thing
Version:N0things End
Source:
Tags:
BeatmapID:1005080
BeatmapSetID:469342

[Difficulty]
HPDrainRate:5.4
CircleSize:4
OverallDifficulty:5
ApproachRate:9
SliderMultiplier:1.7
SliderTickRate:4

[Events]
//Background and Video events
//Break Periods
//Storyboard Layer 0 (Background)
//Storyboard Layer 1 (Fail)
//Storyboard Layer 2 (Pass)
//Storyboard Layer 3 (Foreground)
//Storyboard Sound Samples

[TimingPoints]
7865,487.80487804878,4,2,0,80,1,0
7865,-100,4,2,0,80,0,0
15182,-200,4,2,0,80,0,0
17133,-66.6666666666667,4,2,0,80,0,0
17621,-100,4,2,0,80,0,0
18108,-57.1428571428571,4,2,0,80,0,0
18352,-100,4,2,0,80,0,0
22011,-57.1428571428571,4,2,0,80,0,0
25913,-57.1428571428571,4,2,0,80,0,0
26157,-100,4,2,0,80,0,0
29816,-57.1428571428571,4,2,0,80,0,0
30060,-100,4,2,0,80,0,0
33230,-100,4,2,0,80,0,1
34125,-57.1428571428571,4,2,0,80,0,1
34856,-100,4,2,0,80,0,1
35815,-57.1428571428571,4,2,0,80,0,1
36157,-57.1428571428571,4,2,0,80,0,1
37783,-133.333333333333,4,2,0,80,0,1
38271,-100,4,2,0,80,0,1
39084,-133.333333333333,4,2,0,80,0,1
40060,-50,4,2,0,80,0,1
42499,-100,4,2,0,80,0,1
43474,-57.1428571428571,4,2,0,80,0,1
44612,-100,4,2,0,80,0,1
45100,-66.6666666666667,4,2,0,80,0,1
45832,-57.1428571428571,4,2,0,80,0,1
46401,-50,4,2,0,80,0,1
46889,-57.1428571428571,4,2,0,80,0,1
47133,-100,4,2,0,80,0,1
47864,-50,4,2,0,80,0,0
48840,-57.1428571428571,4,2,0,80,0,1
50304,-100,4,2,0,80,0,1
50791,-66.6666666666667,4,2,0,80,0,1
51279,-57.1428571428571,4,2,0,80,0,1
52417,-100,4,2,0,80,0,1
53230,-57.1428571428571,4,2,0,80,0,1
55669,-50,4,2,0,80,0,1
56157,-57.1428571428571,4,2,0,80,0,1
57133,-50,4,2,0,80,0,1
60304,-100,4,2,0,80,0,1
63474,-50,4,2,0,80,0,0
99572,-57.1428571428571,4,2,0,80,0,1
114206,-57.1428571428571,4,2,0,80,0,0
115182,-57.1428571428571,4,2,0,80,0,1
130304,-57.1428571428571,4,2,0,80,0,0

[HitObjects]
196,172,60,5,0,0:0:0:0:
372,128,466,2,0,L|380:172,1,28.3333333333333
284,299,1035,6,0,B|216:299|202:243,1,85
190,146,1442,1,0,0:0:0:0:
182,109,1523,1,0,0:0:0:0:
211,264,1767,1,0,0:0:0:0:
182,109,2011,1,0,0:0:0:0:
276,196,2417,5,0,0:0:0:0:
292,168,2498,1,0,0:0:0:0:
366,52,2743,1,0,0:0:0:0:
105,99,2986,2,0,B|105:155|169:175,1,85
243,236,3393,5,0,0:0:0:0:
215,266,3474,1,0,0:0:0:0:
127,358,3637,1,0,0:0:0:0:
376,340,3962,1,0,0:0:0:0:
275,223,4369,1,8,0:0:0:0:
245,195,4450,1,0,0:0:0:0:
148,83,4938,6,0,B|95:91|88:134,1,85
240,160,5344,1,0,0:0:0:0:
280,164,5425,1,0,0:0:0:0:
416,248,5669,5,0,0:0:0:0:
408,84,5913,1,0,0:0:0:0:
268,196,6401,5,0,0:0:0:0:
257,162,6482,1,0,0:0:0:0:
136,108,6645,1,0,0:0:0:0:
120,236,6889,2,0,B|84:284|84:284|60:244|84:304|64:304|36:312,1,113.333333333333
288,236,7377,6,0,L|312:208,1,28.3333333333333
224,192,7621,2,0,L|188:152,1,28.3333333333333
76,212,7865,5,0,0:0:0:0:
122,84,8108,1,0,0:0:0:0:
200,192,8271,5,0,0:0:0:0:
220,224,8352,1,0,0:0:0:0:
272,336,8596,5,0,0:0:0:0:
416,264,8840,2,0,P|422:222|414:180,1,85
344,200,9247,2,0,L|296:204,1,28.3333333333333
456,172,9491,2,0,L|483:177,1,28.3333333333333
160,52,9816,5,0,0:0:0:0:
128,196,10060,1,0,0:0:0:0:
288,152,10222,5,0,0:0:0:0:
324,140,10304,1,0,0:0:0:0:
440,224,10547,1,0,0:0:0:0:
376,320,10791,2,0,B|341:344|276:324,1,85
312,200,11198,6,0,L|328:150,1,28.3333333333333
296,296,11442,2,0,L|304:323,1,28.3333333333333
145,85,11767,5,0,0:0:0:0:
112,212,12011,1,0,0:0:0:0:
240,216,12173,1,0,0:0:0:0:
272,204,12255,1,0,0:0:0:0:
436,172,12499,5,0,0:0:0:0:
312,84,12743,2,0,B|291:64|248:64,1,56.6666666666667
264,204,13149,5,0,0:0:0:0:
276,260,13230,1,0,0:0:0:0:
120,184,13474,1,0,0:0:0:0:
244,68,13718,5,0,0:0:0:0:
352,172,13962,1,0,0:0:0:0:
192,208,14125,1,0,0:0:0:0:
160,232,14206,1,0,0:0:0:0:
284,328,14450,1,0,0:0:0:0:
428,248,14694,2,0,P|424:208|408:172,1,56.6666666666667
256,192,15182,12,0,16401,0:0:0:0:
236,64,16645,5,0,0:0:0:0:
92,208,16889,1,0,0:0:0:0:
296,200,17133,5,0,0:0:0:0:
335,204,17214,1,0,0:0:0:0:
380,199,17295,1,0,0:0:0:0:
423,185,17377,1,0,0:0:0:0:
476,164,17458,1,0,0:0:0:0:
264,208,17621,6,0,L|235:123,1,85
296,304,18108,1,0,0:0:0:0:
232,124,18271,2,0,L|208:56,1,49.5833338061969
172,208,18596,6,0,L|136:180,1,28.3333333333333
300,172,18840,1,0,0:0:0:0:
292,260,19084,2,0,L|328:288,1,28.3333333333333
176,288,19328,1,0,0:0:0:0:
236,177,19491,6,0,L|268:169,1,28.3333333333333
384,96,19816,5,0,0:0:0:0:
404,220,20060,1,0,0:0:0:0:
292,176,20222,6,0,L|248:188,1,28.3333333333333
152,120,20547,1,0,0:0:0:0:
288,64,20791,5,0,0:0:0:0:
96,100,21035,5,0,0:0:0:0:
248,176,21198,2,0,L|276:192,1,28.3333333333333
367,235,21523,6,0,L|311:171,1,85
420,292,22011,1,0,0:0:0:0:
312,172,22173,2,0,L|268:124,1,49.5833338061969
108,252,22499,5,0,0:0:0:0:
336,204,22743,1,0,0:0:0:0:
212,256,22986,1,0,0:0:0:0:
296,72,23149,6,0,L|360:104,1,49.5833338061969
280,260,23393,2,0,L|220:216,1,49.5833338061969
320,148,23718,2,0,L|384:172,1,49.5833338061969
332,240,23962,5,0,0:0:0:0:
192,232,24206,5,0,0:0:0:0:
228,116,24450,1,0,0:0:0:0:
60,164,24694,5,0,0:0:0:0:
64,192,24775,1,0,0:0:0:0:
76,216,24856,1,0,0:0:0:0:
100,248,24938,1,0,0:0:0:0:
124,276,25019,1,0,0:0:0:0:
148,308,25100,1,0,0:0:0:0:
272,232,25425,6,0,L|284:76,1,148.750001418591
264,332,25913,1,0,0:0:0:0:
283,83,26076,2,0,L|291:11,1,49.5833338061969
400,128,26401,6,0,L|408:172,1,28.3333333333333
176,216,26645,1,0,0:0:0:0:
288,96,26889,5,0,0:0:0:0:
272,244,27133,1,0,0:0:0:0:
388,152,27295,6,0,L|400:184,1,28.3333333333333
368,312,27620,1,0,0:0:0:0:
240,220,27864,1,0,0:0:0:0:
448,240,28108,2,0,L|496:264,2,42.5
228,324,28596,5,0,0:0:0:0:
160,136,28840,5,0,0:0:0:0:
304,280,29003,2,0,L|328:304,1,28.3333333333333
260,136,29328,6,0,L|182:56,1,85
360,216,29816,1,0,0:0:0:0:
200,68,29978,2,0,L|144:20,1,49.5833338061969
112,156,30222,2,0,L|135:171,1,28.3333333333333
200,296,30547,1,0,0:0:0:0:
368,200,30791,2,0,L|392:184,1,28.3333333333333
232,300,31035,5,0,0:0:0:0:
280,128,31279,1,0,0:0:0:0:
152,208,31523,2,0,L|188:224,1,28.3333333333333
360,236,31767,1,0,0:0:0:0:
128,144,32011,5,0,0:0:0:0:
232,288,32255,1,0,0:0:0:0:
368,184,32499,1,0,0:0:0:0:
304,108,32743,5,0,0:0:0:0:
264,88,32824,1,0,0:0:0:0:
224,80,32905,1,0,0:0:0:0:
180,84,32986,1,0,0:0:0:0:
196,240,33230,5,0,0:0:0:0:
320,152,33392,5,0,0:0:0:0:
352,112,33474,1,0,0:0:0:0:
392,272,33718,5,0,0:0:0:0:
328,188,33881,5,0,0:0:0:0:
312,232,33962,1,0,0:0:0:0:
276,184,34125,5,0,0:0:0:0:
280,228,34206,1,0,0:0:0:0:
224,184,34369,5,0,0:0:0:0:
244,228,34450,1,0,0:0:0:0:
444,192,34694,5,0,0:0:0:0:
304,248,34856,1,0,0:0:0:0:
284,280,34938,1,0,0:0:0:0:
120,280,35182,5,0,0:0:0:0:
224,164,35344,1,0,0:0:0:0:
220,124,35425,1,0,0:0:0:0:
360,208,35669,5,0,0:0:0:0:
268,152,35832,1,0,0:0:0:0:
252,112,35913,1,0,0:0:0:0:
320,116,36076,1,0,0:0:0:0:
384,150,36157,2,0,B|416:188|364:160|420:136|463:176,1,99.1666676123937
132,104,36645,5,0,0:0:0:0:
204,148,36808,2,0,L|248:184,1,49.5833338061969
332,144,37051,1,0,0:0:0:0:
388,112,37133,1,0,0:0:0:0:
308,64,37295,1,0,0:0:0:0:
364,28,37377,1,0,0:0:0:0:
332,144,37621,5,0,0:0:0:0:
252,168,37783,5,0,0:0:0:0:
228,224,37864,1,0,0:0:0:0:
188,160,38027,5,0,0:0:0:0:
176,212,38108,1,0,0:0:0:0:
120,160,38271,5,0,0:0:0:0:
132,220,38352,1,0,0:0:0:0:
76,196,38515,5,0,0:0:0:0:
164,264,38596,1,0,0:0:0:0:
304,300,38840,6,0,L|336:316,1,28.3333333333333
432,276,39084,2,0,P|445:259|451:239,1,42.5000016212464
436,188,39328,6,0,L|428:164,2,21.2500008106232
392,212,39572,6,0,L|352:225,1,42.5000016212464
192,204,39816,1,0,0:0:0:0:
264,280,40060,6,0,B|191:272|194:214|194:214|114:217|112:138|112:138|45:152|47:78|47:78,1,340
196,128,40791,5,0,0:0:0:0:
196,240,41036,5,0,0:0:0:0:
320,144,41198,5,0,0:0:0:0:
364,112,41280,1,0,0:0:0:0:
392,272,41524,5,0,0:0:0:0:
352,200,41687,5,0,0:0:0:0:
376,164,41767,1,0,0:0:0:0:
332,132,41931,5,0,0:0:0:0:
364,96,42011,1,0,0:0:0:0:
320,64,42175,5,0,0:0:0:0:
348,32,42255,1,0,0:0:0:0:
444,192,42500,5,0,0:0:0:0:
328,268,42661,2,0,L|288:284,1,28.3333333333333
184,132,42905,2,0,L|224:136,1,28.3333333333333
260,184,43150,1,0,0:0:0:0:
276,140,43231,1,0,0:0:0:0:
136,164,43474,5,0,0:0:0:0:
264,140,43637,5,0,0:0:0:0:
259,97,43718,1,0,0:0:0:0:
304,113,43881,5,0,0:0:0:0:
297,67,43962,1,0,0:0:0:0:
350,89,44125,5,0,0:0:0:0:
344,40,44206,1,0,0:0:0:0:
444,96,44369,1,0,0:0:0:0:
460,120,44450,6,0,L|384:204,1,99.1666676123937
352,236,44694,1,0,0:0:0:0:
196,256,44856,5,0,0:0:0:0:
224,200,44938,1,0,0:0:0:0:
272,120,45100,2,0,L|216:88,1,42.5000016212464
100,176,45427,5,0,0:0:0:0:
208,148,45589,5,0,0:0:0:0:
236,192,45670,1,0,0:0:0:0:
272,152,45833,5,0,0:0:0:0:
284,204,45914,1,0,0:0:0:0:
328,172,46077,5,0,0:0:0:0:
324,224,46158,1,0,0:0:0:0:
384,188,46321,5,0,0:0:0:0:
364,244,46402,1,0,0:0:0:0:
420,224,46564,5,0,0:0:0:0:
332,288,46645,1,0,0:0:0:0:
80,276,46890,2,0,P|67:259|60:238,1,42.5000016212464
76,188,47133,6,0,L|88:148,2,28.3333333333333
120,212,47366,6,0,L|160:225,1,42.5000016212464
320,204,47622,1,0,0:0:0:0:
248,280,47796,6,0,B|321:272|318:214|318:214|398:217|400:138|400:138,1,226.666666666667
408,160,48759,6,0,L|432:216,4,56.6666666666667
112,216,49328,5,0,0:0:0:0:
316,264,49491,1,0,0:0:0:0:
316,264,49572,1,0,0:0:0:0:
316,264,49653,1,0,0:0:0:0:
152,128,49816,2,0,L|200:92,1,49.5833338061969
364,128,50060,2,0,L|316:92,1,49.5833338061969
344,272,50304,5,0,0:0:0:0:
216,268,50547,2,0,L|256:260,1,28.3333333333333
100,296,50791,6,0,L|152:276,1,42.5000016212464
392,292,51035,2,0,L|349:274,1,42.5000016212464
88,204,51279,5,0,0:0:0:0:
252,328,51442,1,0,0:0:0:0:
284,336,51523,1,0,0:0:0:0:
312,336,51604,1,0,0:0:0:0:
312,136,51767,2,0,L|268:196,1,49.5833338061969
160,104,52011,2,0,L|216:120,1,49.5833338061969
312,220,52255,6,0,L|312:164,1,49.5833338061969
408,224,52499,2,0,L|388:188,1,28.3333333333333
408,288,52743,6,0,L|376:304,1,28.3333333333333
248,312,52986,2,0,L|224:284,1,28.3333333333333
404,284,53230,6,0,L|428:232,1,49.5833338061969
252,188,53474,2,0,L|252:237,1,49.5833338061969
376,108,53718,2,0,L|320:112,1,49.5833338061969
304,300,53962,2,0,L|360:332,1,49.5833338061969
272,232,54206,5,0,0:0:0:0:
204,156,54369,6,0,L|148:188,2,49.5833338061969
256,236,54694,5,0,0:0:0:0:
184,136,54938,1,0,0:0:0:0:
120,244,55100,1,0,0:0:0:0:
156,232,55182,2,0,L|216:204,1,49.5833338061969
320,148,55425,1,0,0:0:0:0:
432,264,55669,6,0,B|384:312|384:312|328:272|288:312|288:312|232:272|184:320|184:320|128:280,1,340
200,240,56401,5,0,0:0:0:0:
368,324,56564,1,0,0:0:0:0:
400,336,56645,1,0,0:0:0:0:
272,120,56889,6,0,P|304:128|320:160,1,49.5833338061969
168,296,57133,5,0,0:0:0:0:
340,148,57295,5,0,0:0:0:0:
328,180,57377,1,0,0:0:0:0:
268,344,57621,2,0,L|256:272,1,56.6666666666667
104,172,57864,2,0,L|172:160,1,56.6666666666667
400,292,58108,5,0,0:0:0:0:
312,128,58352,2,0,L|277:93,1,49.5833338061969
72,156,58596,6,0,L|160:156,1,49.5833338061969
312,272,58840,2,0,L|284:200,1,49.5833338061969
144,84,59084,5,0,0:0:0:0:
420,264,59328,2,0,L|296:228,1,99.1666676123937
124,208,59572,2,0,L|264:172,1,99.1666676123937
488,176,59816,2,0,L|376:136,1,99.1666676123937
60,112,60060,2,0,L|188:92,1,99.1666676123937
272,100,60304,6,0,L|256:136,1,28.3333333333333
360,152,60466,1,0,0:0:0:0:
376,140,60547,2,0,L|392:116,1,28.3333333333333
192,172,60710,5,0,0:0:0:0:
200,196,60791,1,0,0:0:0:0:
420,188,60954,5,0,0:0:0:0:
336,292,61198,1,0,0:0:0:0:
336,300,61279,1,0,0:0:0:0:
208,208,61442,1,0,0:0:0:0:
212,220,61523,1,0,0:0:0:0:
288,88,61686,1,0,0:0:0:0:
292,104,61767,1,0,0:0:0:0:
388,200,61930,1,0,0:0:0:0:
392,212,62011,2,0,B|376:206|379:241|407:265|407:265|324:288|347:325,1,141.666666666667
148,256,62499,5,0,0:0:0:0:
400,108,62743,1,0,0:0:0:0:
276,156,62905,5,0,0:0:0:0:
232,184,62986,2,0,L|176:224,1,49.5833338061969,0|0,2:0|0:0,0:0:0:0:
128,184,63230,1,0,0:0:0:0:
72,264,63474,6,0,B|104:296|104:296|160:264|216:304|216:304|272:264|328:312|328:312|400:272,1,340
376,280,64450,5,0,0:0:0:0:
152,108,64694,1,0,0:0:0:0:
376,284,64938,5,0,0:0:0:0:
240,180,65100,1,0,0:0:0:0:
212,160,65182,1,0,0:0:0:0:
128,264,65425,6,0,L|212:280,1,56.6666666666667
384,188,65669,1,0,0:0:0:0:
332,360,65913,6,0,L|272:320,1,56.6666666666667
160,160,66157,1,0,0:0:0:0:
300,216,66320,5,0,0:0:0:0:
344,236,66401,1,0,0:0:0:0:
488,216,66645,1,0,0:0:0:0:
456,80,66889,1,0,0:0:0:0:
304,68,67051,1,0,0:0:0:0:
272,84,67133,2,0,L|224:136,1,56.6666666666667
328,160,67295,1,0,0:0:0:0:
360,168,67377,1,0,0:0:0:0:
368,284,67621,1,0,0:0:0:0:
240,296,67864,1,0,0:0:0:0:
144,200,68027,1,0,0:0:0:0:
124,156,68108,1,0,0:0:0:0:
220,40,68271,1,0,0:0:0:0:
268,48,68352,1,0,0:0:0:0:
448,168,68596,1,0,0:0:0:0:
256,184,68840,1,0,0:0:0:0:
392,276,69003,1,0,0:0:0:0:
424,304,69084,1,0,0:0:0:0:
256,316,69247,1,0,0:0:0:0:
208,308,69328,1,0,0:0:0:0:
112,176,69572,1,0,0:0:0:0:
264,60,69816,1,0,0:0:0:0:
404,120,70060,1,0,0:0:0:0:
400,264,70304,1,0,0:0:0:0:
276,184,70547,1,0,0:0:0:0:
100,284,70791,1,0,0:0:0:0:
176,160,70954,1,0,0:0:0:0:
156,124,71035,1,0,0:0:0:0:
176,160,71198,1,0,0:0:0:0:
176,172,71279,1,0,0:0:0:0:
280,336,71523,1,0,0:0:0:0:
384,260,71767,1,0,0:0:0:0:
384,260,72011,1,0,0:0:0:0:
416,224,72255,1,0,0:0:0:0:
416,224,72499,1,0,0:0:0:0:
416,224,72743,1,0,0:0:0:0:
416,224,72905,1,0,0:0:0:0:
416,224,72986,1,0,0:0:0:0:
424,228,73149,1,0,0:0:0:0:
424,228,73230,1,0,0:0:0:0:
424,228,73474,1,0,0:0:0:0:
380,220,73718,1,0,0:0:0:0:
352,220,73962,1,0,0:0:0:0:
352,220,74125,1,0,0:0:0:0:
352,220,74206,1,0,0:0:0:0:
232,196,74450,1,0,0:0:0:0:
136,152,74694,1,0,0:0:0:0:
208,244,74856,1,0,0:0:0:0:
184,176,74938,1,0,0:0:0:0:
308,272,75100,1,0,0:0:0:0:
336,216,75182,1,0,0:0:0:0:
448,204,75425,1,0,0:0:0:0:
296,124,75669,1,0,0:0:0:0:
176,228,75832,1,0,0:0:0:0:
168,232,75913,1,0,0:0:0:0:
168,232,76076,1,0,0:0:0:0:
168,232,76157,1,0,0:0:0:0:
168,232,76401,1,0,0:0:0:0:
292,240,76645,1,0,0:0:0:0:
396,200,76808,1,0,0:0:0:0:
428,276,76889,1,0,0:0:0:0:
244,132,77051,1,0,0:0:0:0:
244,132,77133,1,0,0:0:0:0:
244,132,77295,1,0,0:0:0:0:
244,132,77377,1,0,0:0:0:0:
244,132,77539,1,0,0:0:0:0:
244,132,77621,1,0,0:0:0:0:
240,192,77783,1,0,0:0:0:0:
244,132,77864,1,0,0:0:0:0:
240,192,78108,1,0,0:0:0:0:
368,216,78352,1,0,0:0:0:0:
224,272,78596,1,0,0:0:0:0:
344,136,78759,1,0,0:0:0:0:
128,196,78840,1,0,0:0:0:0:
436,240,79003,1,0,0:0:0:0:
424,128,79084,1,0,0:0:0:0:
420,268,79328,1,0,0:0:0:0:
320,272,79572,1,0,0:0:0:0:
244,256,79816,1,0,0:0:0:0:
168,188,80060,1,0,0:0:0:0:
252,140,80304,1,0,0:0:0:0:
432,256,80466,1,0,0:0:0:0:
368,172,80547,1,0,0:0:0:0:
432,256,80710,1,0,0:0:0:0:
336,256,80791,1,0,0:0:0:0:
224,228,81035,1,0,0:0:0:0:
432,256,81198,1,0,0:0:0:0:
288,160,81279,1,0,0:0:0:0:
432,256,81442,1,0,0:0:0:0:
180,200,81523,1,0,0:0:0:0:
432,256,81686,1,0,0:0:0:0:
180,200,81767,1,0,0:0:0:0:
432,256,82011,1,0,0:0:0:0:
432,256,82255,1,0,0:0:0:0:
432,256,82417,1,0,0:0:0:0:
432,256,82499,1,0,0:0:0:0:
168,172,82743,2,0,L|344:208,1,170
392,128,83230,1,0,0:0:0:0:
192,264,83474,1,0,0:0:0:0:
128,152,83718,1,0,0:0:0:0:
204,156,83881,1,0,0:0:0:0:
128,152,83962,1,0,0:0:0:0:
300,168,84206,1,0,0:0:0:0:
336,264,84369,1,0,0:0:0:0:
460,248,84450,1,0,0:0:0:0:
336,264,84694,1,0,0:0:0:0:
336,264,84938,1,0,0:0:0:0:
336,264,85182,1,0,0:0:0:0:
152,256,85344,1,0,0:0:0:0:
112,200,85425,1,0,0:0:0:0:
264,208,85669,1,0,0:0:0:0:
340,184,85913,1,0,0:0:0:0:
448,284,86157,1,0,0:0:0:0:
216,164,86320,1,0,0:0:0:0:
128,200,86401,1,0,0:0:0:0:
456,192,86564,1,0,0:0:0:0:
456,192,86645,1,0,0:0:0:0:
220,96,86808,1,0,0:0:0:0:
404,136,86889,1,0,0:0:0:0:
152,96,87051,1,0,0:0:0:0:
304,96,87133,1,0,0:0:0:0:
152,96,87295,1,0,0:0:0:0:
108,144,87377,1,0,0:0:0:0:
284,248,87499,5,0,0:0:0:0:
380,284,87621,1,0,0:0:0:0:
408,172,87743,1,0,0:0:0:0:
236,228,87864,1,0,0:0:0:0:
140,272,88108,1,0,0:0:0:0:
344,320,88271,1,0,0:0:0:0:
492,244,88352,1,0,0:0:0:0:
124,88,88515,1,0,0:0:0:0:
156,88,88596,1,0,0:0:0:0:
328,140,88840,1,0,0:0:0:0:
392,200,89003,1,0,0:0:0:0:
432,160,89084,1,0,0:0:0:0:
160,208,89247,1,0,0:0:0:0:
172,220,89328,1,0,0:0:0:0:
336,288,89491,1,0,0:0:0:0:
336,288,89572,1,0,0:0:0:0:
296,116,89734,1,0,0:0:0:0:
308,108,89816,1,0,0:0:0:0:
460,244,90060,1,0,0:0:0:0:
456,136,90222,1,0,0:0:0:0:
456,104,90304,1,0,0:0:0:0:
248,288,90466,1,0,0:0:0:0:
192,312,90547,1,0,0:0:0:0:
144,140,90710,1,0,0:0:0:0:
116,104,90791,1,0,0:0:0:0:
328,200,90954,1,0,0:0:0:0:
348,204,91035,1,0,0:0:0:0:
420,272,91198,1,0,0:0:0:0:
424,276,91279,1,0,0:0:0:0:
200,216,91442,1,0,0:0:0:0:
168,208,91523,1,0,0:0:0:0:
344,108,91686,1,0,0:0:0:0:
356,88,91767,1,0,0:0:0:0:
328,264,92011,1,0,0:0:0:0:
172,312,92173,1,0,0:0:0:0:
208,312,92255,1,0,0:0:0:0:
448,216,92417,1,0,0:0:0:0:
448,216,92499,1,0,0:0:0:0:
448,216,92743,1,0,0:0:0:0:
136,136,92986,1,0,0:0:0:0:
232,220,93149,1,0,0:0:0:0:
208,120,93230,1,0,0:0:0:0:
184,272,93393,1,0,0:0:0:0:
312,208,93474,1,0,0:0:0:0:
376,208,93718,1,0,0:0:0:0:
268,240,93962,1,0,0:0:0:0:
312,288,94125,1,0,0:0:0:0:
320,272,94206,1,0,0:0:0:0:
312,288,94369,1,0,0:0:0:0:
312,288,94450,1,0,0:0:0:0:
312,288,94612,1,0,0:0:0:0:
312,288,94694,1,0,0:0:0:0:
312,288,94938,1,0,0:0:0:0:
312,292,95182,1,0,0:0:0:0:
392,232,95425,1,0,0:0:0:0:
284,132,95669,1,0,0:0:0:0:
168,260,95913,1,0,0:0:0:0:
136,144,96157,1,0,0:0:0:0:
320,216,96401,1,0,0:0:0:0:
292,216,96645,1,0,0:0:0:0:
388,124,96889,1,0,0:0:0:0:
392,136,97133,1,0,0:0:0:0:
392,140,97377,1,0,0:0:0:0:
392,144,97621,1,0,0:0:0:0:
392,144,97864,1,0,0:0:0:0:
392,144,98108,1,0,0:0:0:0:
