osu file format v14

[General]
AudioFilename: audio.mp3
AudioLeadIn: 0
PreviewTime: 33109
Countdown: 0
SampleSet: Soft
StackLeniency: 0.3
Mode: 0
LetterboxInBreaks: 0
WidescreenStoryboard: 0

[Editor]
Bookmarks: 7499,33190,64410,99532,115141,130751
DistanceSpacing: 2.7
BeatDivisor: 6
GridSize: 32
TimelineZoom: 2.999999

[Metadata]
Title:Endgame
TitleUnicode:Endgame
Artist:Waterflame
ArtistUnicode:Waterflame
Creator:BrosephStalin
Version:Swing Apocalypse
Source:
Tags:
BeatmapID:910012
BeatmapSetID:420691

[Difficulty]
HPDrainRate:6
CircleSize:4
OverallDifficulty:8
ApproachRate:9.5
SliderMultiplier:2.6
SliderTickRate:1

[Events]
//Background and Video events
0,0,"BG.png",0,0
//Break Periods
//Storyboard Layer 0 (Background)
//Storyboard Layer 1 (Fail)
//Storyboard Layer 2 (Pass)
//Storyboard Layer 3 (Foreground)
//Storyboard Sound Samples

[TimingPoints]
20,487.80487804878,4,2,0,60,1,0
16605,-100,4,2,0,65,0,0
17580,-83.3333333333333,4,3,0,75,0,0
33190,-71.4285714285714,4,3,0,85,0,1
48312,-125,4,3,0,85,0,1
48800,-100,4,3,0,75,0,0
64410,-125,4,2,0,60,0,0
79044,-166.666666666667,4,2,0,45,0,0
79288,-125,4,2,0,55,0,0
79532,-100,4,2,0,65,0,0
79776,-83.3333333333333,4,2,0,75,0,0
80019,-100,4,3,0,85,0,0
91239,-125,4,3,0,85,0,0
91727,-100,4,3,0,85,0,0
95629,-125,4,2,0,85,0,0
96605,-166.666666666667,4,2,0,85,0,0
96849,-142.857142857143,4,2,0,85,0,0
97093,-125,4,2,0,85,0,0
97337,-111.111111111111,4,2,0,85,0,0
97580,-166.666666666666,4,2,0,85,0,0
99532,-83.3333333333333,4,3,0,85,0,1
115141,-100,4,3,0,70,0,0

[Colours]
Combo1 : 255,47,47
Combo2 : 255,155,55
Combo3 : 255,120,55
Combo4 : 185,185,110
Combo5 : 141,141,71
Combo6 : 255,119,119

[HitObjects]
256,198,7499,5,0,0:0:0:0:
240,206,7580,1,2,0:0:0:0:
233,185,7661,1,2,0:0:0:0:
233,163,7742,1,2,0:0:0:0:
240,143,7824,22,0,P|279:126|322:132,1,86.6666666666667,0|0,3:0|0:0,0:0:0:0:
224,262,8068,2,0,P|184:278|141:272,1,86.6666666666667,0|0,1:0|0:0,0:0:0:0:
64,198,8312,1,2,0:3:0:0:
64,198,8556,6,0,L|54:111,1,86.6666666666667,0|0,3:0|3:0,0:0:0:0:
57,90,8800,1,0,3:0:0:0:
192,166,8963,1,0,3:0:0:0:
195,187,9044,1,0,3:0:0:0:
320,102,9206,1,0,0:0:0:0:
317,81,9288,2,0,P|274:75|235:92,1,86.6666666666667,2|0,0:3|0:0,0:0:0:0:
57,90,9532,2,0,P|99:95|138:78,1,86.6666666666667,0|0,3:0|0:0,0:0:0:0:
226,231,9776,70,0,P|210:191|176:166,1,86.6666666666667,0|0,3:0|0:0,0:0:0:0:
66,252,10019,2,0,P|82:291|116:317,1,86.6666666666667,0|0,3:0|0:0,0:0:0:0:
147,242,10263,1,2,0:3:0:0:
147,242,10507,6,0,L|234:252,1,86.6666666666667,0|0,3:0|3:0,0:0:0:0:
352,166,10751,2,0,L|265:176,1,86.6666666666667,0|0,3:0|3:0,0:0:0:0:
192,134,10995,1,0,3:0:0:0:
32,198,11158,1,0,3:0:0:0:
64,230,11239,2,0,L|54:143,1,86.6666666666667,2|0,0:3|0:0,0:0:0:0:
96,70,11483,1,0,3:0:0:0:
265,176,11646,1,0,3:0:0:0:
297,208,11727,70,0,P|339:213|379:197,1,86.6666666666667,0|0,3:0|0:0,0:0:0:0:
480,70,11971,2,0,P|437:64|397:80,1,86.6666666666667,0|0,3:0|3:0,0:0:0:0:
453,164,12215,1,2,0:3:0:0:
453,164,12459,6,0,L|463:251,1,86.6666666666667,0|0,3:0|3:0,0:0:0:0:
448,326,12702,1,0,3:0:0:0:
320,262,12865,1,0,3:0:0:0:
288,230,12946,2,0,L|298:143,1,86.6666666666667,0|0,3:0|0:0,0:0:0:0:
192,38,13190,2,0,L|202:125,1,86.6666666666667,2|0,0:3|0:0,0:0:0:0:
128,294,13434,2,0,L|138:207,1,86.6666666666667,0|0,3:0|0:0,0:0:0:0:
298,144,13678,70,0,P|337:128|380:134,1,86.6666666666667,0|0,3:0|0:0,0:0:0:0:
480,262,13922,2,0,P|440:277|397:271,1,86.6666666666667,0|0,3:0|3:0,0:0:0:0:
288,230,14166,1,2,0:3:0:0:
288,230,14410,6,0,L|278:143,1,86.6666666666667,0|0,3:0|3:0,0:0:0:0:
288,102,14654,1,0,3:0:0:0:
160,38,14816,1,0,3:0:0:0:
169,79,14898,2,0,L|164:122,2,43.3333333333333,0|0|0,3:0|0:0|3:0,0:0:0:0:
96,230,15141,2,0,L|86:143,1,86.6666666666667,2|0,0:3|0:0,0:0:0:0:
224,198,15385,2,0,L|219:241,2,43.3333333333333
288,134,15629,1,2,0:3:0:0:
288,134,16605,69,6,0:3:0:0:
416,262,16849,2,0,L|411:218,1,43.3333333333333,4|0,3:0|0:0,0:0:0:0:
448,102,17011,1,4,3:0:0:0:
384,38,17093,6,0,L|381:59,4,21.6666666666667,0|0|0|0|0,0:0|0:0|0:0|0:0|0:0,0:0:0:0:
288,134,17337,1,4,3:0:0:0:
288,134,17580,38,0,P|211:139|146:97,1,155.999995239258
416,70,18068,1,0,1:0:0:0:
352,198,18231,1,0,0:0:0:0:
384,230,18312,2,0,P|431:250|481:241,1,103.999996826172,0|0,0:0|0:0,0:0:0:0:
352,102,18556,6,0,L|248:91,1,103.999996826172,0|0,0:0|0:0,0:0:0:0:
88,176,18800,2,0,L|192:166,1,103.999996826172,0|0,0:0|0:0,0:0:0:0:
256,294,19044,1,0,1:0:0:0:
256,294,19288,2,0,P|247:243|267:196,1,103.999996826172,0|0,0:0|0:0,0:0:0:0:
480,102,19532,70,0,P|413:141|336:140,1,155.999995239258
128,38,20019,1,0,1:0:0:0:
288,70,20182,1,0,0:0:0:0:
336,140,20263,2,0,P|356:187|347:237,1,103.999996826172,0|0,0:0|0:0,0:0:0:0:
224,326,20507,6,0,L|214:222,1,103.999996826172,0|0,0:0|0:0,0:0:0:0:
96,134,20751,2,0,L|86:238,1,103.999996826172,0|0,0:0|0:0,0:0:0:0:
32,294,20995,1,0,1:0:0:0:
192,134,21158,1,0,0:0:0:0:
192,134,21239,2,0,L|202:31,1,103.999996826172,0|0,0:0|0:0,0:0:0:0:
333,170,21483,70,0,P|256:175|192:134,1,155.999995239258
450,128,21971,2,0,P|456:179|442:228,1,103.999996826172,0|0,1:0|0:0,0:0:0:0:
319,357,22215,2,0,P|312:306|326:257,1,103.999996826172,0|0,0:0|0:0,0:0:0:0:
450,128,22459,6,0,L|346:117,1,103.999996826172,0|0,0:0|0:0,0:0:0:0:
186,202,22703,2,0,L|290:192,1,103.999996826172,0|0,0:0|0:0,0:0:0:0:
327,257,22947,1,0,1:0:0:0:
450,128,23109,1,0,0:0:0:0:
450,128,23190,1,0,0:0:0:0:
450,128,23434,70,0,P|399:118|352:138,1,103.999996826172
183,282,23678,2,0,P|233:292|281:272,1,103.999996826172,0|0,0:0|0:0,0:0:0:0:
222,181,23922,1,0,1:0:0:0:
96,304,24085,1,0,0:0:0:0:
96,304,24166,1,0,0:0:0:0:
144,160,24328,1,0,0:0:0:0:
144,160,24410,6,0,L|40:149,1,103.999996826172,0|0,0:0|0:0,0:0:0:0:
16,224,24654,1,0,0:0:0:0:
232,150,24816,1,0,0:0:0:0:
232,150,24898,2,0,P|281:135|332:142,1,103.999996826172,0|0,1:0|0:0,0:0:0:0:
411,185,25141,1,0,0:0:0:0:
411,185,25385,70,0,P|352:136|339:60,1,155.999995239258
140,220,25873,1,0,1:0:0:0:
204,92,26036,1,0,0:0:0:0:
172,60,26117,2,0,P|125:40|75:49,1,103.999996826172,0|0,0:0|0:0,0:0:0:0:
288,166,26361,6,0,L|298:62,1,103.999996826172,0|0,0:0|0:0,0:0:0:0:
384,230,26605,2,0,L|394:333,1,103.999996826172,0|0,0:0|0:0,0:0:0:0:
448,166,26849,1,0,1:0:0:0:
192,102,27093,1,0,0:0:0:0:
352,70,27255,1,0,0:0:0:0:
320,134,27337,70,0,P|316:211|346:282,1,155.999995239258
192,102,27824,2,0,P|145:82|95:91,1,103.999996826172,0|0,1:0|0:0,0:0:0:0:
80,246,28068,2,0,P|127:266|177:257,1,103.999996826172,0|0,0:0|0:0,0:0:0:0:
288,166,28312,6,0,L|298:62,1,103.999996826172,0|0,0:0|0:0,0:0:0:0:
384,230,28556,2,0,L|394:126,1,103.999996826172,0|0,0:0|0:0,0:0:0:0:
480,294,28800,1,0,1:0:0:0:
288,262,28963,1,0,0:0:0:0:
256,230,29044,2,0,L|245:126,1,103.999996826172,0|0,0:0|0:0,0:0:0:0:
64,102,29288,70,0,P|140:107|205:65,1,155.999995239258
448,32,29776,1,0,1:0:0:0:
320,96,29938,1,0,0:0:0:0:
288,128,30019,2,0,P|308:175|299:225,1,103.999996826172,0|0,0:0|0:0,0:0:0:0:
101,75,30263,6,0,B|204:64,1,103.999996826172,0|0,0:0|0:0,0:0:0:0:
391,117,30507,2,0,B|288:128,1,103.999996826172,0|0,0:0|0:0,0:0:0:0:
192,224,30751,1,0,1:0:0:0:
416,256,30914,1,0,0:0:0:0:
416,256,30995,1,0,0:0:0:0:
64,288,31239,70,0,B|68:244|68:244|59:174|59:174|64:132,1,155.999995239258
224,32,31727,2,0,B|213:135,1,103.999996826172,0|0,1:0|0:0,0:0:0:0:
256,192,31971,1,0,0:0:0:0:
320,352,32133,1,0,0:0:0:0:
352,288,32215,6,0,B|341:184,1,103.999996826172,0|0,1:0|0:0,0:0:0:0:
301,65,32459,2,0,P|352:60|401:75,1,103.999996826172,0|0,1:0|0:0,0:0:0:0:
241,252,32702,2,0,P|190:258|141:243,1,103.999996826172,0|0,1:0|0:0,0:0:0:0:
192,32,32946,2,0,B|202:135,1,103.999996826172,0|0,1:0|0:0,0:0:0:0:
319,257,33190,38,0,P|378:264|432:239,1,121.333329630534
402,75,33434,2,0,P|342:67|288:92,1,121.333329630534
255,185,33678,1,0,1:0:0:0:
416,320,33841,1,0,0:0:0:0:
448,352,33922,2,0,P|472:297|465:238,1,121.333329630534
407,104,34166,6,0,L|287:92,1,121.333329630534
134,197,34410,2,0,L|255:185,1,121.333329630534
320,256,34654,1,0,1:0:0:0:
160,96,34816,1,0,0:0:0:0:
160,96,34898,1,0,0:0:0:0:
96,288,35060,1,0,0:0:0:0:
96,288,35141,6,0,L|216:275,1,121.333329630534
288,160,35385,2,0,P|295:100|270:46,1,121.333329630534
186,118,35629,1,0,1:0:0:0:
247,276,35792,1,0,0:0:0:0:
247,276,35873,2,0,P|306:283|360:258,1,121.333329630534
186,118,36117,6,0,B|58:104|58:104|104:133,1,181.999994445801
160,320,36524,1,0,0:0:0:0:
160,320,36605,2,0,P|167:261|142:207,1,121.333329630534,0|0,1:0|0:0,0:0:0:0:
57,281,36849,1,0,0:0:0:0:
272,320,37011,1,0,0:0:0:0:
272,320,37093,38,0,L|392:307,1,121.333329630534
480,160,37337,2,0,L|359:172,1,121.333329630534
208,144,37580,2,0,P|182:89|190:30,1,121.333329630534,0|0,1:0|0:0,0:0:0:0:
96,192,37824,2,0,P|121:246|113:305,1,121.333329630534
256,224,38068,6,0,L|376:236,1,121.333329630534
450,309,38312,1,0,0:0:0:0:
336,128,38475,1,0,0:0:0:0:
304,144,38556,2,0,P|278:89|286:30,1,121.333329630534,0|0,1:0|0:0,0:0:0:0:
404,69,38800,1,0,0:0:0:0:
404,69,39044,6,0,B|417:196|417:196|436:145,1,181.999994445801
320,128,39450,1,0,0:0:0:0:
320,128,39532,2,0,P|260:120|206:145,1,121.333329630534,0|0,1:0|0:0,0:0:0:0:
277,232,39776,1,0,0:0:0:0:
64,352,40019,6,0,L|51:231,1,121.333329630534,0|0,3:0|3:0,3:0:0:0:
96,128,40263,2,0,L|89:67,2,60.666664815267,0|0|0,3:0|3:0|3:0,3:0:0:0:
160,224,40507,2,0,P|219:231|273:206,1,121.333329630534,0|0,1:0|0:0,0:0:0:0:
352,288,40751,2,0,P|406:262|465:269,1,121.333329630534
286,326,40995,38,0,L|273:205,1,121.333329630534
192,64,41239,2,0,L|179:184,1,121.333329630534
96,256,41483,1,0,1:0:0:0:
288,128,41646,1,0,0:0:0:0:
288,128,41727,1,0,0:0:0:0:
465,269,41889,1,0,0:0:0:0:
465,269,41971,6,0,P|405:277|351:252,1,121.333329630534
288,128,42215,2,0,P|233:103|174:111,1,121.333329630534
100,184,42459,1,0,1:0:0:0:
288,32,42621,1,0,0:0:0:0:
288,32,42702,2,0,L|408:44,1,121.333329630534,0|0,3:0|3:0,3:0:0:0:
480,192,42946,6,0,P|487:251|462:305,1,121.333329630534
310,285,43190,2,0,P|302:225|327:171,1,121.333329630534
224,64,43434,2,0,P|231:123|206:177,1,121.333329630534,0|0,1:0|0:0,0:0:0:0:
54,157,43678,2,0,P|46:97|71:43,1,121.333329630534
125,204,43922,6,0,L|137:324,1,121.333329630534
224,352,44166,1,0,0:0:0:0:
352,320,44328,1,0,0:0:0:0:
384,352,44410,2,0,L|396:231,1,121.333329630534,0|0,1:0|0:0,0:0:0:0:
288,96,44654,2,0,L|300:216,1,121.333329630534
224,320,44898,38,0,P|169:345|110:338,1,121.333329630534
86,181,45141,2,0,P|140:155|199:162,1,121.333329630534
320,256,45385,2,0,L|332:135,1,121.333329630534,0|0,1:0|0:0,0:0:0:0:
464,32,45629,2,0,L|451:152,1,121.333329630534
416,352,45873,6,0,L|403:231,1,121.333329630534
332,135,46117,1,0,0:0:0:0:
208,304,46280,1,0,0:0:0:0:
208,304,46361,2,0,P|267:311|321:286,1,121.333329630534,0|0,1:0|0:0,0:0:0:0:
250,200,46605,1,0,0:0:0:0:
250,200,46849,5,0,0:0:0:0:
416,64,47093,2,0,L|476:57,2,60.666664815267
352,160,47337,2,0,P|344:220|369:274,1,121.333329630534,0|0,1:0|0:0,0:0:0:0:
256,352,47580,2,0,P|264:292|239:238,1,121.333329630534
160,128,47824,6,0,P|168:187|143:241,1,121.333329630534
73,172,48068,1,0,0:0:0:0:
84,74,48150,2,0,L|142:58,1,60.666664815267,0|0,3:0|3:0,3:0:0:0:
232,81,48312,6,0,P|251:115|255:152,1,69.3333333333333,0|0,1:0|0:0,0:0:0:0:
255,239,48556,2,0,P|249:272|231:302,1,69.3333333333333
352,352,48800,54,0,L|361:265,1,86.6666666666667
340,113,49044,1,0,0:0:0:0:
340,113,49288,2,0,P|383:118|423:102,1,86.6666666666667,0|0,1:0|0:0,0:0:0:0:
217,52,49532,2,0,P|175:46|135:62,1,86.6666666666667,0|0,0:0|0:0,0:0:0:0:
198,228,49776,6,0,L|188:142,1,86.6666666666667,0|0,0:0|0:0,0:0:0:0:
340,113,50020,2,0,L|331:199,1,86.6666666666667,0|0,0:0|0:0,0:0:0:0:
372,273,50264,1,0,1:0:0:0:
198,228,50426,1,0,0:0:0:0:
198,228,50508,1,0,0:0:0:0:
436,145,50670,1,0,0:0:0:0:
436,145,50752,70,0,P|441:102|425:62,1,86.6666666666667
276,81,50996,2,0,P|271:124|287:164,1,86.6666666666667,0|0,0:0|0:0,0:0:0:0:
208,314,51239,2,0,L|198:228,1,86.6666666666667,0|0,1:0|0:0,0:0:0:0:
116,113,51483,2,0,L|107:199,1,86.6666666666667,0|0,0:0|0:0,0:0:0:0:
255,144,51727,6,0,B|265:49|265:49|276:81,1,130,0|0,0:0|0:0,0:0:0:0:
197,227,52134,1,0,0:0:0:0:
197,227,52215,2,0,P|155:232|115:216,1,86.6666666666667,0|0,1:0|0:0,0:0:0:0:
288,256,52459,2,0,P|331:250|371:266,1,86.6666666666667,0|0,0:0|0:0,0:0:0:0:
480,352,52703,70,0,L|490:265,1,86.6666666666667
384,96,52947,2,0,L|394:182,1,86.6666666666667,0|0,0:0|0:0,0:0:0:0:
288,320,53191,2,0,L|279:233,1,86.6666666666667,0|0,1:0|0:0,0:0:0:0:
224,160,53435,1,0,0:0:0:0:
384,96,53597,1,0,0:0:0:0:
384,96,53678,6,0,P|427:101|467:85,1,86.6666666666667,0|0,0:0|0:0,0:0:0:0:
254,69,53922,2,0,P|211:64|171:80,1,86.6666666666667,0|0,0:0|0:0,0:0:0:0:
128,160,54166,1,0,1:0:0:0:
352,172,54329,1,0,0:0:0:0:
352,172,54410,2,0,P|378:138|384:96,1,86.6666666666667,0|0,0:0|0:0,0:0:0:0:
256,192,54654,70,0,B|262:239|262:239|249:273|249:273|254:319,1,130,0|0,0:0|0:0,0:0:0:0:
128,160,55061,1,0,0:0:0:0:
128,160,55142,2,0,L|138:73,1,86.6666666666667,0|0,1:0|0:0,0:0:0:0:
224,32,55386,1,0,0:0:0:0:
224,32,55630,6,0,B|270:27|270:27|304:39|304:39|352:34,1,130,0|0,0:0|0:0,0:0:0:0:
448,160,56036,1,0,0:0:0:0:
448,160,56118,2,0,P|464:199|459:242,1,86.6666666666667,0|0,1:0|0:0,0:0:0:0:
272,192,56361,2,0,P|257:152|262:109,1,86.6666666666667,0|0,0:0|0:0,0:0:0:0:
351,35,56605,70,0,L|438:44,1,86.6666666666667,0|0,0:0|0:0,0:0:0:0:
359,201,56849,2,0,L|272:192,1,86.6666666666667,0|0,0:0|0:0,0:0:0:0:
96,128,57093,2,0,L|183:119,1,86.6666666666667,0|0,1:0|0:0,0:0:0:0:
256,64,57337,1,0,0:0:0:0:
128,224,57500,1,0,0:0:0:0:
128,224,57581,6,0,P|127:266|146:305,1,86.6666666666667,0|0,0:0|0:0,0:0:0:0:
220,247,57825,1,0,0:0:0:0:
220,247,58069,2,0,P|222:204|203:165,1,86.6666666666667,0|0,1:0|0:0,0:0:0:0:
288,32,58313,2,0,P|287:74|306:113,1,86.6666666666667,0|0,0:0|0:0,0:0:0:0:
448,192,58557,70,0,L|362:201,1,86.6666666666667,0|0,0:0|0:0,0:0:0:0:
134,237,58800,2,0,L|220:247,1,86.6666666666667,0|0,0:0|0:0,0:0:0:0:
384,320,59044,2,0,L|298:310,1,86.6666666666667,0|0,1:0|0:0,0:0:0:0:
224,128,59288,2,0,L|311:118,1,86.6666666666667,0|0,0:0|0:0,0:0:0:0:
160,224,59532,6,0,L|74:233,1,86.6666666666667,0|0,0:0|0:0,0:0:0:0:
16,288,59776,1,0,0:0:0:0:
128,128,59939,1,0,0:0:0:0:
128,128,60020,1,0,1:0:0:0:
256,256,60183,1,0,0:0:0:0:
256,256,60264,2,0,P|299:258|338:239,1,86.6666666666667
416,128,60508,70,0,L|407:41,1,86.6666666666667
368,16,60752,1,0,0:0:0:0:
256,96,60914,1,0,0:0:0:0:
256,96,60996,1,0,1:0:0:0:
337,239,61158,1,0,0:0:0:0:
337,239,61239,1,0,0:0:0:0:
128,192,61402,1,0,0:0:0:0:
128,192,61483,6,0,P|112:152|117:109,1,86.6666666666667
288,83,61727,2,0,P|303:122|298:165,1,86.6666666666667
208,137,61971,1,0,1:0:0:0:
384,64,62133,1,0,0:0:0:0:
384,64,62215,2,0,L|470:73,1,86.6666666666667,0|0,3:0|3:0,3:0:0:0:
384,192,62459,70,0,P|368:231|373:274,1,86.6666666666667
465,244,62702,1,0,0:0:0:0:
288,160,62865,1,0,0:0:0:0:
288,160,62946,2,0,L|201:169,1,86.6666666666667,0|0,1:0|0:0,0:0:0:0:
64,256,63190,2,0,L|150:265,1,86.6666666666667
256,352,63434,6,0,B|265:264|265:264|282:302,1,130
205,212,63759,2,0,L|201:169,1,43.3333333333333
160,64,63922,2,0,P|222:75|280:48,1,130,0|0,1:0|0:0,0:0:0:0:
384,128,64328,1,0,0:0:0:0:
384,128,64410,6,0,L|394:231,1,104
256,320,64898,2,0,L|263:251,1,69.3333333333333,8|0,0:0|0:0,0:0:0:0:
288,224,65141,1,0,0:0:0:0:
128,192,65304,1,0,0:0:0:0:
128,192,65385,2,0,P|157:209|191:209,1,69.3333333333333,0|0,0:0|0:0,0:0:0:0:
225,67,65629,2,0,P|195:49|161:49,1,69.3333333333333,0|0,0:0|0:0,0:0:0:0:
176,129,65873,1,8,0:0:0:0:
384,64,66117,1,0,0:0:0:0:
256,192,66280,1,0,0:0:0:0:
256,192,66361,6,0,B|259:160|259:160|254:127|254:127|258:88,1,104,0|0,0:0|0:0,0:0:0:0:
416,256,66849,2,0,L|408:324,1,69.3333333333333,8|0,0:0|0:0,0:0:0:0:
263,260,67093,2,0,L|256:192,1,69.3333333333333,0|0,0:0|0:0,0:0:0:0:
416,128,67337,2,0,P|386:145|352:145,1,69.3333333333333,0|0,0:0|0:0,0:0:0:0:
224,64,67580,2,0,P|253:46|287:46,1,69.3333333333333,0|0,0:0|0:0,0:0:0:0:
367,66,67824,1,8,0:0:0:0:
256,192,67987,1,0,0:0:0:0:
176,211,68069,2,0,P|141:210|112:193,1,69.3333333333333,0|0,0:0|0:0,0:0:0:0:
32,64,68312,70,0,L|21:167,1,104,0|0,0:0|0:0,0:0:0:0:
183,279,68800,2,0,L|176:211,1,69.3333333333333,8|0,0:0|0:0,0:0:0:0:
192,192,69044,1,0,0:0:0:0:
288,128,69206,1,0,0:0:0:0:
288,128,69288,2,0,P|270:157|270:191,1,69.3333333333333,0|0,0:0|0:0,0:0:0:0:
165,342,69532,2,0,P|182:313|183:279,1,69.3333333333333,0|0,0:0|0:0,0:0:0:0:
128,192,69776,1,8,0:0:0:0:
288,288,69938,1,0,0:0:0:0:
285,320,70019,1,0,0:0:0:0:
285,319,70263,6,0,P|336:319|384:339,1,104,0|0,0:0|0:0,0:0:0:0:
96,352,70751,1,8,0:0:0:0:
224,224,70914,1,0,0:0:0:0:
256,256,70995,2,0,B|248:187,1,69.3333333333333,0|0,0:0|0:0,0:0:0:0:
352,64,71239,2,0,B|344:132,1,69.3333333333333,0|0,0:0|0:0,0:0:0:0:
384,192,71483,1,0,0:0:0:0:
192,96,71646,1,0,0:0:0:0:
192,96,71727,2,0,B|184:164,1,69.3333333333333,8|0,0:0|0:0,0:0:0:0:
128,224,71971,1,0,0:0:0:0:
128,224,72215,70,0,L|24:213,1,104,0|0,0:0|0:0,0:0:0:0:
256,160,72702,2,0,L|324:152,1,69.3333333333333,8|0,0:0|0:0,0:0:0:0:
384,96,72946,1,0,0:0:0:0:
425,261,73109,1,0,0:0:0:0:
424,260,73190,2,0,P|407:290|378:307,1,69.3333333333333,0|0,0:0|0:0,0:0:0:0:
278,199,73434,2,0,P|294:169|324:152,1,69.3333333333333,0|0,0:0|0:0,0:0:0:0:
351,230,73678,1,8,0:0:0:0:
128,192,73922,1,0,0:0:0:0:
256,96,74085,1,0,0:0:0:0:
256,96,74166,6,0,B|217:92|217:92|184:97|184:97|152:94,1,104,0|0,0:0|0:0,0:0:0:0:
120,260,74654,2,0,L|128:192,1,69.3333333333333,8|0,0:0|0:0,0:0:0:0:
248,299,74898,2,0,L|256:368,1,69.3333333333333,0|0,0:0|0:0,0:0:0:0:
352,256,75141,2,0,P|381:239|415:239,1,69.3333333333333,0|0,0:0|0:0,0:0:0:0:
191,173,75385,2,0,P|162:191|128:192,1,69.3333333333333,0|0,0:0|0:0,0:0:0:0:
142,111,75629,1,8,0:0:0:0:
283,263,75792,1,0,0:0:0:0:
283,263,75873,2,0,L|352:256,1,69.3333333333333,0|0,0:0|0:0,0:0:0:0:
480,192,76117,70,0,L|376:181,1,104,0|0,0:0|0:0,0:0:0:0:
352,32,76524,1,0,0:0:0:0:
352,32,76606,2,0,P|352:66|370:95,1,69.3333333333333,8|0,0:0|0:0,0:0:0:0:
320,272,76849,2,0,P|319:237|301:208,1,69.3333333333333,0|0,0:0|0:0,0:0:0:0:
240,258,77093,1,0,0:0:0:0:
416,320,77255,1,0,0:0:0:0:
416,320,77337,2,0,L|423:251,1,69.3333333333333,0|0,0:0|0:0,0:0:0:0:
293,139,77580,2,0,L|301:208,1,69.3333333333333,8|0,0:0|0:0,0:0:0:0:
224,352,77824,2,0,L|216:283,1,69.3333333333333,0|0,0:0|0:0,0:0:0:0:
160,224,78068,5,0,0:0:0:0:
416,160,78312,1,0,0:0:0:0:
224,144,78475,1,0,0:0:0:0:
224,144,78556,1,8,0:0:0:0:
368,224,78719,1,0,0:0:0:0:
368,224,78800,1,0,0:0:0:0:
192,288,78963,1,0,0:0:0:0:
192,288,79044,70,0,L|197:236,1,51.999998413086,4|0,3:0|0:0,0:0:0:0:
256,96,79288,2,0,L|263:164,1,69.3333333333333,4|0,3:0|0:0,0:0:0:0:
360,310,79532,2,0,L|369:223,1,86.6666666666667,4|0,3:0|0:0,0:0:0:0:
416,64,79776,2,0,L|426:167,1,103.999996826172,4|0,3:0|0:0,0:0:0:0:
455,320,80019,22,0,B|359:309|359:309|385:331,1,130,4|0,0:1|0:0,0:0:0:0:
448,192,80426,1,0,0:0:0:0:
448,192,80507,2,0,P|444:149|419:114,1,86.6666666666667,0|0,1:0|0:0,0:0:0:0:
261,176,80751,2,0,P|264:218|289:253,1,86.6666666666667,0|0,0:0|0:0,0:0:0:0:
356,186,80995,1,0,0:0:0:0:
128,160,81158,1,0,0:0:0:0:
128,160,81239,2,0,L|118:73,1,86.6666666666667,0|0,0:0|0:0,0:0:0:0:
224,224,81483,2,0,L|214:310,1,86.6666666666667,0|0,1:0|0:0,0:0:0:0:
64,352,81727,2,0,L|74:266,1,86.6666666666667,0|0,0:0|0:0,0:0:0:0:
162,174,81971,6,0,P|126:210|127:159,1,130,0|0,0:0|0:0,0:0:0:0:
214,310,82377,1,0,0:0:0:0:
214,310,82459,2,0,L|300:300,1,86.6666666666667,0|0,1:0|0:0,0:0:0:0:
448,253,82702,2,0,L|361:243,1,86.6666666666667
256,191,82946,2,0,P|280:157|284:114,1,86.6666666666667
160,256,83190,2,0,P|134:290|131:333,1,86.6666666666667,0|0,0:0|0:0,0:0:0:0:
361,243,83434,2,2,P|377:145|283:113,1,216.666666666667,0|0,1:0|0:0,0:1:0:0:
102,238,83922,70,0,P|165:234|205:185,1,130
275,27,84328,1,0,0:0:0:0:
275,27,84410,2,0,L|284:113,1,86.6666666666667,0|0,1:0|0:0,0:0:0:0:
384,224,84654,2,0,L|374:137,1,86.6666666666667,0|0,0:0|0:0,0:0:0:0:
206,186,84898,2,0,B|184:212|184:212|280:202,1,130,0|0,0:0|0:0,0:0:0:0:
410,63,85304,1,0,0:0:0:0:
410,63,85385,2,0,P|434:98|438:140,1,86.6666666666667,0|0,1:0|0:0,0:0:0:0:
280,202,85629,2,0,P|254:167|251:124,1,86.6666666666667,0|0,0:0|0:0,0:0:0:0:
346,134,85873,6,0,B|368:192|368:192|361:262,1,130,0|0,0:0|0:0,0:0:0:0:
464,352,86280,1,0,0:0:0:0:
464,352,86361,2,0,L|473:265,1,86.6666666666667,0|0,1:0|0:0,0:0:0:0:
256,224,86605,2,0,L|265:310,1,86.6666666666667,0|0,0:0|0:0,0:0:0:0:
352,128,86849,2,0,L|342:41,1,86.6666666666667,0|0,0:0|0:0,0:0:0:0:
192,128,87093,2,0,P|164:144|132:147,2,65,0|0|0,0:0|0:0|1:0,0:0:0:0:
292,147,87459,2,0,P|319:130|352:128,2,65,0|0|0,0:0|0:0|0:0,0:0:0:0:
223,224,87824,70,0,P|210:286|234:345,1,130
352,160,88231,1,0,0:0:0:0:
352,160,88312,2,0,P|363:118|353:76,1,86.6666666666667,0|0,1:0|0:0,0:0:0:0:
158,76,88556,2,0,P|148:118|160:160,1,86.6666666666667,0|0,0:0|0:0,0:0:0:0:
256,224,88800,1,0,0:0:0:0:
448,160,88963,1,0,0:0:0:0:
416,224,89044,2,0,L|425:310,1,86.6666666666667,0|0,0:0|0:0,0:0:0:0:
288,352,89288,2,0,L|297:265,1,86.6666666666667,0|0,1:0|0:0,0:0:0:0:
224,96,89532,2,0,L|214:182,1,86.6666666666667,0|0,0:0|0:0,0:0:0:0:
128,320,89776,6,0,B|134:252|134:252|112:194,1,130,0|0,0:0|0:0,0:0:0:0:
32,64,90182,1,0,0:0:0:0:
32,64,90263,2,0,P|71:79|114:71,1,86.6666666666667,0|0,1:0|0:0,0:0:0:0:
274,135,90507,2,0,P|234:120|192:128,1,86.6666666666667,0|0,0:0|0:0,0:0:0:0:
214,303,90751,2,0,L|224:217,1,86.6666666666667,0|0,0:0|0:0,0:0:0:0:
368,96,90995,2,0,L|358:182,1,86.6666666666667,0|0,0:0|0:0,0:0:0:0:
448,320,91239,2,0,B|442:272|442:272|453:214|453:214|446:148,1,173.333333333333,0|0,1:0|0:0,0:0:0:0:
351,21,91727,70,0,B|341:117|341:117|368:96,1,130
224,192,92133,1,0,0:0:0:0:
224,192,92215,2,0,L|214:105,1,86.6666666666667,0|0,1:0|0:0,0:0:0:0:
128,256,92459,2,0,L|137:342,1,86.6666666666667,0|0,0:0|0:0,0:0:0:0:
288,256,92702,6,0,B|310:198|310:198|303:130,1,130,0|0,0:0|0:0,0:0:0:0:
237,333,93109,1,0,0:0:0:0:
237,333,93190,2,0,P|276:351|319:346,1,86.6666666666667,0|0,1:0|0:0,0:0:0:0:
344,179,93434,2,0,P|306:160|263:164,1,86.6666666666667,0|0,0:0|0:0,0:0:0:0:
160,224,93678,70,0,P|162:160|128:106,1,130
32,208,94085,1,0,0:0:0:0:
32,208,94166,2,0,L|27:251,2,43.3333333333333,0|0|0,1:0|0:0|0:0,0:0:0:0:
128,352,94410,2,0,L|123:308,2,43.3333333333333,0|0|0,0:0|0:0|0:0,0:0:0:0:
192,160,94654,6,0,L|182:246,1,86.6666666666667,0|0,0:0|0:0,0:0:0:0:
304,368,94898,2,0,L|313:281,1,86.6666666666667,0|0,0:0|0:0,0:0:0:0:
384,96,95141,2,0,B|377:163|377:163|399:221,1,130,0|0,1:0|0:0,0:0:0:0:
244,288,95629,38,0,L|313:281,1,69.3333333333333,0|0,0:0|0:0,0:0:0:0:
336,256,95873,1,0,0:0:0:0:
224,160,96036,1,0,0:0:0:0:
201,185,96118,2,0,L|132:177,1,69.3333333333333,0|0,0:0|0:0,0:0:0:0:
64,128,96361,2,0,L|29:124,2,34.6666666666667,0|0|0,0:0|0:0|0:0,0:0:0:0:
64,224,96605,22,0,L|69:275,1,51.999998413086,0|0,0:0|0:0,0:0:0:0:
160,352,96849,6,0,L|166:291,1,60.666664815267,0|0,0:0|0:0,0:0:0:0:
256,192,97093,6,0,L|248:260,1,69.3333333333333,0|0,0:0|0:0,0:0:0:0:
336,368,97337,6,0,L|327:290,1,77.999997619629,0|0,0:0|0:0,0:0:0:0:
384,224,97580,5,0,0:0:0:0:
64,192,97987,1,0,0:0:0:0:
64,192,98068,2,0,L|72:114,1,77.999997619629,0|0,0:0|0:0,0:0:0:0:
160,320,98556,1,0,0:0:0:0:
448,320,98800,5,0,0:0:0:0:
256,352,98963,1,0,0:0:0:0:
256,352,99044,2,0,L|261:300,1,51.999998413086,0|0,0:0|0:0,0:0:0:0:
256,192,99288,1,0,0:0:0:0:
278,190,99369,1,0,0:0:0:0:
299,196,99450,1,0,0:0:0:0:
316,207,99532,6,0,P|346:166|351:114,1,103.999996826172,0|0,0:0|0:0,0:0:0:0:
192,64,99776,2,0,P|161:104|156:156,1,103.999996826172,0|0,0:0|0:0,0:0:0:0:
256,320,100019,2,0,P|251:268|220:227,1,103.999996826172,0|0,1:0|0:0,0:0:0:0:
52,294,100263,2,0,P|98:316|150:311,1,103.999996826172,0|0,0:0|0:0,0:0:0:0:
352,256,100507,6,0,P|403:250|449:272,1,103.999996826172,0|0,0:0|0:0,0:0:0:0:
480,352,100751,1,0,0:0:0:0:
224,256,100995,2,0,P|228:204|260:164,1,103.999996826172,0|0,1:0|0:0,0:0:0:0:
420,36,101239,2,0,P|415:87|384:128,1,103.999996826172,0|0,0:0|0:0,0:0:0:0:
192,96,101483,6,0,L|88:85,1,103.999996826172,0|0,0:0|0:0,0:0:0:0:
224,256,101727,2,0,L|327:245,1,103.999996826172
416,320,101971,1,0,1:0:0:0:
256,160,102133,1,0,0:0:0:0:
256,160,102215,2,0,P|260:108|291:67,1,103.999996826172,0|0,0:0|0:0,0:0:0:0:
428,209,102459,6,0,B|416:320|416:320|397:280,1,155.999995239258,0|0,0:0|0:0,0:0:0:0:
114,280,102865,1,0,0:0:0:0:
114,280,102946,2,0,B|95:320|95:320|84:209,1,155.999995239258,0|0,1:0|0:0,0:0:0:0:
256,64,103353,1,0,0:0:0:0:
256,144,103434,38,0,P|226:185|178:205,1,103.999996826172,0|0,0:0|0:0,0:0:0:0:
22,243,103678,2,0,P|73:248|114:280,1,103.999996826172,0|0,0:0|0:0,0:0:0:0:
320,320,103922,2,0,P|268:315|228:283,1,103.999996826172,0|0,1:0|0:0,0:0:0:0:
414,257,104166,2,0,P|435:303|428:354,1,103.999996826172,0|0,0:0|0:0,0:0:0:0:
320,192,104410,6,0,P|298:145|305:94,1,103.999996826172,0|0,0:0|0:0,0:0:0:0:
224,256,104654,2,0,P|245:302|238:353,1,103.999996826172,0|0,0:0|0:0,0:0:0:0:
151,319,104898,1,0,1:0:0:0:
336,272,105060,1,0,0:0:0:0:
336,272,105141,1,0,0:0:0:0:
336,272,105385,6,0,P|303:202|313:125,1,155.999995239258,0|0,0:0|0:0,0:0:0:0:
480,64,105792,1,0,0:0:0:0:
480,64,105873,2,0,P|428:69|382:47,1,103.999996826172,0|0,1:0|0:0,0:0:0:0:
240,80,106117,2,0,P|193:58|142:63,1,103.999996826172,0|0,0:0|0:0,0:0:0:0:
64,192,106361,6,0,B|52:303|52:303|33:263,1,155.999995239258,0|0,0:0|0:0,0:0:0:0:
224,224,106767,1,0,0:0:0:0:
224,224,106849,2,0,P|270:202|321:207,1,103.999996826172,0|0,1:0|0:0,0:0:0:0:
481,303,107093,2,0,P|435:325|384:320,1,103.999996826172,0|0,0:0|0:0,0:0:0:0:
427,111,107337,38,0,L|417:215,1,103.999996826172,0|0,0:0|0:0,0:0:0:0:
384,240,107580,1,0,0:0:0:0:
96,320,107824,2,0,P|142:342|193:336,1,103.999996826172,0|0,1:0|0:0,0:0:0:0:
384,240,108068,2,0,P|337:217|286:223,1,103.999996826172,0|0,0:0|0:0,0:0:0:0:
128,224,108312,6,0,P|171:194|191:147,1,103.999996826172,0|0,0:0|0:0,0:0:0:0:
87,122,108556,1,0,0:0:0:0:
87,122,108800,1,0,1:0:0:0:
304,160,108963,1,0,0:0:0:0:
304,160,109044,2,0,L|314:56,1,103.999996826172,0|0,0:0|0:0,0:0:0:0:
416,224,109288,6,0,P|411:275|380:316,1,103.999996826172,0|0,0:0|0:0,0:0:0:0:
384,128,109532,2,0,P|389:77|420:36,1,103.999996826172,0|0,0:0|0:0,0:0:0:0:
304,160,109776,2,0,P|253:155|212:124,1,103.999996826172,0|0,1:0|0:0,0:0:0:0:
32,224,110019,2,0,P|83:219|124:188,1,103.999996826172,0|0,0:0|0:0,0:0:0:0:
224,256,110263,6,0,L|213:359,1,103.999996826172,0|0,0:0|0:0,0:0:0:0:
304,160,110507,2,0,L|293:56,1,103.999996826172,0|0,0:0|0:0,0:0:0:0:
224,32,110751,1,0,1:0:0:0:
416,128,110914,1,0,0:0:0:0:
416,128,110995,2,0,L|405:231,1,103.999996826172,0|0,0:0|0:0,0:0:0:0:
320,320,111239,38,0,P|269:326|223:304,1,103.999996826172,0|0,0:0|0:0,0:0:0:0:
64,192,111483,2,0,P|114:185|161:208,1,103.999996826172,0|0,0:0|0:0,0:0:0:0:
288,200,111727,2,0,P|257:158|253:107,1,103.999996826172,0|0,1:0|0:0,0:0:0:0:
384,64,111971,2,0,P|414:105|418:156,1,103.999996826172,0|0,0:0|0:0,0:0:0:0:
384,288,112215,6,0,L|280:277,1,103.999996826172,0|0,0:0|0:0,0:0:0:0:
96,224,112459,2,0,L|199:213,1,103.999996826172,0|0,0:0|0:0,0:0:0:0:
256,160,112702,1,0,1:0:0:0:
32,96,112865,1,0,0:0:0:0:
32,96,112946,2,0,P|40:146|22:194,1,103.999996826172,0|0,0:0|0:0,0:0:0:0:
128,352,113190,6,0,P|115:275|142:204,1,155.999995239258,0|0,0:0|0:0,0:0:0:0:
354,169,113597,1,0,0:0:0:0:
354,169,113678,2,0,P|303:178|256:160,1,103.999996826172,0|0,1:0|0:0,0:0:0:0:
315,67,113922,1,0,0:0:0:0:
384,288,114085,1,0,0:0:0:0:
384,288,114166,6,0,P|434:279|482:297,1,103.999996826172,0|0,0:0|0:0,0:0:0:0:
448,160,114410,2,0,L|442:108,2,51.999998413086,0|0|0,0:0|0:0|0:0,0:0:0:0:
315,67,114654,2,0,B|320:122|320:122|332:153|332:153|339:220,1,155.999995239258,0|0,1:0|0:0,0:0:0:0:
224,320,115060,1,0,0:0:0:0:
224,320,115141,38,0,L|233:233,1,86.6666666666667
192,128,115385,1,0,0:0:0:0:
192,128,115629,2,0,P|149:133|109:117,1,86.6666666666667,0|0,1:0|0:0,0:0:0:0:
315,67,115873,2,0,P|357:61|397:77,1,86.6666666666667,0|0,0:0|0:0,0:0:0:0:
334,243,116117,6,0,L|344:157,1,86.6666666666667,0|0,0:0|0:0,0:0:0:0:
192,128,116361,2,0,L|201:214,1,86.6666666666667,0|0,0:0|0:0,0:0:0:0:
160,288,116605,1,0,1:0:0:0:
334,243,116767,1,0,0:0:0:0:
334,243,116849,1,0,0:0:0:0:
96,160,117011,1,0,0:0:0:0:
96,160,117093,70,0,P|91:117|107:77,1,86.6666666666667
256,96,117337,2,0,P|261:139|245:179,1,86.6666666666667,0|0,0:0|0:0,0:0:0:0:
324,329,117580,2,0,L|334:243,1,86.6666666666667,0|0,1:0|0:0,0:0:0:0:
416,128,117824,2,0,L|425:214,1,86.6666666666667,0|0,0:0|0:0,0:0:0:0:
277,159,118068,6,0,B|267:64|267:64|256:96,1,130,0|0,0:0|0:0,0:0:0:0:
324,329,118475,1,0,0:0:0:0:
324,329,118556,2,0,P|366:334|406:318,1,86.6666666666667,0|0,1:0|0:0,0:0:0:0:
224,256,118800,2,0,P|181:250|141:266,1,86.6666666666667,0|0,0:0|0:0,0:0:0:0:
32,352,119044,70,0,L|22:265,1,86.6666666666667
128,96,119288,2,0,L|118:182,1,86.6666666666667,0|0,0:0|0:0,0:0:0:0:
224,320,119532,2,0,L|233:233,1,86.6666666666667,0|0,1:0|0:0,0:0:0:0:
288,160,119776,1,0,0:0:0:0:
128,96,119938,1,0,0:0:0:0:
128,96,120019,6,0,P|85:101|45:85,1,86.6666666666667,0|0,0:0|0:0,0:0:0:0:
258,69,120263,2,0,P|301:64|341:80,1,86.6666666666667,0|0,0:0|0:0,0:0:0:0:
384,160,120507,1,0,1:0:0:0:
160,172,120670,1,0,0:0:0:0:
160,172,120751,2,0,P|134:138|128:96,1,86.6666666666667,0|0,0:0|0:0,0:0:0:0:
256,192,120995,70,0,B|250:239|250:239|263:273|263:273|258:319,1,130,0|0,0:0|0:0,0:0:0:0:
384,160,121402,1,0,0:0:0:0:
384,160,121483,2,0,L|374:73,1,86.6666666666667,0|0,1:0|0:0,0:0:0:0:
288,32,121727,1,0,0:0:0:0:
288,32,121971,6,0,B|242:27|242:27|208:39|208:39|160:34,1,130,0|0,0:0|0:0,0:0:0:0:
64,160,122377,1,0,0:0:0:0:
64,160,122459,2,0,P|48:199|53:242,1,86.6666666666667,0|0,1:0|0:0,0:0:0:0:
240,192,122702,2,0,P|255:152|250:109,1,86.6666666666667,0|0,0:0|0:0,0:0:0:0:
161,35,122946,70,0,L|74:44,1,86.6666666666667,0|0,0:0|0:0,0:0:0:0:
153,201,123190,2,0,L|240:192,1,86.6666666666667,0|0,0:0|0:0,0:0:0:0:
416,128,123434,2,0,L|329:119,1,86.6666666666667,0|0,1:0|0:0,0:0:0:0:
256,64,123678,1,0,0:0:0:0:
384,224,123841,1,0,0:0:0:0:
384,224,123922,6,0,P|385:266|366:305,1,86.6666666666667,0|0,0:0|0:0,0:0:0:0:
292,247,124166,1,0,0:0:0:0:
292,247,124410,2,0,P|290:204|309:165,1,86.6666666666667,0|0,1:0|0:0,0:0:0:0:
224,32,124654,2,0,P|225:74|206:113,1,86.6666666666667,0|0,0:0|0:0,0:0:0:0:
64,192,124898,70,0,L|150:201,1,86.6666666666667,0|0,0:0|0:0,0:0:0:0:
378,237,125141,2,0,L|292:247,1,86.6666666666667,0|0,0:0|0:0,0:0:0:0:
128,320,125385,2,0,L|214:310,1,86.6666666666667,0|0,1:0|0:0,0:0:0:0:
288,128,125629,2,0,L|201:118,1,86.6666666666667,0|0,0:0|0:0,0:0:0:0:
352,224,125873,6,0,L|438:233,1,86.6666666666667,0|0,0:0|0:0,0:0:0:0:
496,288,126117,1,0,0:0:0:0:
384,128,126280,1,0,0:0:0:0:
384,128,126361,1,0,1:0:0:0:
256,256,126524,1,0,0:0:0:0:
256,256,126605,2,0,P|213:258|174:239,1,86.6666666666667
96,128,126849,70,0,L|105:41,1,86.6666666666667
144,16,127093,1,0,0:0:0:0:
256,96,127255,1,0,0:0:0:0:
256,96,127337,1,0,1:0:0:0:
368,16,127499,1,0,0:0:0:0:
407,41,127581,2,0,L|411:84,2,43.3333333333333
320,160,127824,6,0,L|310:246,1,86.6666666666667
192,128,128068,2,0,L|182:41,1,86.6666666666667
96,192,128312,2,0,L|105:278,1,86.6666666666667,0|0,1:0|0:0,0:0:0:0:
176,336,128556,1,0,0:0:0:0:
176,335,128800,70,0,P|239:326|297:353,1,130
448,288,129206,1,0,0:0:0:0:
448,288,129288,2,0,P|405:286|367:265,1,86.6666666666667,0|0,1:0|0:0,0:0:0:0:
434,179,129532,1,0,0:0:0:0:
256,288,129694,1,0,1:0:0:0:
256,288,129776,6,0,B|266:192|266:192|239:213,1,130
64,352,130182,1,0,0:0:0:0:
64,352,130263,2,0,B|53:256|53:256|80:277,1,130,0|0,1:0|0:0,0:0:0:0:
