osu file format v14

[General]
AudioFilename: audio.mp3
AudioLeadIn: 0
PreviewTime: 49545
Countdown: 0
SampleSet: Soft
StackLeniency: 0.7
Mode: 3
LetterboxInBreaks: 0
SpecialStyle: 0
WidescreenStoryboard: 1

[Editor]
DistanceSpacing: 1.3
BeatDivisor: 4
GridSize: 32
TimelineZoom: 4.039999

[Metadata]
Title:Kimama na Tenshitachi (kanemiko's stupid bootleg)
TitleUnicode:気ままな天使たち (kanemiko's stupid bootleg)
Artist:Wataten*5
ArtistUnicode:わたてん☆5
Creator:Ainer
Version:stupid normal with revv
Source:私に天使が舞い降りた!
Tags:Revv- Fawcro Linlime [_GoGoN-_] GoGoN- 気ままな天使たち/ハッピー・ハッピー・フレンズ japanese anime watashi ni tenshi ga mai orita an angel flew down to me opening op tv size short version ファイブ shirosaki hana 白咲花 sashide maria 指出毬亜 hoshino hinata 星野ひなた nagae rika 長江里加 himesaka noa 姫坂乃愛 kitou akari 鬼頭明里 tanemura koyori 種村子依 oowada hitomi 大和田仁美 konomori kanon 小之森夏音 oozora naomi 大空直美 happy friends electronic speedcore hardcore moonbahcore chiptune dubstep school practice orchestral pumpcore hitech psytrance phonk uptempo metal folk breakcore jazz metal pipe falling
BeatmapID:4204059
BeatmapSetID:2018784

[Difficulty]
HPDrainRate:7
CircleSize:4
OverallDifficulty:7
ApproachRate:5
SliderMultiplier:1.4
SliderTickRate:1

[Events]
//Background and Video events
0,0,"79746275_p0.png",0,0
//Break Periods
//Storyboard Layer 0 (Background)
//Storyboard Layer 1 (Fail)
//Storyboard Layer 2 (Pass)
//Storyboard Layer 3 (Foreground)
//Storyboard Layer 4 (Overlay)
//Storyboard Sound Samples
Sample,7655,0,"la1.wav",70
Sample,12298,0,"la3.wav",70
Sample,12655,0,"la4.wav",70
Sample,12893,0,"la3.wav",70
Sample,13251,0,"la4.wav",70
Sample,13608,0,"la1.wav",70
Sample,13637,0,"kickspam.wav",40
Sample,13667,0,"kickspam.wav",40
Sample,13697,0,"kickspam.wav",40
Sample,13727,0,"kickspam.wav",40
Sample,13757,0,"kickspam.wav",40
Sample,13786,0,"kickspam.wav",40
Sample,13816,0,"kickspam.wav",40
Sample,15066,0,"kickspam.wav",40
Sample,15096,0,"kickspam.wav",40
Sample,15126,0,"kickspam.wav",40
Sample,15155,0,"kickspam.wav",40
Sample,15185,0,"kickspam.wav",40
Sample,15215,0,"kickspam.wav",40
Sample,15245,0,"kickspam.wav",40
Sample,15274,0,"la5.wav",70
Sample,15542,0,"kickspam.wav",40
Sample,15572,0,"kickspam.wav",40
Sample,15602,0,"kickspam.wav",40
Sample,15632,0,"kickspam.wav",40
Sample,15661,0,"kickspam.wav",40
Sample,15691,0,"kickspam.wav",40
Sample,15721,0,"kickspam.wav",40
Sample,19114,0,"kickspam.wav",40
Sample,19143,0,"kickspam.wav",40
Sample,19173,0,"kickspam.wav",40
Sample,19203,0,"kickspam.wav",40
Sample,19233,0,"kickspam.wav",40
Sample,19262,0,"kickspam.wav",40
Sample,19292,0,"kickspam.wav",40
Sample,19352,0,"kickspam.wav",40
Sample,19382,0,"kickspam.wav",40
Sample,19411,0,"kickspam.wav",40
Sample,19441,0,"kickspam.wav",40
Sample,19471,0,"kickspam.wav",40
Sample,19501,0,"kickspam.wav",40
Sample,19530,0,"kickspam.wav",40
Sample,20036,0,"la1.wav",70
Sample,20512,0,"la1.wav",70
Sample,21941,0,"la1.wav",70
Sample,22417,0,"la1.wav",70
Sample,22774,0,"la7.wav",70
Sample,23846,0,"la1.wav",70
Sample,24322,0,"la1.wav",70
Sample,25274,0,"la4.wav",70
Sample,25632,0,"la5.wav",70
Sample,25989,0,"la1.wav",70
Sample,26227,0,"la7.wav",70
Sample,26584,0,"la1.wav",70
Sample,28132,0,"la1.wav",70
Sample,28846,0,"la4.wav",70
Sample,33608,0,"la5.wav",70
Sample,34560,0,"la6.wav",70
Sample,35632,0,"la1.wav",70
Sample,36108,0,"la5.wav",70
Sample,38012,0,"la7.wav",70
Sample,42655,0,"la1.wav",70
Sample,42893,0,"la1.wav",70
Sample,43132,0,"la1.wav",70
Sample,43251,0,"la1.wav",70
Sample,44560,0,"la1.wav",70
Sample,45274,0,"la1.wav",70
Sample,45334,0,"soft-hitclap.wav",10
Sample,45393,0,"soft-hitclap.wav",10
Sample,45453,0,"soft-hitclap.wav",10
Sample,45512,0,"soft-hitclap.wav",25
Sample,45632,0,"la7.wav",70
Sample,45751,0,"soft-hitclap.wav",25
Sample,45870,0,"soft-hitclap.wav",10
Sample,45989,0,"la1.wav",70
Sample,46108,0,"soft-hitclap.wav",25
Sample,47893,0,"la2.wav",70
Sample,50274,0,"soft-hitclap2.wav",25
Sample,50751,0,"la4.wav",70
Sample,51227,0,"la3.wav",70
Sample,51703,0,"la3.wav",70
Sample,52179,0,"la4.wav",70
Sample,52655,0,"la4.wav",70
Sample,53132,0,"la4.wav",70
Sample,53608,0,"la1.wav",70
Sample,54084,0,"la1.wav",70
Sample,54560,0,"la1.wav",70
Sample,55036,0,"la1.wav",70
Sample,55512,0,"la5.wav",70
Sample,55989,0,"la1.wav",70
Sample,56465,0,"la4.wav",70
Sample,58370,0,"la4.wav",70
Sample,58846,0,"la3.wav",70
Sample,59322,0,"la3.wav",70
Sample,59798,0,"la4.wav",70
Sample,60274,0,"la4.wav",70
Sample,60751,0,"la4.wav",70
Sample,61227,0,"la1.wav",70
Sample,61703,0,"la1.wav",70
Sample,62179,0,"la1.wav",70
Sample,62655,0,"la5.wav",70
Sample,63132,0,"soft-hitclap3.wav",40
Sample,63132,0,"la4.wav",70
Sample,63608,0,"la5.wav",70
Sample,63608,0,"soft-hitclap2.wav",25
Sample,63846,0,"la1.wav",70
Sample,64084,0,"la7.wav",70
Sample,65274,0,"la2.wav",70
Sample,65989,0,"la4.wav",70
Sample,66465,0,"la3.wav",70
Sample,66941,0,"la3.wav",70
Sample,67417,0,"la4.wav",70
Sample,67893,0,"la4.wav",70
Sample,68370,0,"la4.wav",70
Sample,68846,0,"la1.wav",70
Sample,69322,0,"la1.wav",70
Sample,69798,0,"la1.wav",70
Sample,70274,0,"la1.wav",70
Sample,70751,0,"la5.wav",70
Sample,71465,0,"la5.wav",70
Sample,73370,0,"la3.wav",70
Sample,73608,0,"la4.wav",70
Sample,74084,0,"la3.wav",70
Sample,74560,0,"la3.wav",70
Sample,75036,0,"la2.wav",70
Sample,75274,0,"la5.wav",70
Sample,75512,0,"la4.wav",70
Sample,75989,0,"la4.wav",70
Sample,76227,0,"la5.wav",70
Sample,76465,0,"la1.wav",70
Sample,76495,0,"kickspam.wav",40
Sample,76524,0,"kickspam.wav",40
Sample,76554,0,"kickspam.wav",40
Sample,76584,0,"kickspam.wav",40
Sample,76614,0,"kickspam.wav",40
Sample,76643,0,"kickspam.wav",40
Sample,76673,0,"kickspam.wav",40
Sample,76941,0,"la1.wav",70
Sample,77893,0,"la5.wav",70
Sample,78370,0,"la4.wav",70
Sample,81227,0,"la6.wav",70
Sample,81643,0,"soft-hitwhistle2.wav",40
Sample,81822,0,"soft-hitwhistle2.wav",40
Sample,82060,0,"soft-hitwhistle2.wav",40
Sample,82298,0,"soft-hitwhistle2.wav",40
Sample,82893,0,"la4.wav",70
Sample,86465,0,"la1.wav",70
Sample,86941,0,"la5.wav",70

[TimingPoints]
513,238.095238095238,4,2,1,60,1,0
8132,-100,4,2,1,60,0,1
15751,-100,4,2,1,60,0,0
50036,-100,4,2,1,60,0,1
64322,-100,4,2,1,60,0,0
65512,-100,4,2,1,60,0,1
71941,-100,4,2,1,60,0,0
72893,-100,4,2,1,60,0,1
76703,-100,4,2,1,60,0,0

[HitObjects]
320,192,513,128,4,632:0:0:0:0:
448,192,513,1,2,0:0:0:0:
320,192,751,128,0,870:0:0:0:0:
320,192,989,128,0,1108:0:0:0:0:
64,192,1227,128,0,1346:0:0:0:0:
448,192,1346,128,0,1465:0:0:0:0:
320,192,1465,128,0,1584:0:0:0:0:
192,192,1584,128,0,1703:0:0:0:0:
192,192,1822,128,0,1941:0:0:0:0:
192,192,2060,128,0,2179:0:0:0:0:
320,192,2179,128,0,2417:0:0:0:0:
192,192,2417,1,0,0:0:0:0:
64,192,2536,1,0,0:0:0:0:
448,192,2655,128,0,2774:0:0:0:0:
448,192,2893,128,0,3012:0:0:0:0:
192,192,3132,128,0,3251:0:0:0:0:
320,192,3251,128,0,3370:0:0:0:0:
448,192,3370,128,0,3489:0:0:0:0:
64,192,3489,128,0,3608:0:0:0:0:
64,192,3727,128,0,3846:0:0:0:0:
64,192,3965,128,0,4084:0:0:0:0:
448,192,4084,128,0,4322:0:0:0:0:
64,192,4322,128,2,4560:0:0:0:0:
192,192,4322,128,4,4560:0:0:0:0:
320,192,4679,128,2,5036:0:0:0:0:
448,192,4679,128,4,5036:0:0:0:0:
64,192,5036,128,0,5155:0:0:0:0:
192,192,5155,128,0,5274:0:0:0:0:
320,192,5274,1,2,0:0:0:0:
448,192,5274,1,0,0:0:0:0:
448,192,5512,1,2,0:0:0:0:
64,192,5751,1,2,0:0:0:0:
192,192,5751,1,0,0:0:0:0:
64,192,5989,1,2,0:0:0:0:
320,192,6227,1,2,0:0:0:0:
448,192,6227,1,0,0:0:0:0:
192,192,6346,1,2,0:0:0:0:
64,192,6465,1,2,0:0:0:0:
320,192,6465,1,0,0:0:0:0:
448,192,6584,1,2,0:0:0:0:
64,192,6703,1,2,0:0:0:0:
192,192,6703,128,0,6822:0:0:0:0:
448,192,6822,128,2,6941:0:0:0:0:
64,192,6941,128,2,7060:0:0:0:0:
320,192,7060,128,2,7179:0:0:0:0:
64,192,7179,128,2,7655:0:0:0:0:
448,192,7179,1,0,0:0:0:0:
448,192,7536,128,0,7655:0:0:0:0:
320,192,7774,128,0,7893:0:0:0:0:
192,192,7893,128,0,8012:0:0:0:0:
320,192,8012,128,0,8132:0:0:0:0:
64,192,8132,1,6,0:0:0:0:
192,192,8132,1,0,0:0:0:70:la2.wav
320,192,8370,1,2,0:0:0:0:
448,192,8370,1,0,0:0:0:0:
192,192,8489,1,0,0:0:0:70:la3.wav
320,192,8608,1,2,0:0:0:0:
64,192,8727,1,0,0:0:0:0:
192,192,8846,1,2,0:0:0:0:
448,192,8846,1,0,0:0:0:70:la4.wav
64,192,9084,1,2,0:0:0:0:
320,192,9084,1,0,0:0:0:70:la3.wav
192,192,9322,1,2,0:0:0:0:
448,192,9322,1,0,0:0:0:0:
320,192,9441,1,0,0:0:0:70:la4.wav
64,192,9560,1,2,0:0:0:0:
448,192,9679,1,0,0:0:0:0:
64,192,9798,1,2,0:0:0:0:
192,192,9798,1,0,0:0:0:70:la1.wav
320,192,10036,1,2,0:0:0:0:
448,192,10036,1,0,0:0:0:0:
192,192,10274,1,2,0:0:0:0:
320,192,10274,1,0,0:0:0:0:
64,192,10512,1,2,0:0:0:0:
192,192,10512,1,0,0:0:0:0:
448,192,10632,1,0,0:0:0:0:
64,192,10751,1,2,0:0:0:0:
320,192,10870,1,0,0:0:0:0:
64,192,10989,1,2,0:0:0:0:
192,192,10989,1,0,0:0:0:0:
320,192,11108,1,2,0:0:0:0:
448,192,11108,1,0,0:0:0:0:
64,192,11346,1,2,0:0:0:0:
448,192,11346,1,0,0:0:0:0:
192,192,11465,1,2,0:0:0:0:
320,192,11465,1,0,0:0:0:70:la1.wav
64,192,11703,1,2,0:0:0:0:
192,192,11703,1,8,0:0:0:40:soft-hitclap3.wav
320,192,11941,1,6,0:0:0:0:
448,192,11941,1,0,0:0:0:70:la2.wav
192,192,12060,1,2,0:0:0:0:
320,192,12179,1,2,0:0:0:0:
64,192,12298,1,2,0:0:0:0:
448,192,12417,1,2,0:0:0:0:
192,192,12536,1,2,0:0:0:0:
320,192,12655,1,2,0:0:0:0:
448,192,12774,1,2,0:0:0:0:
64,192,12893,1,2,0:0:0:0:
192,192,13012,1,2,0:0:0:0:
320,192,13132,1,2,0:0:0:0:
64,192,13251,1,2,0:0:0:0:
448,192,13370,1,2,0:0:0:0:
320,192,13489,1,2,0:0:0:0:
192,192,13608,128,2,13846:0:0:0:40:kickspam.wav
448,192,13846,1,2,0:0:0:0:
320,192,13965,1,2,0:0:0:0:
64,192,14084,1,2,0:0:0:0:
192,192,14203,1,2,0:0:0:0:
448,192,14322,1,2,0:0:0:0:
64,192,14441,1,2,0:0:0:0:
320,192,14560,1,2,0:0:0:0:
192,192,14679,1,2,0:0:0:0:
448,192,14798,1,2,0:0:0:0:
64,192,14917,1,2,0:0:0:0:
320,192,15036,128,2,15274:0:0:0:40:kickspam.wav
192,192,15274,1,2,0:0:0:0:
448,192,15393,1,2,0:0:0:0:
64,192,15512,1,12,0:0:0:0:
320,192,15512,128,0,15751:0:0:0:40:kickspam.wav
64,192,15751,128,6,18608:0:0:0:0:
448,192,15751,1,0,0:0:0:70:la4.wav
192,192,15989,1,0,0:0:0:0:
320,192,16227,1,0,0:0:0:0:
448,192,16465,1,0,0:0:0:0:
192,192,16703,1,0,0:0:0:0:
448,192,17060,1,0,0:0:0:0:
320,192,17417,1,0,0:0:0:0:
448,192,17893,1,0,0:0:0:0:
320,192,18132,1,0,0:0:0:0:
192,192,18370,1,0,0:0:0:0:
448,192,18608,1,0,0:0:0:0:
320,192,18846,1,0,0:0:0:0:
64,192,19084,128,2,19322:0:0:0:40:kickspam.wav
448,192,19084,128,0,19560:0:0:0:70:la6.wav
320,192,19322,128,2,19560:0:0:0:40:kickspam.wav
64,192,19560,1,6,0:0:0:0:
192,192,19560,1,0,0:0:0:70:la1.wav
320,192,19798,1,10,0:0:0:0:
448,192,19798,1,0,0:0:0:70:la1.wav
64,192,19917,1,0,0:0:0:0:
192,192,20036,1,2,0:0:0:0:
320,192,20155,1,0,0:0:0:0:
64,192,20274,1,10,0:0:0:0:
448,192,20274,1,0,0:0:0:70:la1.wav
320,192,20512,1,2,0:0:0:0:
64,192,20751,1,8,0:0:0:0:
192,192,20751,1,2,0:0:0:0:
448,192,20870,1,0,0:0:0:70:la5.wav
320,192,20989,1,2,0:0:0:0:
192,192,21108,1,0,0:0:0:0:
64,192,21227,1,10,0:0:0:0:
448,192,21227,1,0,0:0:0:70:la4.wav
192,192,21465,1,2,0:0:0:0:
320,192,21703,1,10,0:0:0:0:
448,192,21703,1,0,0:0:0:70:la1.wav
64,192,21941,1,2,0:0:0:0:
320,192,22060,1,0,0:0:0:0:
64,192,22179,1,10,0:0:0:0:
448,192,22179,1,0,0:0:0:70:la1.wav
192,192,22298,1,0,0:0:0:0:
448,192,22417,1,2,0:0:0:0:
320,192,22536,1,0,0:0:0:0:
64,192,22655,1,8,0:0:0:0:
192,192,22655,1,2,0:0:0:0:
448,192,22893,1,2,0:0:0:0:
64,192,23132,1,10,0:0:0:0:
320,192,23132,1,0,0:0:0:70:la1.wav
448,192,23370,1,2,0:0:0:0:
64,192,23608,1,10,0:0:0:0:
192,192,23608,1,0,0:0:0:70:la1.wav
448,192,23727,1,0,0:0:0:0:
320,192,23846,1,2,0:0:0:0:
64,192,23965,1,0,0:0:0:0:
192,192,24084,1,10,0:0:0:0:
448,192,24084,1,0,0:0:0:70:la1.wav
64,192,24322,1,2,0:0:0:0:
320,192,24560,1,8,0:0:0:0:
448,192,24560,1,2,0:0:0:0:
64,192,24679,1,0,0:0:0:70:la5.wav
192,192,24798,1,2,0:0:0:0:
448,192,24917,1,0,0:0:0:0:
64,192,25036,1,10,0:0:0:0:
320,192,25036,1,0,0:0:0:70:la4.wav
192,192,25274,1,2,0:0:0:0:
448,192,25393,1,2,0:0:0:0:
192,192,25512,1,2,0:0:0:0:
320,192,25632,1,2,0:0:0:0:
64,192,25751,1,8,0:0:0:0:
448,192,25751,1,2,0:0:0:0:
192,192,25870,1,2,0:0:0:0:
320,192,26108,1,6,0:0:0:0:
448,192,26108,1,8,0:0:0:0:
64,192,26465,1,2,0:0:0:0:
192,192,26465,1,4,0:0:0:0:
192,192,26703,1,2,0:0:0:0:
320,192,26703,1,4,0:0:0:0:
320,192,26941,1,6,0:0:0:0:
448,192,26941,1,0,0:0:0:70:la5.wav
64,192,27179,1,2,0:0:0:0:
192,192,27179,128,4,27417:0:0:0:0:
320,192,27417,1,0,0:0:0:70:la1.wav
64,192,27536,1,0,0:0:0:0:
192,192,27655,1,8,0:0:0:0:
448,192,27655,128,0,27893:0:0:0:70:la1.wav
192,192,27893,1,0,0:0:0:70:la1.wav
320,192,28012,1,2,0:0:0:0:
320,192,28251,1,0,0:0:0:0:
64,192,28370,1,2,0:0:0:0:
192,192,28489,1,0,0:0:0:70:la5.wav
320,192,28608,1,8,0:0:0:0:
448,192,28608,128,0,28786:0:0:0:0:
64,192,28786,128,0,28965:0:0:0:0:
448,192,28965,128,0,29084:0:0:0:0:
64,192,29084,1,0,0:0:0:0:
320,192,29322,1,0,0:0:0:70:la1.wav
192,192,29441,1,0,0:0:0:70:la1.wav
448,192,29560,1,0,0:0:0:70:la1.wav
64,192,29798,1,0,0:0:0:70:la1.wav
320,192,29917,1,0,0:0:0:0:
192,192,30036,1,0,0:0:0:70:la1.wav
64,192,30274,1,0,0:0:0:0:
320,192,30393,1,0,0:0:0:70:la7.wav
448,192,30632,1,0,0:0:0:0:
192,192,30751,1,0,0:0:0:70:la1.wav
320,192,30989,128,6,31227:0:0:0:0:
448,192,30989,128,0,31227:0:0:0:70:la6.wav
64,192,31346,128,6,31584:0:0:0:0:
192,192,31346,128,0,31584:0:0:0:70:la6.wav
320,192,31703,128,6,31941:0:0:0:0:
448,192,31703,128,0,31941:0:0:0:70:la1.wav
64,192,31941,1,0,0:0:0:0:
192,192,32060,1,0,0:0:0:0:
320,192,32179,1,0,0:0:0:0:
448,192,32298,1,0,0:0:0:0:
64,192,32417,1,8,0:0:0:0:
192,192,32417,128,0,32536:0:0:0:0:
320,192,32536,128,0,32655:0:0:0:0:
192,192,32655,128,0,32774:0:0:0:0:
320,192,32774,128,0,32893:0:0:0:0:
64,192,32893,128,6,33132:0:0:0:0:
448,192,32893,128,0,33132:0:0:0:70:la1.wav
192,192,33132,128,6,33370:0:0:0:0:
320,192,33132,128,0,33370:0:0:0:70:la1.wav
64,192,33370,128,6,33608:0:0:0:0:
448,192,33370,128,0,33608:0:0:0:70:la4.wav
192,192,33727,128,6,33965:0:0:0:0:
320,192,33727,128,0,33965:0:0:0:70:la1.wav
64,192,33965,1,0,0:0:0:0:
448,192,34084,1,0,0:0:0:0:
192,192,34203,1,0,0:0:0:0:
320,192,34322,128,8,34798:0:0:0:0:
448,192,34322,128,0,34798:0:0:0:0:
64,192,34798,1,0,0:0:0:70:la1.wav
192,192,35036,1,0,0:0:0:70:la1.wav
320,192,35274,1,0,0:0:0:70:la1.wav
64,192,35512,1,0,0:0:0:70:la1.wav
448,192,35751,1,0,0:0:0:70:la1.wav
320,192,35989,1,0,0:0:0:0:
192,192,36227,1,0,0:0:0:0:
448,192,36465,1,0,0:0:0:70:la4.wav
64,192,36703,1,0,0:0:0:0:
192,192,36941,1,0,0:0:0:70:la1.wav
448,192,37179,1,0,0:0:0:70:la1.wav
64,192,37417,1,0,0:0:0:70:la1.wav
320,192,37655,1,0,0:0:0:70:la1.wav
448,192,37893,1,0,0:0:0:0:
192,192,38132,1,0,0:0:0:0:
320,192,38370,1,0,0:0:0:70:la1.wav
64,192,38608,1,0,0:0:0:70:la6.wav
192,192,38846,1,0,0:0:0:0:
448,192,39084,1,0,0:0:0:0:
320,192,39322,1,0,0:0:0:0:
64,192,39560,1,0,0:0:0:0:
448,192,39798,1,0,0:0:0:70:la6.wav
192,192,40036,1,0,0:0:0:70:la4.wav
64,192,40274,1,0,0:0:0:70:la5.wav
320,192,40512,1,0,0:0:0:0:
192,192,40751,1,0,0:0:0:70:la6.wav
448,192,40989,1,0,0:0:0:70:la4.wav
320,192,41227,1,0,0:0:0:70:la5.wav
64,192,41465,1,0,0:0:0:0:
192,192,41703,1,0,0:0:0:70:la7.wav
448,192,41941,1,0,0:0:0:0:
320,192,42179,1,0,0:0:0:70:la1.wav
64,192,42417,128,4,42893:0:0:0:0:
192,192,42417,1,0,0:0:0:0:
320,192,43370,128,0,43727:0:0:0:70:la1.wav
192,192,43727,128,0,44084:0:0:0:70:la5.wav
320,192,44084,128,0,44322:0:0:0:70:la4.wav
448,192,44322,128,0,44798:0:0:0:0:
64,192,44798,128,0,45036:0:0:0:70:la1.wav
448,192,45036,128,0,45274:0:0:0:70:la1.wav
320,192,45274,128,8,45632:0:0:0:10:
192,192,45632,128,8,45989:0:0:0:10:
64,192,45989,128,8,46227:0:0:0:10:
320,192,46227,1,8,0:0:0:25:
448,192,46227,1,0,0:0:0:70:la6.wav
448,192,46465,1,8,0:0:0:25:
64,192,46703,1,8,0:0:0:25:
192,192,46703,1,0,0:0:0:0:
64,192,46941,1,8,0:0:0:25:
320,192,47179,1,8,0:0:0:25:
448,192,47179,1,0,0:0:0:0:
320,192,47417,1,8,0:0:0:25:
64,192,47655,1,8,0:0:0:25:
192,192,47655,1,0,0:0:0:70:la1.wav
192,192,47893,1,8,0:0:0:25:
320,192,48132,128,8,48370:0:0:0:0:
448,192,48132,128,0,48370:0:0:0:0:
64,192,48370,1,2,0:0:0:15:
192,192,48489,128,8,48727:0:0:0:0:
320,192,48489,128,0,48727:0:0:0:0:
448,192,48727,1,2,0:0:0:15:
64,192,48846,128,8,49084:0:0:0:0:
192,192,48846,128,0,49084:0:0:0:0:
320,192,49084,1,12,0:0:0:0:
448,192,49084,1,2,0:0:0:15:
192,192,49322,1,0,0:0:0:0:
64,192,49560,1,8,0:0:0:25:soft-hitclap2.wav
448,192,49560,1,0,0:0:0:70:la1.wav
448,192,49798,1,2,0:0:0:15:
320,192,49917,1,2,0:0:0:15:
64,192,50036,1,6,0:0:0:0:
192,192,50036,1,0,0:0:0:70:la2.wav
320,192,50274,1,2,0:0:0:0:
64,192,50512,1,2,0:0:0:0:
448,192,50512,1,0,0:0:0:70:la3.wav
64,192,50751,1,2,0:0:0:0:
320,192,50751,1,8,0:0:0:25:soft-hitclap2.wav
192,192,50989,1,2,0:0:0:0:
320,192,51227,1,2,0:0:0:0:
448,192,51227,1,8,0:0:0:25:soft-hitclap2.wav
64,192,51465,1,2,0:0:0:0:
320,192,51584,1,2,0:0:0:0:
64,192,51703,1,2,0:0:0:0:
192,192,51703,1,8,0:0:0:25:soft-hitclap2.wav
448,192,51822,1,2,0:0:0:0:
192,192,51941,1,2,0:0:0:0:
320,192,52179,1,2,0:0:0:0:
448,192,52179,1,8,0:0:0:25:soft-hitclap2.wav
192,192,52417,1,2,0:0:0:0:
320,192,52417,1,0,0:0:0:70:la5.wav
64,192,52655,1,2,0:0:0:0:
192,192,52655,1,8,0:0:0:25:soft-hitclap2.wav
448,192,52893,1,2,0:0:0:0:
64,192,53132,1,2,0:0:0:0:
192,192,53132,1,8,0:0:0:25:soft-hitclap2.wav
192,192,53370,1,2,0:0:0:0:
320,192,53370,1,0,0:0:0:70:la5.wav
320,192,53608,1,2,0:0:0:0:
448,192,53608,1,8,0:0:0:25:soft-hitclap2.wav
192,192,53727,1,2,0:0:0:0:
64,192,53846,1,2,0:0:0:0:
192,192,54084,1,2,0:0:0:0:
448,192,54084,1,8,0:0:0:25:soft-hitclap2.wav
64,192,54322,1,2,0:0:0:0:
448,192,54322,1,0,0:0:0:70:la7.wav
64,192,54560,1,2,0:0:0:0:
320,192,54560,1,8,0:0:0:25:soft-hitclap2.wav
448,192,54798,1,2,0:0:0:0:
64,192,55036,1,2,0:0:0:0:
192,192,55036,1,8,0:0:0:25:soft-hitclap2.wav
320,192,55274,1,2,0:0:0:0:
192,192,55512,1,2,0:0:0:0:
448,192,55512,1,8,0:0:0:25:soft-hitclap2.wav
320,192,55751,1,2,0:0:0:0:
448,192,55751,1,4,0:0:0:0:
64,192,55989,1,2,0:0:0:0:
192,192,55989,1,8,0:0:0:25:soft-hitclap2.wav
192,192,56227,1,2,0:0:0:0:
320,192,56227,1,0,0:0:0:70:la5.wav
320,192,56465,1,2,0:0:0:0:
448,192,56465,1,8,0:0:0:25:soft-hitclap2.wav
64,192,56703,1,6,0:0:0:0:
192,192,56703,1,0,0:0:0:70:la5.wav
64,192,56941,1,0,0:0:0:0:
192,192,57179,1,2,0:0:0:0:
448,192,57179,1,0,0:0:0:70:la1.wav
320,192,57417,1,8,0:0:0:40:soft-hitclap3.wav
448,192,57417,1,0,0:0:0:0:
64,192,57655,1,6,0:0:0:0:
192,192,57655,1,0,0:0:0:70:la2.wav
64,192,57893,1,2,0:0:0:0:
320,192,57893,1,8,0:0:0:25:soft-hitclap2.wav
192,192,58132,1,2,0:0:0:0:
448,192,58132,1,0,0:0:0:70:la3.wav
320,192,58370,1,2,0:0:0:0:
448,192,58370,1,8,0:0:0:25:soft-hitclap2.wav
64,192,58608,1,2,0:0:0:0:
192,192,58608,1,0,0:0:0:0:
192,192,58846,1,2,0:0:0:0:
448,192,58846,1,8,0:0:0:25:soft-hitclap2.wav
64,192,59084,1,2,0:0:0:0:
320,192,59084,1,0,0:0:0:0:
320,192,59322,1,2,0:0:0:0:
448,192,59322,1,8,0:0:0:25:soft-hitclap2.wav
64,192,59560,1,2,0:0:0:0:
192,192,59560,1,0,0:0:0:0:
64,192,59798,1,2,0:0:0:0:
320,192,59798,1,8,0:0:0:25:soft-hitclap2.wav
192,192,60036,1,2,0:0:0:0:
320,192,60036,1,0,0:0:0:70:la5.wav
192,192,60274,1,2,0:0:0:0:
448,192,60274,1,8,0:0:0:25:soft-hitclap2.wav
320,192,60512,1,2,0:0:0:0:
448,192,60512,1,0,0:0:0:0:
64,192,60751,1,2,0:0:0:0:
320,192,60751,1,8,0:0:0:25:soft-hitclap2.wav
64,192,60989,1,2,0:0:0:0:
448,192,60989,1,0,0:0:0:70:la5.wav
192,192,61227,1,2,0:0:0:0:
448,192,61227,1,8,0:0:0:25:soft-hitclap2.wav
64,192,61465,1,2,0:0:0:0:
192,192,61465,1,0,0:0:0:0:
320,192,61584,1,2,0:0:0:0:
64,192,61703,1,6,0:0:0:0:
448,192,61703,1,8,0:0:0:25:soft-hitclap2.wav
192,192,61941,1,2,0:0:0:0:
320,192,61941,1,0,0:0:0:70:la7.wav
64,192,62060,1,2,0:0:0:0:
320,192,62179,1,8,0:0:0:0:
448,192,62179,1,8,0:0:0:25:soft-hitclap2.wav
64,192,62298,128,2,62655:0:0:0:0:
192,192,62298,1,4,0:0:0:0:
320,192,62655,1,6,0:0:0:0:
448,192,62655,1,8,0:0:0:25:soft-hitclap2.wav
64,192,62893,1,2,0:0:0:0:
192,192,62893,1,0,0:0:0:0:
448,192,63012,1,2,0:0:0:0:
64,192,63132,1,4,0:0:0:0:
320,192,63132,1,8,0:0:0:25:soft-hitclap2.wav
192,192,63251,1,2,0:0:0:0:
320,192,63370,1,2,0:0:0:0:
448,192,63370,1,4,0:0:0:0:
64,192,63548,1,6,0:0:0:0:
192,192,63727,1,2,0:0:0:0:
320,192,63727,1,4,0:0:0:0:
448,192,63905,1,6,0:0:0:0:
64,192,64084,1,6,0:0:0:0:
192,192,64084,1,8,0:0:0:25:soft-hitclap2.wav
320,192,64203,1,2,0:0:0:0:
64,192,64322,1,6,0:0:0:0:
192,192,64322,1,0,0:0:0:70:la1.wav
320,192,64798,1,8,0:0:0:40:soft-hitclap3.wav
448,192,64798,1,0,0:0:0:70:la1.wav
192,192,65155,1,2,0:0:0:0:
320,192,65274,1,2,0:0:0:0:
192,192,65393,1,2,0:0:0:0:
320,192,65512,1,14,0:0:0:0:
448,192,65512,1,8,0:0:0:25:soft-hitclap2.wav
64,192,65751,1,2,0:0:0:0:
192,192,65751,1,0,0:0:0:70:la3.wav
64,192,65989,1,10,0:0:0:0:
320,192,65989,1,8,0:0:0:25:soft-hitclap2.wav
320,192,66227,1,2,0:0:0:0:
448,192,66227,1,0,0:0:0:0:
192,192,66465,1,10,0:0:0:0:
448,192,66465,1,8,0:0:0:25:soft-hitclap2.wav
64,192,66703,1,2,0:0:0:0:
320,192,66703,1,0,0:0:0:0:
64,192,66941,1,10,0:0:0:0:
192,192,66941,1,8,0:0:0:25:soft-hitclap2.wav
320,192,67179,1,2,0:0:0:0:
448,192,67179,1,0,0:0:0:0:
192,192,67417,1,10,0:0:0:0:
448,192,67417,1,8,0:0:0:25:soft-hitclap2.wav
64,192,67655,1,2,0:0:0:0:
320,192,67655,1,0,0:0:0:70:la5.wav
192,192,67893,1,10,0:0:0:0:
448,192,67893,1,8,0:0:0:25:soft-hitclap2.wav
64,192,68132,1,2,0:0:0:0:
192,192,68132,1,0,0:0:0:0:
320,192,68251,1,2,0:0:0:0:
64,192,68370,1,10,0:0:0:0:
448,192,68370,1,8,0:0:0:25:soft-hitclap2.wav
192,192,68489,1,2,0:0:0:0:
320,192,68608,1,2,0:0:0:0:
448,192,68608,1,0,0:0:0:70:la5.wav
64,192,68846,1,10,0:0:0:0:
192,192,68846,1,8,0:0:0:25:soft-hitclap2.wav
320,192,69084,1,2,0:0:0:0:
448,192,69084,1,0,0:0:0:0:
64,192,69203,1,2,0:0:0:0:
192,192,69322,1,10,0:0:0:0:
448,192,69322,1,8,0:0:0:25:soft-hitclap2.wav
192,192,69560,1,2,0:0:0:0:
320,192,69560,1,0,0:0:0:70:la7.wav
64,192,69798,1,10,0:0:0:0:
320,192,69798,1,8,0:0:0:25:soft-hitclap2.wav
64,192,70036,1,2,0:0:0:0:
192,192,70036,1,0,0:0:0:0:
192,192,70274,1,10,0:0:0:0:
448,192,70274,1,8,0:0:0:25:soft-hitclap2.wav
64,192,70512,1,2,0:0:0:0:
448,192,70512,1,0,0:0:0:0:
64,192,70751,1,10,0:0:0:0:
320,192,70751,1,8,0:0:0:25:soft-hitclap2.wav
320,192,70989,1,2,0:0:0:0:
448,192,70989,1,4,0:0:0:0:
192,192,71108,1,2,0:0:0:0:
64,192,71227,1,10,0:0:0:0:
448,192,71227,1,0,0:0:0:70:la1.wav
320,192,71346,1,8,0:0:0:0:
192,192,71465,1,2,0:0:0:0:
320,192,71584,1,2,0:0:0:0:
64,192,71703,1,14,0:0:0:0:
448,192,71703,1,0,0:0:0:70:la4.wav
192,192,71822,1,0,0:0:0:0:
320,192,71941,1,6,0:0:0:0:
448,192,71941,1,0,0:0:0:70:la5.wav
64,192,72417,128,8,72655:0:0:0:40:soft-hitclap3.wav
192,192,72417,1,0,0:0:0:70:la1.wav
320,192,72655,128,0,72893:0:0:0:0:
64,192,72893,128,6,73132:0:0:0:0:
192,192,72893,128,0,73132:0:0:0:70:la2.wav
448,192,73132,1,2,0:0:0:0:
448,192,73370,1,2,0:0:0:0:
448,192,73608,1,2,0:0:0:0:
320,192,73846,1,2,0:0:0:0:
64,192,74084,1,2,0:0:0:0:
64,192,74322,1,2,0:0:0:0:
64,192,74560,1,2,0:0:0:0:
192,192,74798,1,2,0:0:0:0:
320,192,75036,1,2,0:0:0:0:
320,192,75274,1,2,0:0:0:0:
320,192,75512,1,2,0:0:0:0:
448,192,75751,1,2,0:0:0:0:
192,192,75989,1,2,0:0:0:0:
192,192,76227,1,2,0:0:0:0:
192,192,76465,128,0,76703:0:0:0:40:kickspam.wav
320,192,76703,1,2,0:0:0:0:
448,192,76703,1,0,0:0:0:0:
64,192,76822,1,2,0:0:0:0:
320,192,77060,1,2,0:0:0:0:
64,192,77179,1,8,0:0:0:70:soft-hitclap4.wav
192,192,77179,1,0,0:0:0:70:la7.wav
192,192,77417,1,0,0:0:0:70:la1.wav
448,192,77536,1,2,0:0:0:0:
320,192,77893,1,2,0:0:0:0:
64,192,78012,1,0,0:0:0:0:
192,192,78132,1,8,0:0:0:70:soft-hitclap4.wav
448,192,78132,1,0,0:0:0:0:
320,192,78251,1,2,0:0:0:0:
64,192,78370,1,2,0:0:0:0:
320,192,78608,1,8,0:0:0:0:
448,192,78608,1,4,0:0:0:0:
64,192,78727,1,8,0:0:0:0:
192,192,78846,1,12,0:0:0:0:
448,192,78846,128,0,79084:0:0:0:70:la5.wav
64,192,79084,1,12,0:0:0:0:
192,192,79084,1,0,0:0:0:70:la1.wav
448,192,79203,1,8,0:0:0:0:
64,192,79322,128,12,79560:0:0:0:0:
320,192,79322,1,0,0:0:0:70:la7.wav
320,192,79560,128,14,79917:0:0:0:0:
448,192,79560,128,0,79917:0:0:0:70:la1.wav
320,192,80036,1,8,0:0:0:0:
448,192,80036,1,0,0:0:0:0:
192,192,80274,1,8,0:0:0:40:soft-hitclap3.wav
320,192,80274,1,0,0:0:0:0:
64,192,80512,1,6,0:0:0:0:
192,192,80512,1,0,0:0:0:70:la6.wav
448,192,80632,1,2,0:0:0:0:
64,192,80751,128,2,80989:0:0:0:0:
192,192,80751,1,0,0:0:0:70:la6.wav
320,192,80989,128,6,81227:0:0:0:0:
448,192,80989,1,0,0:0:0:70:la6.wav
192,192,81227,1,2,0:0:0:0:
320,192,81346,1,6,0:0:0:0:
448,192,81346,128,0,81584:0:0:0:70:la1.wav
64,192,81584,1,2,0:0:0:40:soft-hitwhistle2.wav
192,192,81703,1,8,0:0:0:40:soft-hitclap5.wav
448,192,81703,1,0,0:0:0:0:
192,192,81941,1,8,0:0:0:40:soft-hitclap5.wav
320,192,81941,1,0,0:0:0:0:
64,192,82179,1,8,0:0:0:40:soft-hitclap5.wav
320,192,82179,1,0,0:0:0:0:
192,192,82417,128,0,82655:0:0:0:70:la1.wav
448,192,82655,128,0,82893:0:0:0:70:la1.wav
320,192,82893,128,2,83132:0:0:0:40:soft-hitwhistle2.wav
192,192,83132,1,0,0:0:0:70:la5.wav
64,192,83251,128,0,83608:0:0:0:70:la1.wav
320,192,83608,1,2,0:0:0:0:
448,192,83608,1,0,0:0:0:0:
192,192,83727,1,0,0:0:0:0:
64,192,83846,1,0,0:0:0:0:
448,192,83846,1,0,0:0:0:0:
320,192,83965,1,0,0:0:0:0:
64,192,84084,128,8,84322:0:0:0:0:
192,192,84084,128,0,84322:0:0:0:0:
320,192,84322,128,6,84560:0:0:0:0:
448,192,84322,128,0,84560:0:0:0:70:la6.wav
64,192,84560,1,0,0:0:0:70:la6.wav
192,192,84798,128,6,85036:0:0:0:0:
320,192,84798,128,0,85036:0:0:0:70:la6.wav
448,192,85036,1,0,0:0:0:70:la6.wav
64,192,85155,128,6,85393:0:0:0:0:
192,192,85155,128,0,85393:0:0:0:70:la1.wav
320,192,85393,1,0,0:0:0:0:
448,192,85512,1,0,0:0:0:0:
192,192,85632,1,0,0:0:0:0:
320,192,85751,1,0,0:0:0:0:
64,192,85870,1,0,0:0:0:0:
192,192,85989,1,8,0:0:0:40:soft-hitclap3.wav
448,192,85989,1,0,0:0:0:0:
64,192,86227,1,2,0:0:0:0:
320,192,86227,1,0,0:0:0:70:la1.wav
320,192,86465,1,2,0:0:0:0:
64,192,86584,1,2,0:0:0:0:
192,192,86703,1,8,0:0:0:40:soft-hitclap3.wav
448,192,86703,1,0,0:0:0:70:la4.wav
192,192,86941,1,8,0:0:0:40:soft-hitclap3.wav
320,192,87060,128,6,87655:0:0:0:0:
448,192,87060,128,0,87655:0:0:0:70:la1.wav
