osu file format v14

[General]
AudioFilename: audio.mp3
AudioLeadIn: 0
PreviewTime: 49545
Countdown: 0
SampleSet: Soft
StackLeniency: 0.7
Mode: 3
LetterboxInBreaks: 0
SpecialStyle: 0
WidescreenStoryboard: 1

[Editor]
DistanceSpacing: 1.3
BeatDivisor: 16
GridSize: 32
TimelineZoom: 2.350002

[Metadata]
Title:Kimama na Tenshitachi (kanemiko's stupid bootleg)
TitleUnicode:気ままな天使たち (kanemiko's stupid bootleg)
Artist:Wataten*5
ArtistUnicode:わたてん☆5
Creator:Ainer
Version:lin's stupid insane
Source:私に天使が舞い降りた!
Tags:Revv- Fawcro Linlime [_GoGoN-_] GoGoN- 気ままな天使たち/ハッピー・ハッピー・フレンズ japanese anime watashi ni tenshi ga mai orita an angel flew down to me opening op tv size short version ファイブ shirosaki hana 白咲花 sashide maria 指出毬亜 hoshino hinata 星野ひなた nagae rika 長江里加 himesaka noa 姫坂乃愛 kitou akari 鬼頭明里 tanemura koyori 種村子依 oowada hitomi 大和田仁美 konomori kanon 小之森夏音 oozora naomi 大空直美 happy friends electronic speedcore hardcore moonbahcore chiptune dubstep school practice orchestral pumpcore hitech psytrance phonk uptempo metal folk breakcore jazz metal pipe falling
BeatmapID:4204058
BeatmapSetID:2018784

[Difficulty]
HPDrainRate:8
CircleSize:4
OverallDifficulty:7.5
ApproachRate:5
SliderMultiplier:1.4
SliderTickRate:1

[Events]
//Background and Video events
0,0,"79746275_p0.png",0,0
//Break Periods
//Storyboard Layer 0 (Background)
//Storyboard Layer 1 (Fail)
//Storyboard Layer 2 (Pass)
//Storyboard Layer 3 (Foreground)
//Storyboard Layer 4 (Overlay)
//Storyboard Sound Samples
Sample,12298,0,"la3.wav",70
Sample,12655,0,"la4.wav",70
Sample,12893,0,"la3.wav",70
Sample,13251,0,"la4.wav",70
Sample,13608,0,"la1.wav",70
Sample,13637,0,"kickspam.wav",40
Sample,13697,0,"kickspam.wav",40
Sample,13757,0,"kickspam.wav",40
Sample,13816,0,"kickspam.wav",40
Sample,15066,0,"kickspam.wav",40
Sample,15126,0,"kickspam.wav",40
Sample,15185,0,"kickspam.wav",40
Sample,15245,0,"kickspam.wav",40
Sample,15274,0,"la5.wav",70
Sample,15542,0,"kickspam.wav",40
Sample,15602,0,"kickspam.wav",40
Sample,15661,0,"kickspam.wav",40
Sample,15721,0,"kickspam.wav",40
Sample,19114,0,"kickspam.wav",40
Sample,19173,0,"kickspam.wav",40
Sample,19233,0,"kickspam.wav",40
Sample,19292,0,"kickspam.wav",40
Sample,19352,0,"kickspam.wav",40
Sample,19411,0,"kickspam.wav",40
Sample,19471,0,"kickspam.wav",40
Sample,19530,0,"kickspam.wav",40
Sample,28846,0,"la4.wav",70
Sample,44798,0,"la1.wav",70
Sample,45334,0,"soft-hitclap.wav",10
Sample,45393,0,"soft-hitclap.wav",10
Sample,45453,0,"soft-hitclap.wav",10
Sample,45512,0,"soft-hitclap.wav",25
Sample,45632,0,"la7.wav",70
Sample,45870,0,"soft-hitclap.wav",10
Sample,46108,0,"soft-hitclap.wav",25
Sample,50751,0,"la4.wav",70
Sample,51227,0,"la3.wav",70
Sample,51703,0,"la3.wav",70
Sample,52179,0,"la4.wav",70
Sample,52655,0,"la4.wav",70
Sample,53132,0,"la4.wav",70
Sample,53608,0,"la1.wav",70
Sample,54084,0,"la1.wav",70
Sample,54560,0,"la1.wav",70
Sample,55036,0,"la1.wav",70
Sample,55512,0,"la5.wav",70
Sample,55989,0,"la1.wav",70
Sample,56465,0,"la4.wav",70
Sample,62179,0,"la1.wav",70
Sample,63132,0,"soft-hitclap3.wav",40
Sample,63132,0,"la4.wav",70
Sample,63608,0,"soft-hitclap2.wav",25
Sample,63608,0,"la5.wav",70
Sample,63846,0,"la1.wav",70
Sample,64084,0,"la7.wav",70
Sample,64798,0,"la1.wav",70
Sample,72417,0,"la1.wav",70
Sample,73370,0,"la3.wav",70
Sample,75274,0,"la5.wav",70
Sample,76227,0,"la5.wav",70
Sample,76495,0,"kickspam.wav",40
Sample,76554,0,"kickspam.wav",40
Sample,76614,0,"kickspam.wav",40
Sample,76673,0,"kickspam.wav",40
Sample,84560,0,"la6.wav",70
Sample,85036,0,"la6.wav",70

[TimingPoints]
513,238.095238095238,4,2,1,60,1,0
8132,-100.0,4,2,1,60,0,1
15751,-100.0,4,2,1,60,0,0
50036,-100.0,4,2,1,60,0,1
64322,-100.0,4,2,1,60,0,0
65512,-100.0,4,2,1,60,0,1
71941,-100.0,4,2,1,60,0,0
72893,-100.0,4,2,1,60,0,1
76703,-100.0,4,2,1,60,0,0

[HitObjects]
64,192,513,128,4,989:0:0:0:0:
320,192,513,128,2,632:0:0:0:0:
448,192,513,128,0,751:0:0:0:0:
320,192,751,128,0,870:0:0:0:0:
320,192,989,128,0,1108:0:0:0:0:
192,192,1227,128,0,1346:0:0:0:0:
448,192,1346,128,0,1465:0:0:0:0:
64,192,1465,128,0,1584:0:0:0:0:
192,192,1584,128,0,1703:0:0:0:0:
192,192,1822,128,0,1941:0:0:0:0:
192,192,2060,128,0,2179:0:0:0:0:
320,192,2179,128,0,2417:0:0:0:0:
64,192,2417,1,0,0:0:0:0:
192,192,2536,1,0,0:0:0:0:
448,192,2655,128,0,2774:0:0:0:0:
448,192,2893,128,0,3012:0:0:0:0:
192,192,3132,128,0,3251:0:0:0:0:
320,192,3251,128,0,3370:0:0:0:0:
64,192,3370,128,0,3489:0:0:0:0:
192,192,3489,128,0,3608:0:0:0:0:
192,192,3727,128,0,3846:0:0:0:0:
320,192,3965,128,0,4084:0:0:0:0:
192,192,4084,128,0,4322:0:0:0:0:
64,192,4322,128,2,4560:0:0:0:0:
320,192,4322,128,4,4441:0:0:0:0:
448,192,4322,128,0,4560:0:0:0:0:
320,192,4560,128,0,4679:0:0:0:0:
64,192,4679,128,2,5036:0:0:0:0:
192,192,4679,128,4,4917:0:0:0:0:
320,192,4798,128,0,4917:0:0:0:0:
448,192,5036,128,0,5155:0:0:0:0:
192,192,5155,128,0,5274:0:0:0:0:
320,192,5274,128,2,5393:0:0:0:0:
448,192,5274,1,0,0:0:0:0:
64,192,5393,128,0,5512:0:0:0:0:
192,192,5512,1,2,0:0:0:0:
320,192,5512,1,0,0:0:0:0:
64,192,5632,128,0,5751:0:0:0:0:
320,192,5751,1,2,0:0:0:0:
448,192,5751,1,0,0:0:0:0:
64,192,5870,128,0,5989:0:0:0:0:
192,192,5989,1,2,0:0:0:0:
320,192,5989,128,0,6227:0:0:0:0:
64,192,6227,1,2,0:0:0:0:
192,192,6227,1,0,0:0:0:0:
64,192,6346,1,2,0:0:0:0:
192,192,6346,1,0,0:0:0:0:
320,192,6465,1,2,0:0:0:0:
448,192,6465,1,0,0:0:0:0:
320,192,6584,1,2,0:0:0:0:
448,192,6584,1,0,0:0:0:0:
64,192,6703,1,2,0:0:0:0:
192,192,6703,1,0,0:0:0:0:
320,192,6762,1,2,0:0:0:0:
192,192,6822,1,2,0:0:0:0:
448,192,6882,1,2,0:0:0:0:
64,192,6941,1,2,0:0:0:0:
320,192,6941,1,0,0:0:0:0:
192,192,7001,1,2,0:0:0:0:
448,192,7060,1,2,0:0:0:0:
64,192,7120,1,2,0:0:0:0:
192,192,7179,128,2,7536:0:0:0:0:
320,192,7179,128,0,7655:0:0:0:0:
64,192,7417,128,0,7536:0:0:0:0:
448,192,7536,128,0,7655:0:0:0:0:
64,192,7655,128,0,8012:0:0:0:70:la1.wav
192,192,7774,128,0,8012:0:0:0:0:
320,192,7893,128,0,8012:0:0:0:0:
448,192,8012,128,0,8132:0:0:0:0:
64,192,8132,128,4,8370:0:0:0:0:
192,192,8132,1,2,0:0:0:0:
320,192,8132,1,0,0:0:0:70:la2.wav
320,192,8251,1,0,0:0:0:0:
192,192,8370,1,2,0:0:0:0:
448,192,8370,1,0,0:0:0:0:
320,192,8489,1,0,0:0:0:70:la3.wav
448,192,8489,128,0,8727:0:0:0:0:
64,192,8608,1,2,0:0:0:0:
192,192,8608,1,0,0:0:0:0:
64,192,8727,1,0,0:0:0:0:
320,192,8727,1,0,0:0:0:0:
192,192,8846,128,2,9084:0:0:0:0:
320,192,8846,1,0,0:0:0:70:la4.wav
448,192,8965,1,0,0:0:0:0:
64,192,9084,1,2,0:0:0:0:
320,192,9084,128,0,9322:0:0:0:70:la3.wav
192,192,9203,1,0,0:0:0:0:
64,192,9322,1,2,0:0:0:0:
448,192,9322,1,0,0:0:0:0:
64,192,9441,128,0,9679:0:0:0:70:la4.wav
320,192,9441,1,0,0:0:0:0:
192,192,9560,1,2,0:0:0:0:
320,192,9560,1,0,0:0:0:0:
192,192,9679,1,0,0:0:0:0:
448,192,9679,1,0,0:0:0:0:
64,192,9798,1,2,0:0:0:0:
448,192,9798,128,0,10036:0:0:0:70:la1.wav
192,192,9917,1,0,0:0:0:0:
64,192,10036,1,2,0:0:0:0:
320,192,10036,1,0,0:0:0:0:
448,192,10155,1,0,0:0:0:0:
192,192,10274,1,2,0:0:0:0:
320,192,10274,1,0,0:0:0:0:
64,192,10393,1,0,0:0:0:0:
320,192,10512,1,2,0:0:0:0:
448,192,10512,1,0,0:0:0:0:
192,192,10632,1,0,0:0:0:0:
320,192,10632,1,0,0:0:0:0:
64,192,10751,1,2,0:0:0:0:
448,192,10751,1,0,0:0:0:0:
64,192,10870,1,0,0:0:0:0:
192,192,10870,1,0,0:0:0:0:
320,192,10989,1,2,0:0:0:0:
448,192,10989,1,0,0:0:0:0:
320,192,11108,1,2,0:0:0:0:
448,192,11108,1,0,0:0:0:0:
192,192,11227,1,0,0:0:0:0:
64,192,11346,1,2,0:0:0:0:
448,192,11346,1,0,0:0:0:0:
64,192,11465,1,2,0:0:0:0:
448,192,11465,1,0,0:0:0:70:la1.wav
320,192,11584,1,0,0:0:0:0:
64,192,11703,1,2,0:0:0:0:
192,192,11703,1,8,0:0:0:40:soft-hitclap3.wav
448,192,11703,1,0,0:0:0:0:
320,192,11941,1,6,0:0:0:0:
448,192,11941,1,0,0:0:0:70:la2.wav
192,192,12001,1,2,0:0:0:0:
64,192,12060,1,2,0:0:0:0:
320,192,12120,1,2,0:0:0:0:
192,192,12179,1,2,0:0:0:0:
448,192,12239,1,2,0:0:0:0:
64,192,12298,1,2,0:0:0:0:
192,192,12358,1,2,0:0:0:0:
320,192,12417,1,2,0:0:0:0:
448,192,12477,1,2,0:0:0:0:
64,192,12536,1,2,0:0:0:0:
192,192,12596,1,2,0:0:0:0:
320,192,12655,1,2,0:0:0:0:
64,192,12715,1,2,0:0:0:0:
448,192,12774,1,2,0:0:0:0:
192,192,12834,1,2,0:0:0:0:
320,192,12893,1,2,0:0:0:0:
64,192,12953,1,2,0:0:0:0:
192,192,13012,1,2,0:0:0:0:
448,192,13072,1,2,0:0:0:0:
320,192,13132,1,2,0:0:0:0:
192,192,13191,1,2,0:0:0:0:
64,192,13251,1,2,0:0:0:0:
320,192,13310,1,2,0:0:0:0:
192,192,13370,1,2,0:0:0:0:
448,192,13429,1,2,0:0:0:0:
64,192,13489,1,2,0:0:0:0:
320,192,13548,1,2,0:0:0:0:
192,192,13608,1,2,0:0:0:40:kickspam.wav
64,192,13667,1,2,0:0:0:40:kickspam.wav
448,192,13727,1,2,0:0:0:40:kickspam.wav
320,192,13786,1,2,0:0:0:40:kickspam.wav
192,192,13846,1,2,0:0:0:0:
64,192,13905,1,2,0:0:0:0:
320,192,13965,1,2,0:0:0:0:
192,192,14024,1,2,0:0:0:0:
448,192,14084,1,2,0:0:0:0:
320,192,14143,1,2,0:0:0:0:
64,192,14203,1,2,0:0:0:0:
448,192,14262,1,2,0:0:0:0:
320,192,14322,1,2,0:0:0:0:
192,192,14382,1,2,0:0:0:0:
448,192,14441,1,2,0:0:0:0:
64,192,14501,1,2,0:0:0:0:
192,192,14560,1,2,0:0:0:0:
320,192,14620,1,2,0:0:0:0:
448,192,14679,1,2,0:0:0:0:
64,192,14739,1,2,0:0:0:0:
192,192,14798,1,2,0:0:0:0:
448,192,14858,1,2,0:0:0:0:
320,192,14917,1,2,0:0:0:0:
64,192,14977,1,2,0:0:0:0:
192,192,15036,1,2,0:0:0:40:kickspam.wav
320,192,15096,1,2,0:0:0:40:kickspam.wav
448,192,15155,1,2,0:0:0:40:kickspam.wav
64,192,15215,1,2,0:0:0:40:kickspam.wav
192,192,15274,1,2,0:0:0:0:
448,192,15334,1,2,0:0:0:0:
320,192,15393,1,2,0:0:0:0:
64,192,15453,1,2,0:0:0:0:
192,192,15512,1,12,0:0:0:0:
448,192,15512,1,2,0:0:0:40:kickspam.wav
320,192,15572,1,2,0:0:0:40:kickspam.wav
64,192,15632,1,2,0:0:0:40:kickspam.wav
192,192,15691,1,2,0:0:0:40:kickspam.wav
320,192,15751,1,6,0:0:0:0:
448,192,15751,128,0,18608:0:0:0:70:la4.wav
192,192,15929,1,0,0:0:0:0:
64,192,16227,1,0,0:0:0:0:
320,192,16465,1,0,0:0:0:0:
320,192,16703,1,0,0:0:0:0:
320,192,17060,1,0,0:0:0:0:
64,192,17358,1,0,0:0:0:0:
192,192,17417,1,0,0:0:0:0:
320,192,17893,1,0,0:0:0:0:
64,192,18132,1,0,0:0:0:0:
192,192,18370,1,0,0:0:0:0:
64,192,18608,128,0,18727:0:0:0:0:
64,192,18846,128,0,18965:0:0:0:0:
448,192,18846,128,0,18965:0:0:0:0:
320,192,19084,1,2,0:0:0:40:kickspam.wav
448,192,19084,1,0,0:0:0:70:la6.wav
64,192,19143,1,2,0:0:0:40:kickspam.wav
192,192,19203,1,2,0:0:0:40:kickspam.wav
320,192,19262,1,2,0:0:0:40:kickspam.wav
448,192,19322,1,2,0:0:0:40:kickspam.wav
64,192,19382,1,2,0:0:0:40:kickspam.wav
192,192,19441,1,2,0:0:0:40:kickspam.wav
320,192,19501,1,2,0:0:0:40:kickspam.wav
64,192,19560,1,2,0:0:0:0:
192,192,19560,1,4,0:0:0:0:
448,192,19560,1,0,0:0:0:70:la1.wav
64,192,19679,1,0,0:0:0:0:
320,192,19798,1,10,0:0:0:0:
448,192,19798,1,0,0:0:0:70:la1.wav
320,192,19917,1,0,0:0:0:0:
64,192,20036,1,2,0:0:0:0:
192,192,20036,1,0,0:0:0:70:la1.wav
64,192,20155,1,0,0:0:0:0:
320,192,20274,1,10,0:0:0:0:
448,192,20274,1,0,0:0:0:70:la1.wav
448,192,20393,1,0,0:0:0:0:
64,192,20512,1,2,0:0:0:0:
192,192,20512,1,0,0:0:0:70:la1.wav
192,192,20632,1,0,0:0:0:0:
64,192,20751,1,8,0:0:0:0:
448,192,20751,1,2,0:0:0:0:
320,192,20870,1,0,0:0:0:70:la5.wav
192,192,20989,1,2,0:0:0:0:
320,192,20989,1,0,0:0:0:0:
64,192,21108,1,0,0:0:0:0:
320,192,21227,1,10,0:0:0:0:
448,192,21227,1,0,0:0:0:70:la4.wav
448,192,21346,1,0,0:0:0:0:
192,192,21465,1,2,0:0:0:0:
320,192,21465,1,0,0:0:0:0:
64,192,21584,1,0,0:0:0:0:
320,192,21703,1,10,0:0:0:0:
448,192,21703,1,0,0:0:0:70:la1.wav
320,192,21822,1,0,0:0:0:0:
64,192,21941,1,2,0:0:0:0:
192,192,21941,1,0,0:0:0:70:la1.wav
64,192,22060,1,0,0:0:0:0:
320,192,22179,1,10,0:0:0:0:
448,192,22179,1,0,0:0:0:70:la1.wav
448,192,22298,1,0,0:0:0:0:
64,192,22417,1,2,0:0:0:0:
320,192,22417,1,0,0:0:0:70:la1.wav
64,192,22536,1,0,0:0:0:0:
192,192,22655,1,8,0:0:0:0:
448,192,22655,1,2,0:0:0:0:
320,192,22774,1,0,0:0:0:70:la7.wav
320,192,22893,1,2,0:0:0:0:
448,192,22893,1,0,0:0:0:0:
192,192,23012,1,0,0:0:0:0:
64,192,23132,1,10,0:0:0:0:
448,192,23132,1,0,0:0:0:70:la1.wav
64,192,23251,1,0,0:0:0:0:
320,192,23370,1,2,0:0:0:0:
448,192,23370,1,0,0:0:0:0:
192,192,23489,1,0,0:0:0:0:
64,192,23608,1,10,0:0:0:0:
320,192,23608,1,0,0:0:0:70:la1.wav
320,192,23727,1,0,0:0:0:0:
64,192,23846,1,2,0:0:0:0:
192,192,23846,1,0,0:0:0:70:la1.wav
64,192,23965,1,0,0:0:0:0:
320,192,24084,1,10,0:0:0:0:
448,192,24084,1,0,0:0:0:70:la1.wav
448,192,24203,1,0,0:0:0:0:
64,192,24322,1,2,0:0:0:0:
192,192,24322,1,0,0:0:0:70:la1.wav
192,192,24441,1,0,0:0:0:0:
64,192,24560,1,8,0:0:0:0:
448,192,24560,1,2,0:0:0:0:
320,192,24679,1,0,0:0:0:70:la5.wav
192,192,24798,1,2,0:0:0:0:
320,192,24798,1,0,0:0:0:0:
64,192,24917,1,0,0:0:0:0:
320,192,25036,1,10,0:0:0:0:
448,192,25036,1,0,0:0:0:70:la4.wav
448,192,25155,1,0,0:0:0:0:
64,192,25274,1,2,0:0:0:0:
192,192,25274,1,0,0:0:0:70:la4.wav
320,192,25393,1,2,0:0:0:0:
448,192,25393,1,0,0:0:0:0:
64,192,25453,1,2,0:0:0:0:
192,192,25453,1,0,0:0:0:0:
320,192,25512,1,2,0:0:0:0:
448,192,25512,1,0,0:0:0:0:
64,192,25632,1,2,0:0:0:0:
192,192,25632,1,0,0:0:0:70:la5.wav
64,192,25751,1,8,0:0:0:0:
320,192,25751,1,2,0:0:0:0:
192,192,25870,1,2,0:0:0:0:
320,192,25870,1,0,0:0:0:0:
448,192,25989,1,0,0:0:0:70:la1.wav
64,192,26108,1,2,0:0:0:0:
192,192,26108,1,4,0:0:0:0:
320,192,26108,1,8,0:0:0:0:
192,192,26227,1,0,0:0:0:70:la7.wav
320,192,26346,1,0,0:0:0:0:
64,192,26465,1,2,0:0:0:0:
192,192,26465,1,4,0:0:0:0:
448,192,26465,1,0,0:0:0:0:
64,192,26584,1,0,0:0:0:70:la1.wav
192,192,26703,1,2,0:0:0:0:
320,192,26703,1,4,0:0:0:0:
448,192,26703,1,0,0:0:0:0:
320,192,26822,1,0,0:0:0:0:
64,192,26941,1,2,0:0:0:0:
192,192,26941,1,4,0:0:0:0:
448,192,26941,1,0,0:0:0:70:la5.wav
448,192,27060,1,0,0:0:0:0:
64,192,27179,128,2,27417:0:0:0:0:
192,192,27179,128,4,27298:0:0:0:0:
320,192,27179,1,0,0:0:0:0:
448,192,27417,1,0,0:0:0:70:la1.wav
320,192,27447,1,0,0:0:0:0:
448,192,27536,1,0,0:0:0:0:
320,192,27566,1,0,0:0:0:0:
64,192,27655,1,8,0:0:0:0:
192,192,27655,1,0,0:0:0:70:la1.wav
448,192,27655,1,0,0:0:0:0:
320,192,27774,128,0,27893:0:0:0:0:
64,192,27893,1,0,0:0:0:70:la1.wav
192,192,27953,1,0,0:0:0:0:
320,192,28012,1,2,0:0:0:0:
448,192,28012,1,0,0:0:0:0:
192,192,28072,1,0,0:0:0:0:
64,192,28132,1,0,0:0:0:70:la1.wav
448,192,28132,1,0,0:0:0:0:
320,192,28251,128,0,28370:0:0:0:0:
192,192,28310,128,0,28370:0:0:0:0:
64,192,28370,1,2,0:0:0:0:
448,192,28370,1,0,0:0:0:0:
320,192,28489,1,0,0:0:0:70:la5.wav
64,192,28608,1,8,0:0:0:0:
192,192,28608,128,0,28727:0:0:0:0:
448,192,28608,1,0,0:0:0:0:
192,192,28786,128,0,28905:0:0:0:0:
192,192,28965,128,0,29084:0:0:0:0:
448,192,29084,1,0,0:0:0:0:
320,192,29203,1,0,0:0:0:0:
64,192,29322,128,0,29441:0:0:0:70:la1.wav
448,192,29322,1,0,0:0:0:0:
192,192,29441,128,0,29560:0:0:0:70:la1.wav
320,192,29560,128,0,29679:0:0:0:70:la1.wav
192,192,29798,1,0,0:0:0:70:la1.wav
448,192,29798,128,0,29917:0:0:0:0:
64,192,29917,1,0,0:0:0:0:
192,192,29977,1,0,0:0:0:0:
320,192,30036,128,0,30155:0:0:0:70:la1.wav
448,192,30155,1,0,0:0:0:0:
64,192,30274,1,0,0:0:0:0:
192,192,30393,128,0,30512:0:0:0:70:la7.wav
320,192,30512,1,0,0:0:0:0:
192,192,30632,1,0,0:0:0:0:
64,192,30751,1,0,0:0:0:70:la1.wav
448,192,30751,128,0,30989:0:0:0:0:
320,192,30870,1,0,0:0:0:0:
64,192,30989,128,4,31227:0:0:0:0:
192,192,30989,128,2,31227:0:0:0:0:
320,192,30989,128,0,31227:0:0:0:70:la6.wav
64,192,31346,128,2,31584:0:0:0:0:
320,192,31346,128,4,31584:0:0:0:0:
448,192,31346,128,0,31584:0:0:0:70:la6.wav
192,192,31703,128,2,31941:0:0:0:0:
320,192,31703,128,4,31941:0:0:0:0:
448,192,31703,128,0,31941:0:0:0:70:la1.wav
64,192,31941,1,0,0:0:0:0:
192,192,32060,1,0,0:0:0:0:
320,192,32120,1,0,0:0:0:0:
64,192,32179,1,0,0:0:0:0:
192,192,32239,1,0,0:0:0:0:
448,192,32298,1,0,0:0:0:0:
320,192,32358,1,0,0:0:0:0:
64,192,32417,1,8,0:0:0:0:
192,192,32417,1,0,0:0:0:0:
448,192,32417,1,0,0:0:0:0:
320,192,32536,128,0,32655:0:0:0:0:
192,192,32655,128,0,32774:0:0:0:0:
320,192,32774,128,0,32893:0:0:0:0:
64,192,32893,128,4,33012:0:0:0:0:
192,192,32893,128,2,33012:0:0:0:0:
448,192,32893,128,0,33132:0:0:0:70:la1.wav
64,192,33132,128,2,33370:0:0:0:0:
192,192,33132,128,4,33251:0:0:0:0:
320,192,33132,128,0,33251:0:0:0:70:la1.wav
192,192,33370,128,2,33489:0:0:0:0:
320,192,33370,128,4,33489:0:0:0:0:
448,192,33370,128,0,33608:0:0:0:70:la4.wav
64,192,33608,1,0,0:0:0:70:la5.wav
192,192,33727,128,2,33965:0:0:0:0:
320,192,33727,128,4,33846:0:0:0:0:
448,192,33727,128,0,33846:0:0:0:70:la1.wav
64,192,33965,1,0,0:0:0:0:
192,192,34084,1,0,0:0:0:0:
320,192,34203,1,0,0:0:0:0:
64,192,34322,1,8,0:0:0:0:
192,192,34322,1,0,0:0:0:0:
448,192,34322,128,0,34679:0:0:0:0:
320,192,34441,128,0,34798:0:0:0:0:
192,192,34560,128,0,34798:0:0:0:70:la6.wav
64,192,34679,128,0,34798:0:0:0:0:
448,192,34798,128,0,34917:0:0:0:70:la1.wav
320,192,35036,128,0,35155:0:0:0:70:la1.wav
192,192,35274,128,0,35393:0:0:0:70:la1.wav
448,192,35512,128,0,35632:0:0:0:70:la1.wav
320,192,35632,128,0,35751:0:0:0:70:la1.wav
192,192,35751,128,0,35870:0:0:0:70:la1.wav
320,192,35989,1,0,0:0:0:0:
192,192,36108,128,0,36227:0:0:0:70:la5.wav
64,192,36227,1,0,0:0:0:0:
320,192,36465,128,0,36584:0:0:0:70:la4.wav
192,192,36703,1,0,0:0:0:0:
320,192,36941,128,0,37060:0:0:0:70:la1.wav
320,192,37179,128,0,37298:0:0:0:70:la1.wav
320,192,37417,128,0,37536:0:0:0:70:la1.wav
320,192,37655,128,0,37774:0:0:0:70:la1.wav
192,192,37893,1,0,0:0:0:0:
64,192,38012,128,0,38132:0:0:0:70:la7.wav
320,192,38132,1,0,0:0:0:0:
448,192,38370,128,0,38489:0:0:0:70:la1.wav
192,192,38608,128,0,38727:0:0:0:70:la6.wav
64,192,38846,1,0,0:0:0:0:
448,192,39084,1,0,0:0:0:0:
192,192,39322,1,0,0:0:0:0:
320,192,39560,1,0,0:0:0:0:
64,192,39798,128,0,39917:0:0:0:70:la6.wav
448,192,40036,128,0,40155:0:0:0:70:la4.wav
192,192,40274,128,0,40393:0:0:0:70:la5.wav
320,192,40512,1,0,0:0:0:0:
64,192,40751,128,0,40870:0:0:0:70:la6.wav
448,192,40989,128,0,41108:0:0:0:70:la4.wav
192,192,41227,128,0,41405:0:0:0:70:la5.wav
320,192,41465,1,0,0:0:0:0:
192,192,41703,128,0,41882:0:0:0:70:la7.wav
320,192,41941,1,0,0:0:0:0:
192,192,42179,128,0,42417:0:0:0:70:la1.wav
64,192,42417,1,4,0:0:0:0:
448,192,42417,128,0,43012:0:0:0:0:
320,192,42655,128,0,42893:0:0:0:70:la1.wav
192,192,42893,128,0,43132:0:0:0:70:la1.wav
64,192,43132,128,0,43251:0:0:0:70:la1.wav
320,192,43251,128,0,43370:0:0:0:70:la1.wav
192,192,43370,128,0,43727:0:0:0:70:la1.wav
448,192,43370,128,0,43727:0:0:0:0:
64,192,43727,128,0,44084:0:0:0:70:la5.wav
320,192,43727,128,0,44084:0:0:0:0:
192,192,44084,128,0,44322:0:0:0:70:la4.wav
448,192,44084,128,0,44322:0:0:0:0:
64,192,44322,128,0,45036:0:0:0:0:
320,192,44322,1,0,0:0:0:0:
192,192,44560,128,0,45036:0:0:0:70:la1.wav
320,192,45036,128,0,45274:0:0:0:70:la1.wav
448,192,45036,128,0,45274:0:0:0:0:
64,192,45274,128,8,45632:0:0:0:10:
192,192,45274,128,0,45751:0:0:0:70:la1.wav
320,192,45632,128,8,45989:0:0:0:10:
64,192,45751,128,8,45989:0:0:0:25:
192,192,45989,128,8,46227:0:0:0:10:
448,192,45989,128,0,46227:0:0:0:70:la1.wav
64,192,46227,1,8,0:0:0:25:
320,192,46227,1,0,0:0:0:70:la6.wav
192,192,46346,1,0,0:0:0:0:
320,192,46465,1,8,0:0:0:25:
448,192,46465,1,0,0:0:0:0:
192,192,46584,1,0,0:0:0:0:
64,192,46703,1,8,0:0:0:25:
448,192,46703,1,0,0:0:0:0:
320,192,46822,1,0,0:0:0:0:
64,192,46941,1,8,0:0:0:25:
192,192,46941,1,0,0:0:0:0:
448,192,47060,1,0,0:0:0:0:
64,192,47179,1,8,0:0:0:25:
320,192,47179,1,0,0:0:0:0:
192,192,47298,1,0,0:0:0:0:
320,192,47417,1,8,0:0:0:25:
448,192,47417,1,0,0:0:0:0:
64,192,47536,1,0,0:0:0:0:
192,192,47655,1,8,0:0:0:25:
448,192,47655,1,0,0:0:0:70:la1.wav
320,192,47774,1,0,0:0:0:0:
64,192,47893,1,8,0:0:0:25:
192,192,47893,1,0,0:0:0:70:la2.wav
320,192,48012,1,0,0:0:0:0:
64,192,48132,1,8,0:0:0:0:
192,192,48132,1,0,0:0:0:0:
448,192,48132,1,0,0:0:0:0:
64,192,48370,1,2,0:0:0:15:
192,192,48370,1,0,0:0:0:0:
64,192,48489,1,8,0:0:0:0:
320,192,48489,1,0,0:0:0:0:
448,192,48489,1,0,0:0:0:0:
320,192,48727,1,2,0:0:0:15:
448,192,48727,1,0,0:0:0:0:
192,192,48786,1,2,0:0:0:15:
64,192,48846,1,8,0:0:0:0:
320,192,48846,1,0,0:0:0:0:
448,192,48846,1,0,0:0:0:0:
64,192,49084,1,4,0:0:0:0:
320,192,49084,1,8,0:0:0:0:
448,192,49084,1,2,0:0:0:15:
64,192,49322,1,0,0:0:0:0:
192,192,49322,1,0,0:0:0:0:
320,192,49560,1,8,0:0:0:25:soft-hitclap2.wav
448,192,49560,1,0,0:0:0:70:la1.wav
64,192,49798,1,2,0:0:0:15:
448,192,49798,1,0,0:0:0:0:
192,192,49858,1,2,0:0:0:15:
320,192,49917,1,2,0:0:0:15:
64,192,49977,1,2,0:0:0:15:
192,192,50036,1,2,0:0:0:0:
320,192,50036,1,4,0:0:0:0:
448,192,50036,1,0,0:0:0:70:la2.wav
448,192,50155,1,0,0:0:0:0:
192,192,50274,1,2,0:0:0:0:
320,192,50274,1,8,0:0:0:25:soft-hitclap2.wav
64,192,50393,1,0,0:0:0:0:
320,192,50512,1,2,0:0:0:0:
448,192,50512,1,0,0:0:0:70:la3.wav
320,192,50632,1,0,0:0:0:0:
64,192,50751,1,2,0:0:0:0:
448,192,50751,1,8,0:0:0:25:soft-hitclap2.wav
64,192,50870,1,0,0:0:0:0:
320,192,50989,1,2,0:0:0:0:
448,192,50989,1,0,0:0:0:0:
192,192,51108,1,0,0:0:0:0:
64,192,51227,1,2,0:0:0:0:
448,192,51227,1,8,0:0:0:25:soft-hitclap2.wav
448,192,51346,1,0,0:0:0:0:
64,192,51465,1,2,0:0:0:0:
192,192,51465,1,0,0:0:0:0:
64,192,51584,1,2,0:0:0:0:
192,192,51584,1,0,0:0:0:0:
320,192,51703,1,2,0:0:0:0:
448,192,51703,1,8,0:0:0:25:soft-hitclap2.wav
64,192,51822,1,2,0:0:0:0:
192,192,51822,1,0,0:0:0:0:
64,192,51941,1,2,0:0:0:0:
192,192,51941,1,0,0:0:0:0:
320,192,52060,1,0,0:0:0:0:
64,192,52179,1,2,0:0:0:0:
448,192,52179,1,8,0:0:0:25:soft-hitclap2.wav
448,192,52298,1,0,0:0:0:0:
64,192,52417,1,2,0:0:0:0:
192,192,52417,1,0,0:0:0:70:la5.wav
192,192,52536,1,0,0:0:0:0:
320,192,52655,1,2,0:0:0:0:
448,192,52655,1,8,0:0:0:25:soft-hitclap2.wav
320,192,52774,1,0,0:0:0:0:
64,192,52893,1,2,0:0:0:0:
448,192,52893,1,0,0:0:0:0:
192,192,53012,1,0,0:0:0:0:
320,192,53132,1,2,0:0:0:0:
448,192,53132,1,8,0:0:0:25:soft-hitclap2.wav
320,192,53251,1,0,0:0:0:0:
64,192,53370,1,2,0:0:0:0:
448,192,53370,1,0,0:0:0:70:la5.wav
64,192,53489,1,0,0:0:0:0:
192,192,53608,1,2,0:0:0:0:
320,192,53608,1,8,0:0:0:25:soft-hitclap2.wav
64,192,53667,1,2,0:0:0:0:
448,192,53727,1,2,0:0:0:0:
320,192,53786,1,2,0:0:0:0:
64,192,53846,1,2,0:0:0:0:
192,192,53846,1,0,0:0:0:0:
448,192,53965,1,0,0:0:0:0:
64,192,54084,1,2,0:0:0:0:
320,192,54084,1,8,0:0:0:25:soft-hitclap2.wav
64,192,54203,1,0,0:0:0:0:
320,192,54322,1,2,0:0:0:0:
448,192,54322,1,0,0:0:0:70:la7.wav
320,192,54441,1,0,0:0:0:0:
192,192,54560,1,2,0:0:0:0:
448,192,54560,1,8,0:0:0:25:soft-hitclap2.wav
192,192,54679,1,0,0:0:0:0:
64,192,54798,1,2,0:0:0:0:
448,192,54798,1,0,0:0:0:0:
320,192,54917,1,0,0:0:0:0:
64,192,55036,1,2,0:0:0:0:
192,192,55036,1,8,0:0:0:25:soft-hitclap2.wav
192,192,55155,1,0,0:0:0:0:
320,192,55274,1,2,0:0:0:0:
448,192,55274,1,0,0:0:0:0:
192,192,55393,1,0,0:0:0:0:
64,192,55512,1,2,0:0:0:0:
448,192,55512,1,8,0:0:0:25:soft-hitclap2.wav
448,192,55632,1,0,0:0:0:0:
64,192,55751,1,2,0:0:0:0:
192,192,55751,1,4,0:0:0:0:
320,192,55751,1,0,0:0:0:0:
448,192,55870,1,0,0:0:0:0:
64,192,55989,128,2,56108:0:0:0:0:
320,192,55989,1,8,0:0:0:25:soft-hitclap2.wav
320,192,56108,1,0,0:0:0:0:
192,192,56227,1,2,0:0:0:0:
448,192,56227,1,0,0:0:0:70:la5.wav
192,192,56346,1,0,0:0:0:0:
64,192,56465,1,2,0:0:0:0:
320,192,56465,128,8,56584:0:0:0:25:soft-hitclap2.wav
64,192,56584,1,0,0:0:0:0:
192,192,56703,1,2,0:0:0:0:
320,192,56703,1,4,0:0:0:0:
448,192,56703,1,0,0:0:0:70:la5.wav
320,192,56941,128,0,57060:0:0:0:0:
64,192,57060,1,0,0:0:0:0:
192,192,57179,1,2,0:0:0:0:
448,192,57179,1,0,0:0:0:70:la1.wav
320,192,57298,1,0,0:0:0:0:
64,192,57417,1,8,0:0:0:40:soft-hitclap3.wav
192,192,57417,1,0,0:0:0:0:
320,192,57536,1,0,0:0:0:0:
64,192,57655,1,4,0:0:0:0:
192,192,57655,1,2,0:0:0:0:
448,192,57655,1,0,0:0:0:70:la2.wav
448,192,57774,1,0,0:0:0:0:
64,192,57893,1,2,0:0:0:0:
192,192,57893,1,8,0:0:0:25:soft-hitclap2.wav
320,192,57893,1,0,0:0:0:0:
64,192,58012,1,0,0:0:0:0:
192,192,58132,1,2,0:0:0:0:
320,192,58132,1,0,0:0:0:70:la3.wav
448,192,58132,1,0,0:0:0:0:
320,192,58251,1,0,0:0:0:0:
64,192,58370,1,2,0:0:0:0:
192,192,58370,1,8,0:0:0:25:soft-hitclap2.wav
448,192,58370,1,0,0:0:0:70:la4.wav
192,192,58489,1,0,0:0:0:0:
64,192,58608,1,2,0:0:0:0:
320,192,58608,1,0,0:0:0:0:
448,192,58608,1,0,0:0:0:0:
448,192,58727,1,0,0:0:0:0:
64,192,58846,1,2,0:0:0:0:
192,192,58846,1,8,0:0:0:25:soft-hitclap2.wav
320,192,58846,1,0,0:0:0:70:la3.wav
192,192,58965,1,0,0:0:0:0:
64,192,59084,1,2,0:0:0:0:
320,192,59084,1,0,0:0:0:0:
448,192,59084,1,0,0:0:0:0:
320,192,59203,1,0,0:0:0:0:
64,192,59322,1,2,0:0:0:0:
192,192,59322,1,8,0:0:0:25:soft-hitclap2.wav
448,192,59322,1,0,0:0:0:70:la3.wav
64,192,59441,1,0,0:0:0:0:
192,192,59560,1,2,0:0:0:0:
320,192,59560,1,0,0:0:0:0:
448,192,59560,1,0,0:0:0:0:
448,192,59679,1,0,0:0:0:0:
64,192,59798,1,2,0:0:0:0:
192,192,59798,1,8,0:0:0:25:soft-hitclap2.wav
320,192,59798,1,0,0:0:0:70:la4.wav
192,192,59917,1,0,0:0:0:0:
64,192,60036,1,2,0:0:0:0:
320,192,60036,1,0,0:0:0:70:la5.wav
448,192,60036,1,0,0:0:0:0:
64,192,60155,1,0,0:0:0:0:
192,192,60274,1,2,0:0:0:0:
320,192,60274,1,8,0:0:0:25:soft-hitclap2.wav
448,192,60274,1,0,0:0:0:70:la4.wav
320,192,60393,1,0,0:0:0:0:
64,192,60512,1,2,0:0:0:0:
192,192,60512,1,0,0:0:0:0:
448,192,60512,1,0,0:0:0:0:
448,192,60632,1,0,0:0:0:0:
64,192,60751,1,2,0:0:0:0:
192,192,60751,1,8,0:0:0:25:soft-hitclap2.wav
320,192,60751,1,0,0:0:0:70:la4.wav
192,192,60870,1,0,0:0:0:0:
64,192,60989,1,2,0:0:0:0:
320,192,60989,1,0,0:0:0:70:la5.wav
448,192,60989,1,0,0:0:0:0:
320,192,61108,1,0,0:0:0:0:
64,192,61227,1,2,0:0:0:0:
192,192,61227,1,8,0:0:0:25:soft-hitclap2.wav
448,192,61227,1,0,0:0:0:70:la1.wav
64,192,61346,1,0,0:0:0:0:
192,192,61465,1,2,0:0:0:0:
320,192,61465,1,0,0:0:0:0:
448,192,61465,1,0,0:0:0:0:
64,192,61584,1,2,0:0:0:0:
192,192,61584,1,0,0:0:0:0:
320,192,61643,1,2,0:0:0:0:
64,192,61703,1,6,0:0:0:0:
192,192,61703,1,8,0:0:0:25:soft-hitclap2.wav
448,192,61703,1,0,0:0:0:70:la1.wav
320,192,61941,1,2,0:0:0:0:
448,192,61941,1,0,0:0:0:70:la7.wav
320,192,62060,1,2,0:0:0:0:
448,192,62060,1,0,0:0:0:0:
64,192,62179,1,8,0:0:0:0:
192,192,62179,1,8,0:0:0:25:soft-hitclap2.wav
64,192,62298,1,2,0:0:0:0:
320,192,62298,1,4,0:0:0:0:
448,192,62298,1,0,0:0:0:0:
64,192,62655,1,6,0:0:0:0:
192,192,62655,1,8,0:0:0:25:soft-hitclap2.wav
448,192,62655,1,0,0:0:0:70:la5.wav
320,192,62893,1,2,0:0:0:0:
448,192,62893,1,0,0:0:0:0:
320,192,63012,1,2,0:0:0:0:
448,192,63012,1,0,0:0:0:0:
64,192,63132,1,4,0:0:0:0:
192,192,63132,1,8,0:0:0:25:soft-hitclap2.wav
320,192,63251,1,2,0:0:0:0:
448,192,63251,1,0,0:0:0:0:
192,192,63310,1,2,0:0:0:0:
64,192,63370,1,2,0:0:0:0:
320,192,63370,1,4,0:0:0:0:
448,192,63370,1,0,0:0:0:0:
64,192,63548,1,2,0:0:0:0:
320,192,63548,1,4,0:0:0:0:
448,192,63548,1,0,0:0:0:0:
64,192,63727,1,2,0:0:0:0:
192,192,63727,1,4,0:0:0:0:
320,192,63727,1,0,0:0:0:0:
64,192,63905,1,2,0:0:0:0:
192,192,63905,1,4,0:0:0:0:
320,192,63905,1,0,0:0:0:0:
320,192,64084,1,6,0:0:0:0:
448,192,64084,1,8,0:0:0:25:soft-hitclap2.wav
192,192,64203,1,2,0:0:0:0:
320,192,64203,1,0,0:0:0:0:
64,192,64322,1,2,0:0:0:0:
192,192,64322,1,4,0:0:0:0:
448,192,64322,1,0,0:0:0:70:la1.wav
320,192,64560,1,0,0:0:0:0:
64,192,64798,128,8,65036:0:0:0:40:soft-hitclap3.wav
192,192,64917,128,0,65036:0:0:0:0:
320,192,65036,128,0,65274:0:0:0:0:
192,192,65155,128,2,65274:0:0:0:0:
448,192,65155,1,0,0:0:0:0:
64,192,65274,1,2,0:0:0:0:
448,192,65274,1,0,0:0:0:70:la2.wav
192,192,65393,1,2,0:0:0:0:
320,192,65393,1,0,0:0:0:0:
64,192,65512,1,14,0:0:0:0:
192,192,65512,1,8,0:0:0:25:soft-hitclap2.wav
320,192,65632,1,0,0:0:0:0:
64,192,65751,1,2,0:0:0:0:
192,192,65751,1,0,0:0:0:70:la3.wav
448,192,65751,1,0,0:0:0:0:
320,192,65870,1,0,0:0:0:0:
64,192,65989,1,10,0:0:0:0:
192,192,65989,1,8,0:0:0:25:soft-hitclap2.wav
448,192,65989,1,0,0:0:0:70:la4.wav
192,192,66108,1,0,0:0:0:0:
64,192,66227,1,2,0:0:0:0:
448,192,66227,1,0,0:0:0:0:
448,192,66346,1,0,0:0:0:0:
64,192,66465,1,10,0:0:0:0:
192,192,66465,1,8,0:0:0:25:soft-hitclap2.wav
320,192,66465,1,0,0:0:0:70:la3.wav
448,192,66584,1,0,0:0:0:0:
64,192,66703,1,2,0:0:0:0:
192,192,66703,1,0,0:0:0:0:
320,192,66822,1,0,0:0:0:0:
192,192,66941,1,10,0:0:0:0:
320,192,66941,1,8,0:0:0:25:soft-hitclap2.wav
448,192,66941,1,0,0:0:0:70:la3.wav
64,192,67060,1,0,0:0:0:0:
320,192,67179,1,2,0:0:0:0:
448,192,67179,1,0,0:0:0:0:
192,192,67298,1,0,0:0:0:0:
64,192,67417,1,10,0:0:0:0:
320,192,67417,1,8,0:0:0:25:soft-hitclap2.wav
448,192,67417,1,0,0:0:0:70:la4.wav
192,192,67536,1,0,0:0:0:0:
64,192,67655,1,2,0:0:0:0:
320,192,67655,1,0,0:0:0:70:la5.wav
448,192,67655,1,0,0:0:0:0:
192,192,67774,1,0,0:0:0:0:
64,192,67893,1,10,0:0:0:0:
320,192,67893,1,8,0:0:0:25:soft-hitclap2.wav
448,192,67893,1,0,0:0:0:70:la4.wav
64,192,68012,1,0,0:0:0:0:
320,192,68132,1,2,0:0:0:0:
448,192,68132,1,0,0:0:0:0:
64,192,68251,1,2,0:0:0:0:
192,192,68251,1,0,0:0:0:0:
320,192,68310,1,2,0:0:0:0:
64,192,68370,1,10,0:0:0:0:
192,192,68370,1,8,0:0:0:25:soft-hitclap2.wav
448,192,68370,1,0,0:0:0:70:la4.wav
320,192,68489,1,2,0:0:0:0:
448,192,68489,1,0,0:0:0:0:
64,192,68608,1,2,0:0:0:0:
192,192,68608,1,0,0:0:0:70:la5.wav
320,192,68608,1,0,0:0:0:0:
448,192,68727,1,0,0:0:0:0:
64,192,68846,1,10,0:0:0:0:
320,192,68846,1,8,0:0:0:25:soft-hitclap2.wav
448,192,68846,1,0,0:0:0:70:la1.wav
192,192,68965,1,0,0:0:0:0:
320,192,69084,1,2,0:0:0:0:
448,192,69084,1,0,0:0:0:0:
192,192,69203,1,2,0:0:0:0:
320,192,69203,1,0,0:0:0:0:
64,192,69322,1,10,0:0:0:0:
192,192,69322,1,8,0:0:0:25:soft-hitclap2.wav
448,192,69322,1,0,0:0:0:70:la1.wav
320,192,69441,1,0,0:0:0:0:
64,192,69560,1,2,0:0:0:0:
192,192,69560,1,0,0:0:0:70:la7.wav
448,192,69560,1,0,0:0:0:0:
320,192,69679,1,0,0:0:0:0:
64,192,69798,1,10,0:0:0:0:
192,192,69798,1,8,0:0:0:25:soft-hitclap2.wav
448,192,69798,1,0,0:0:0:70:la1.wav
192,192,69917,1,0,0:0:0:0:
64,192,70036,1,2,0:0:0:0:
320,192,70036,1,0,0:0:0:0:
320,192,70155,1,0,0:0:0:0:
64,192,70274,1,10,0:0:0:0:
192,192,70274,1,8,0:0:0:25:soft-hitclap2.wav
448,192,70274,1,0,0:0:0:70:la1.wav
320,192,70393,1,0,0:0:0:0:
64,192,70512,1,2,0:0:0:0:
448,192,70512,1,0,0:0:0:0:
192,192,70632,1,0,0:0:0:0:
64,192,70751,1,10,0:0:0:0:
192,192,70751,1,8,0:0:0:25:soft-hitclap2.wav
448,192,70751,1,0,0:0:0:70:la5.wav
320,192,70870,1,0,0:0:0:0:
64,192,70989,1,2,0:0:0:0:
192,192,70989,1,4,0:0:0:0:
320,192,71108,1,2,0:0:0:0:
448,192,71108,1,0,0:0:0:0:
192,192,71167,1,2,0:0:0:0:
64,192,71227,1,2,0:0:0:0:
320,192,71227,1,8,0:0:0:0:
448,192,71227,1,0,0:0:0:70:la1.wav
64,192,71346,1,8,0:0:0:0:
192,192,71346,1,0,0:0:0:0:
320,192,71465,1,2,0:0:0:0:
448,192,71465,1,0,0:0:0:70:la5.wav
64,192,71584,1,2,0:0:0:0:
448,192,71584,1,0,0:0:0:0:
64,192,71703,1,14,0:0:0:0:
192,192,71703,1,0,0:0:0:70:la4.wav
320,192,71822,1,0,0:0:0:0:
64,192,71941,1,4,0:0:0:0:
192,192,71941,1,2,0:0:0:0:
448,192,71941,1,0,0:0:0:70:la5.wav
64,192,72417,1,8,0:0:0:40:soft-hitclap3.wav
192,192,72477,1,0,0:0:0:0:
320,192,72536,1,0,0:0:0:0:
448,192,72596,1,0,0:0:0:0:
64,192,72655,1,0,0:0:0:0:
192,192,72715,1,0,0:0:0:0:
320,192,72774,1,0,0:0:0:0:
448,192,72834,1,0,0:0:0:0:
64,192,72893,128,6,73132:0:0:0:0:
192,192,72893,128,0,73012:0:0:0:70:la2.wav
320,192,73132,1,2,0:0:0:0:
448,192,73132,1,0,0:0:0:0:
192,192,73191,1,0,0:0:0:0:
64,192,73251,1,0,0:0:0:0:
320,192,73310,1,0,0:0:0:0:
192,192,73370,1,2,0:0:0:0:
448,192,73429,1,0,0:0:0:0:
320,192,73489,1,0,0:0:0:0:
64,192,73548,1,0,0:0:0:0:
192,192,73608,1,2,0:0:0:0:
448,192,73608,1,0,0:0:0:70:la4.wav
320,192,73667,1,0,0:0:0:0:
64,192,73727,1,0,0:0:0:0:
192,192,73786,1,0,0:0:0:0:
320,192,73846,1,2,0:0:0:0:
448,192,73905,1,0,0:0:0:0:
64,192,73965,1,0,0:0:0:0:
192,192,74024,1,0,0:0:0:0:
320,192,74084,1,2,0:0:0:0:
448,192,74084,1,0,0:0:0:70:la3.wav
64,192,74143,1,0,0:0:0:0:
192,192,74203,1,0,0:0:0:0:
448,192,74262,1,0,0:0:0:0:
320,192,74322,1,2,0:0:0:0:
192,192,74382,1,0,0:0:0:0:
64,192,74441,1,0,0:0:0:0:
448,192,74501,1,0,0:0:0:0:
192,192,74560,1,2,0:0:0:0:
320,192,74560,1,0,0:0:0:70:la3.wav
64,192,74620,1,0,0:0:0:0:
448,192,74679,1,0,0:0:0:0:
320,192,74739,1,0,0:0:0:0:
64,192,74798,1,2,0:0:0:0:
192,192,74858,1,0,0:0:0:0:
320,192,74917,1,0,0:0:0:0:
448,192,74977,1,0,0:0:0:0:
64,192,75036,1,2,0:0:0:0:
192,192,75036,1,0,0:0:0:70:la2.wav
320,192,75096,1,0,0:0:0:0:
448,192,75155,1,0,0:0:0:0:
64,192,75215,1,0,0:0:0:0:
192,192,75274,1,2,0:0:0:0:
448,192,75334,1,0,0:0:0:0:
320,192,75393,1,0,0:0:0:0:
192,192,75453,1,0,0:0:0:0:
64,192,75512,1,2,0:0:0:0:
448,192,75512,1,0,0:0:0:70:la4.wav
320,192,75572,1,0,0:0:0:0:
192,192,75632,1,0,0:0:0:0:
64,192,75691,1,0,0:0:0:0:
448,192,75751,1,2,0:0:0:0:
320,192,75810,1,0,0:0:0:0:
64,192,75870,1,0,0:0:0:0:
192,192,75929,1,0,0:0:0:0:
320,192,75989,1,2,0:0:0:0:
448,192,75989,1,0,0:0:0:70:la4.wav
64,192,76048,1,0,0:0:0:0:
192,192,76108,1,0,0:0:0:0:
320,192,76167,1,0,0:0:0:0:
448,192,76227,1,2,0:0:0:0:
64,192,76286,1,0,0:0:0:0:
320,192,76346,1,0,0:0:0:0:
192,192,76405,1,0,0:0:0:0:
64,192,76465,1,0,0:0:0:40:kickspam.wav
448,192,76465,1,0,0:0:0:70:la1.wav
320,192,76524,1,0,0:0:0:40:kickspam.wav
192,192,76584,1,0,0:0:0:40:kickspam.wav
320,192,76643,1,0,0:0:0:40:kickspam.wav
64,192,76703,1,2,0:0:0:0:
448,192,76703,1,0,0:0:0:0:
448,192,76822,1,2,0:0:0:0:
64,192,76941,1,0,0:0:0:70:la1.wav
192,192,76941,1,0,0:0:0:0:
320,192,77060,1,2,0:0:0:0:
320,192,77179,1,8,0:0:0:70:soft-hitclap4.wav
448,192,77179,1,0,0:0:0:70:la7.wav
192,192,77298,1,0,0:0:0:0:
64,192,77417,1,0,0:0:0:70:la1.wav
320,192,77536,1,2,0:0:0:0:
448,192,77536,1,0,0:0:0:0:
192,192,77655,1,0,0:0:0:0:
448,192,77774,1,0,0:0:0:0:
64,192,77893,1,2,0:0:0:0:
320,192,77893,1,0,0:0:0:70:la5.wav
64,192,78012,1,0,0:0:0:0:
192,192,78072,1,0,0:0:0:0:
320,192,78132,1,8,0:0:0:70:soft-hitclap4.wav
448,192,78251,1,2,0:0:0:0:
320,192,78370,1,2,0:0:0:0:
448,192,78370,1,0,0:0:0:70:la4.wav
192,192,78489,1,0,0:0:0:0:
64,192,78608,1,8,0:0:0:0:
320,192,78608,1,4,0:0:0:0:
192,192,78727,1,8,0:0:0:0:
448,192,78727,1,0,0:0:0:0:
64,192,78846,128,12,79084:0:0:0:0:
320,192,78846,128,0,78965:0:0:0:70:la5.wav
192,192,78965,1,0,0:0:0:0:
320,192,79084,1,12,0:0:0:0:
448,192,79084,1,0,0:0:0:70:la1.wav
64,192,79203,1,8,0:0:0:0:
192,192,79203,1,0,0:0:0:0:
320,192,79262,1,8,0:0:0:0:
64,192,79322,128,12,79441:0:0:0:0:
448,192,79322,128,0,79560:0:0:0:70:la7.wav
64,192,79560,128,14,79917:0:0:0:0:
192,192,79560,128,0,79917:0:0:0:70:la1.wav
192,192,80036,1,8,0:0:0:0:
320,192,80036,1,0,0:0:0:0:
448,192,80036,1,0,0:0:0:0:
64,192,80274,1,8,0:0:0:40:soft-hitclap3.wav
192,192,80274,1,0,0:0:0:0:
320,192,80393,1,0,0:0:0:0:
64,192,80512,1,2,0:0:0:0:
192,192,80512,1,4,0:0:0:0:
448,192,80512,1,0,0:0:0:70:la6.wav
320,192,80632,1,2,0:0:0:0:
448,192,80632,1,0,0:0:0:0:
192,192,80691,1,2,0:0:0:0:
64,192,80751,128,2,80989:0:0:0:0:
320,192,80751,1,0,0:0:0:70:la6.wav
192,192,80989,128,4,81108:0:0:0:0:
320,192,80989,128,2,81108:0:0:0:0:
448,192,80989,128,0,81227:0:0:0:70:la6.wav
64,192,81227,1,2,0:0:0:0:
192,192,81227,1,0,0:0:0:70:la6.wav
64,192,81346,128,2,81584:0:0:0:0:
192,192,81346,128,4,81465:0:0:0:0:
320,192,81346,128,0,81465:0:0:0:70:la1.wav
448,192,81584,1,2,0:0:0:40:soft-hitwhistle2.wav
320,192,81643,1,2,0:0:0:40:soft-hitwhistle2.wav
64,192,81703,1,8,0:0:0:40:soft-hitclap5.wav
192,192,81703,1,0,0:0:0:0:
448,192,81703,1,0,0:0:0:0:
192,192,81822,1,2,0:0:0:40:soft-hitwhistle2.wav
320,192,81822,1,0,0:0:0:0:
64,192,81941,1,8,0:0:0:40:soft-hitclap5.wav
320,192,81941,1,0,0:0:0:0:
448,192,81941,1,0,0:0:0:0:
64,192,82060,1,2,0:0:0:40:soft-hitwhistle2.wav
192,192,82060,1,0,0:0:0:0:
192,192,82179,1,8,0:0:0:40:soft-hitclap5.wav
320,192,82179,1,0,0:0:0:0:
448,192,82179,1,0,0:0:0:0:
64,192,82298,1,2,0:0:0:40:soft-hitwhistle2.wav
448,192,82298,1,0,0:0:0:0:
320,192,82417,1,0,0:0:0:70:la1.wav
192,192,82477,1,0,0:0:0:0:
448,192,82536,1,0,0:0:0:0:
64,192,82596,1,0,0:0:0:0:
192,192,82655,1,0,0:0:0:70:la1.wav
320,192,82715,1,0,0:0:0:0:
64,192,82774,1,0,0:0:0:0:
192,192,82834,1,0,0:0:0:0:
320,192,82893,1,2,0:0:0:40:soft-hitwhistle2.wav
448,192,82893,1,0,0:0:0:70:la4.wav
192,192,83012,1,0,0:0:0:0:
320,192,83072,1,0,0:0:0:0:
192,192,83132,1,0,0:0:0:70:la5.wav
64,192,83191,1,0,0:0:0:0:
320,192,83251,1,0,0:0:0:70:la1.wav
192,192,83310,1,0,0:0:0:0:
64,192,83370,1,0,0:0:0:0:
320,192,83608,1,2,0:0:0:0:
448,192,83608,1,0,0:0:0:0:
192,192,83667,1,0,0:0:0:0:
64,192,83727,1,0,0:0:0:0:
320,192,83727,1,0,0:0:0:0:
64,192,83846,1,0,0:0:0:0:
192,192,83846,1,0,0:0:0:0:
448,192,83965,1,0,0:0:0:0:
64,192,84024,1,0,0:0:0:0:
320,192,84084,1,8,0:0:0:0:
448,192,84084,1,0,0:0:0:0:
192,192,84143,1,0,0:0:0:0:
64,192,84203,1,0,0:0:0:0:
320,192,84262,1,0,0:0:0:0:
64,192,84322,128,4,84560:0:0:0:0:
192,192,84322,128,2,84560:0:0:0:0:
448,192,84322,128,0,84679:0:0:0:70:la6.wav
64,192,84798,128,2,85036:0:0:0:0:
192,192,84798,128,4,84917:0:0:0:0:
320,192,84798,128,0,84917:0:0:0:70:la6.wav
192,192,85155,128,4,85274:0:0:0:0:
320,192,85155,128,2,85274:0:0:0:0:
448,192,85155,128,0,85393:0:0:0:70:la1.wav
64,192,85393,1,0,0:0:0:0:
192,192,85512,1,0,0:0:0:0:
320,192,85632,1,0,0:0:0:0:
448,192,85751,1,0,0:0:0:0:
192,192,85870,1,0,0:0:0:0:
64,192,85989,1,8,0:0:0:40:soft-hitclap3.wav
320,192,85989,1,0,0:0:0:0:
448,192,85989,1,0,0:0:0:0:
64,192,86227,1,2,0:0:0:0:
320,192,86227,1,0,0:0:0:70:la1.wav
448,192,86227,1,0,0:0:0:0:
448,192,86346,1,0,0:0:0:0:
64,192,86465,1,2,0:0:0:0:
192,192,86465,1,0,0:0:0:70:la1.wav
320,192,86465,1,0,0:0:0:0:
192,192,86584,1,2,0:0:0:0:
448,192,86584,1,0,0:0:0:0:
320,192,86643,1,2,0:0:0:0:
64,192,86703,1,8,0:0:0:40:soft-hitclap3.wav
448,192,86703,1,0,0:0:0:70:la4.wav
64,192,86941,1,8,0:0:0:40:soft-hitclap3.wav
448,192,86941,1,0,0:0:0:70:la5.wav
192,192,87060,128,4,87655:0:0:0:0:
320,192,87060,128,2,87655:0:0:0:0:
448,192,87060,128,0,87655:0:0:0:70:la1.wav
