osu file format v14

[General]
AudioFilename: audio.mp3
AudioLeadIn: 0
PreviewTime: 49926
Countdown: 0
SampleSet: Normal
StackLeniency: 0.7
Mode: 1
LetterboxInBreaks: 0
WidescreenStoryboard: 0

[Editor]
Bookmarks: 880,8499,19927,35165,50403,65641,80879
DistanceSpacing: 2.5
BeatDivisor: 4
GridSize: 8
TimelineZoom: 1.1

[Metadata]
Title:Kimama na Tenshitachi (TV Size)
TitleUnicode:気ままな天使たち (TV Size)
Artist:Wataten*5
ArtistUnicode:わたてん☆5
Creator:yuki_momoiro722
Version:Muzukashii
Source:私に天使が舞い降りた!
Tags:taiko わたてん wataten An Angel Flew Down to Me watashi ni tenshi ga maiorita opening op ファイブ five shirosaki hana 白咲花 sashide maria 指出毬亜 hoshino hinata 星野ひなた nagae rika 長江里加 himesaka noa 姫坂乃愛 kitou akari 鬼頭明里 tanemura koyori 種村子依 oowada hitomi 大和田仁美 konomori kanon 小之森夏音 oozora naomi 大空直美
BeatmapID:1887501
BeatmapSetID:904156

[Difficulty]
HPDrainRate:6
CircleSize:7
OverallDifficulty:4.5
ApproachRate:7
SliderMultiplier:1.4
SliderTickRate:1

[Events]
//Background and Video events
0,0,"lolis molamola.jpg",0,100
//Break Periods
//Storyboard Layer 0 (Background)
//Storyboard Layer 1 (Fail)
//Storyboard Layer 2 (Pass)
//Storyboard Layer 3 (Foreground)
//Storyboard Sound Samples

[TimingPoints]
880,476.190476190476,4,1,0,60,1,0
880,-100,4,1,0,60,0,0
8499,-100,4,1,0,85,0,0
19927,476.190476190476,4,1,0,65,1,0
19927,-100,4,1,0,65,0,0
27546,-100,4,1,0,75,0,0
35165,-100,4,1,0,85,0,0
50403,-100,4,1,0,95,0,1
63498,-100,4,1,0,95,0,0
65641,-100,4,1,0,95,0,1
80879,-100,4,1,0,80,0,0

[HitObjects]
256,192,880,5,0,0:0:0:0:
256,192,1356,1,8,0:0:0:0:
256,192,1832,1,0,0:0:0:0:
256,192,2189,1,8,0:0:0:0:
256,192,2546,1,8,0:0:0:0:
256,192,2784,1,0,0:0:0:0:
256,192,3260,1,8,0:0:0:0:
256,192,3975,1,0,0:0:0:0:
256,192,4213,1,8,0:0:0:0:
256,192,4689,1,0,0:0:0:0:
256,192,5165,1,8,0:0:0:0:
256,192,5641,1,0,0:0:0:0:
256,192,5999,1,8,0:0:0:0:
256,192,6356,1,8,0:0:0:0:
264,200,6594,1,0,0:0:0:0:
264,200,7070,1,8,0:0:0:0:
264,200,7784,1,8,0:0:0:0:
256,192,8022,1,8,0:0:0:0:
256,192,8260,1,0,0:0:0:0:
256,192,8499,1,12,0:0:0:0:
256,192,9213,1,0,0:0:0:0:
256,192,9451,1,8,0:0:0:0:
256,192,9808,1,0,0:0:0:0:
256,192,9927,1,8,0:0:0:0:
256,192,10165,1,8,0:0:0:0:
256,192,10403,1,0,0:0:0:0:
256,192,10879,1,8,0:0:0:0:
256,192,11356,1,0,0:0:0:0:
256,192,11832,1,8,0:0:0:0:
256,192,12308,1,12,0:0:0:0:
256,192,13022,1,0,0:0:0:0:
256,192,13260,1,8,0:0:0:0:
256,192,13499,1,0,0:0:0:0:
256,192,13737,1,8,0:0:0:0:
256,192,14213,1,0,0:0:0:0:
256,192,14570,1,0,0:0:0:0:
256,192,14927,1,0,0:0:0:0:
256,192,15165,1,8,0:0:0:0:
256,192,15641,1,8,0:0:0:0:
256,192,16118,1,0,0:0:0:0:
256,192,16356,1,8,0:0:0:0:
256,192,16832,1,0,0:0:0:0:
256,192,17070,1,0,0:0:0:0:
256,192,17427,1,0,0:0:0:0:
256,192,17784,1,8,0:0:0:0:
256,192,18022,1,0,0:0:0:0:
256,192,18499,1,8,0:0:0:0:
256,192,18737,1,0,0:0:0:0:
256,192,18975,1,8,0:0:0:0:
256,192,19927,1,12,0:0:0:0:
256,192,20403,1,8,0:0:0:0:
256,192,20641,1,0,0:0:0:0:
256,192,20879,1,0,0:0:0:0:
256,192,21236,1,0,0:0:0:0:
256,192,21355,1,8,0:0:0:0:
256,192,21831,1,0,0:0:0:0:
256,192,22307,1,8,0:0:0:0:
256,192,22784,1,0,0:0:0:0:
256,192,23141,1,8,0:0:0:0:
256,192,23260,1,8,0:0:0:0:
256,192,23498,1,8,0:0:0:0:
256,192,23736,1,0,0:0:0:0:
256,192,24212,1,8,0:0:0:0:
256,192,24688,1,0,0:0:0:0:
256,192,25046,1,0,0:0:0:0:
256,192,25403,1,8,0:0:0:0:
256,192,25641,1,8,0:0:0:0:
256,192,26355,1,0,0:0:0:0:
256,192,26593,1,0,0:0:0:0:
256,192,27069,1,8,0:0:0:0:
256,192,27188,1,8,0:0:0:0:
256,192,27307,1,0,0:0:0:0:
256,192,27546,1,4,0:0:0:0:
256,192,28022,1,8,0:0:0:0:
256,192,28260,1,0,0:0:0:0:
256,192,28498,1,0,0:0:0:0:
256,192,28855,1,0,0:0:0:0:
256,192,28974,1,8,0:0:0:0:
256,192,29450,1,0,0:0:0:0:
256,192,29807,1,0,0:0:0:0:
256,192,29926,1,8,0:0:0:0:
256,192,30165,1,0,0:0:0:0:
256,192,30403,1,8,0:0:0:0:
256,192,30879,1,8,0:0:0:0:
256,192,31355,1,4,0:0:0:0:
256,192,31712,1,4,0:0:0:0:
256,192,32069,1,12,0:0:0:0:
256,192,32546,1,8,0:0:0:0:
256,192,32784,1,8,0:0:0:0:
256,192,33260,1,4,0:0:0:0:
256,192,33617,1,12,0:0:0:0:
256,192,33974,1,4,0:0:0:0:
256,192,34450,1,8,0:0:0:0:
256,192,34688,1,8,0:0:0:0:
256,192,35165,1,8,0:0:0:0:
256,192,35879,1,0,0:0:0:0:
256,192,36117,1,8,0:0:0:0:
256,192,36474,1,0,0:0:0:0:
256,192,36593,1,8,0:0:0:0:
256,192,36831,1,0,0:0:0:0:
256,192,37069,1,8,0:0:0:0:
256,192,37546,1,8,0:0:0:0:
256,192,37784,1,0,0:0:0:0:
256,192,38022,1,8,0:0:0:0:
256,192,38379,1,0,0:0:0:0:
256,192,38498,1,8,0:0:0:0:
256,192,38974,1,8,0:0:0:0:
256,192,39926,1,8,0:0:0:0:
256,192,40284,1,0,0:0:0:0:
256,192,40403,1,8,0:0:0:0:
256,192,40641,1,0,0:0:0:0:
256,192,40879,1,8,0:0:0:0:
256,192,41355,1,8,0:0:0:0:
256,192,41831,1,8,0:0:0:0:
256,192,42069,1,8,0:0:0:0:
256,192,42188,1,8,0:0:0:0:
256,192,42307,1,8,0:0:0:0:
256,192,42784,1,8,0:0:0:0:
256,192,43260,1,8,0:0:0:0:
256,192,43736,1,8,0:0:0:0:
256,192,44093,1,0,0:0:0:0:
256,192,44450,1,8,0:0:0:0:
256,192,44688,1,8,0:0:0:0:
256,192,45165,1,8,0:0:0:0:
256,192,45641,1,8,0:0:0:0:
256,192,45998,1,8,0:0:0:0:
256,192,46117,1,8,0:0:0:0:
256,192,46355,1,0,0:0:0:0:
256,192,46593,1,12,0:0:0:0:
256,192,47069,1,8,0:0:0:0:
256,192,47307,1,4,0:0:0:0:
256,192,48022,1,0,0:0:0:0:
256,192,48260,1,12,0:0:0:0:
256,192,48736,1,8,0:0:0:0:
256,192,48974,1,0,0:0:0:0:
256,192,49212,1,12,0:0:0:0:
256,192,49926,1,0,0:0:0:0:
256,192,50403,1,12,0:0:0:0:
256,192,50760,1,0,0:0:0:0:
256,192,50879,1,8,0:0:0:0:
256,192,51117,1,0,0:0:0:0:
256,192,51593,1,8,0:0:0:0:
256,192,51831,1,8,0:0:0:0:
256,192,52069,1,0,0:0:0:0:
256,192,52307,1,8,0:0:0:0:
256,192,52784,1,8,0:0:0:0:
256,192,53022,1,0,0:0:0:0:
256,192,53498,1,0,0:0:0:0:
256,192,53736,1,8,0:0:0:0:
256,192,53974,1,0,0:0:0:0:
256,192,54212,1,0,0:0:0:0:
256,192,54688,1,8,0:0:0:0:
256,192,54926,1,0,0:0:0:0:
256,192,55165,1,0,0:0:0:0:
256,192,55641,1,0,0:0:0:0:
256,192,55879,1,8,0:0:0:0:
256,192,56593,1,8,0:0:0:0:
256,192,56831,1,8,0:0:0:0:
256,192,57069,1,0,0:0:0:0:
256,192,57307,1,8,0:0:0:0:
256,192,57546,1,8,0:0:0:0:
256,192,58022,1,8,0:0:0:0:
256,192,58379,1,0,0:0:0:0:
256,192,58498,1,8,0:0:0:0:
256,192,58736,1,0,0:0:0:0:
256,192,59212,1,8,0:0:0:0:
256,192,59450,1,8,0:0:0:0:
256,192,59688,1,0,0:0:0:0:
256,192,59926,1,8,0:0:0:0:
256,192,60403,1,0,0:0:0:0:
256,192,60641,1,12,0:0:0:0:
256,200,61117,1,8,0:0:0:0:
256,192,61355,1,8,0:0:0:0:
256,192,61831,1,0,0:0:0:0:
256,192,62307,1,8,0:0:0:0:
256,192,62784,1,0,0:0:0:0:
256,192,62903,1,0,0:0:0:0:
256,192,63022,1,0,0:0:0:0:
262,191,63260,1,0,0:0:0:0:
256,192,63498,1,12,0:0:0:0:
256,192,63974,1,0,0:0:0:0:
256,192,64212,1,8,0:0:0:0:
256,192,64688,1,4,0:0:0:0:
256,192,64926,1,0,0:0:0:0:
256,192,65165,1,8,0:0:0:0:
256,192,65641,1,12,0:0:0:0:
256,192,65998,1,0,0:0:0:0:
256,192,66117,1,8,0:0:0:0:
256,192,66355,1,0,0:0:0:0:
256,192,66831,1,8,0:0:0:0:
256,192,67069,1,8,0:0:0:0:
256,192,67307,1,0,0:0:0:0:
256,192,67545,1,8,0:0:0:0:
256,192,68022,1,8,0:0:0:0:
256,192,68260,1,0,0:0:0:0:
256,192,68736,1,0,0:0:0:0:
256,192,68974,1,8,0:0:0:0:
256,192,69212,1,0,0:0:0:0:
256,192,69450,1,0,0:0:0:0:
256,192,69926,1,8,0:0:0:0:
256,192,70403,1,0,0:0:0:0:
256,192,70641,1,0,0:0:0:0:
256,192,70879,1,8,0:0:0:0:
256,192,71117,1,8,0:0:0:0:
256,192,71831,1,8,0:0:0:0:
256,192,72069,1,8,0:0:0:0:
256,192,72307,1,0,0:0:0:0:
256,192,72784,1,0,0:0:0:0:
256,192,73260,1,8,0:0:0:0:
256,192,73617,1,0,0:0:0:0:
256,192,73736,1,8,0:0:0:0:
256,192,73974,1,0,0:0:0:0:
256,192,74450,1,8,0:0:0:0:
256,192,74688,1,8,0:0:0:0:
256,192,74926,1,0,0:0:0:0:
256,192,75165,1,8,0:0:0:0:
256,192,75641,1,0,0:0:0:0:
256,192,75879,1,12,0:0:0:0:
256,192,76355,1,8,0:0:0:0:
256,192,76593,1,8,0:0:0:0:
256,192,77069,1,0,0:0:0:0:
256,192,77546,1,8,0:0:0:0:
256,192,78022,1,0,0:0:0:0:
256,192,78141,1,0,0:0:0:0:
256,192,78260,1,0,0:0:0:0:
256,192,78498,1,0,0:0:0:0:
256,192,78736,1,12,0:0:0:0:
256,192,79212,1,0,0:0:0:0:
256,192,79450,1,12,0:0:0:0:
256,192,79926,1,4,0:0:0:0:
256,192,80879,5,0,0:0:0:0:
256,192,81355,1,8,0:0:0:0:
256,192,81712,1,0,0:0:0:0:
256,192,82069,1,0,0:0:0:0:
256,192,82307,1,8,0:0:0:0:
256,192,82784,1,0,0:0:0:0:
256,192,83260,1,8,0:0:0:0:
256,192,83617,1,0,0:0:0:0:
256,192,83974,1,8,0:0:0:0:
256,192,84212,1,8,0:0:0:0:
256,192,84688,1,0,0:0:0:0:
256,192,85165,1,8,0:0:0:0:
256,192,85522,1,0,0:0:0:0:
256,192,85879,1,0,0:0:0:0:
256,192,86117,1,8,0:0:0:0:
256,192,86593,1,0,0:0:0:0:
256,192,87069,1,8,0:0:0:0:
256,192,87426,1,8,0:0:0:0:
256,192,88022,1,12,0:0:0:0:
