osu file format v14

[General]
AudioFilename: audio.mp3
AudioLeadIn: 0
PreviewTime: 50087
Countdown: 0
SampleSet: None
StackLeniency: 0.7
Mode: 3
LetterboxInBreaks: 0
SpecialStyle: 0
WidescreenStoryboard: 1

[Editor]
Bookmarks: 20087,35325,50563
DistanceSpacing: 1.8
BeatDivisor: 4
GridSize: 8
TimelineZoom: 1.599998

[Metadata]
Title:Kimama na Tenshitachi (TV Size)
TitleUnicode:気ままな天使たち (TV Size)
Artist:Wataten*5
ArtistUnicode:わたてん☆5
Creator:Syadow-
Version:Higero NO SV
Source:私に天使が舞い降りた!
Tags:opening Watashi ni Tenshi ga Maiorita! Ly0572 -_Ly0572_- Sashide Maria 指出毬亜 Shirosaki Hana 白咲花 Nagae Rika 長江里加 Hoshino Hinata 星野ひなた Ueda Reina 上田麗奈 Hoshino Miyako Mya-nee 星野みやこ Kito Akari 鬼頭明里 Himesaka Noa 姫坂乃愛 Oozora Naomi 大空直美 Konomori Kanon 小之森夏音 anime japanese ZAI-ON Eternal Truth 伊賀拓郎,WEST GROUND
BeatmapID:2138793
BeatmapSetID:913157

[Difficulty]
HPDrainRate:8
CircleSize:4
OverallDifficulty:8
ApproachRate:5
SliderMultiplier:1.4
SliderTickRate:1

[Events]
//Background and Video events
0,0,"72725286_p0.jpg",0,0
//Break Periods
//Storyboard Layer 0 (Background)
//Storyboard Layer 1 (Fail)
//Storyboard Layer 2 (Pass)
//Storyboard Layer 3 (Foreground)
//Storyboard Layer 4 (Overlay)
//Storyboard Sound Samples

[TimingPoints]
1040,476.190476190476,4,2,1,0,1,0
50563,-100,4,2,1,0,0,1
64849,-100,4,2,1,0,0,0
65801,-100,4,2,1,0,0,1
80563,-133.333333333333,4,2,1,0,0,0
80920,-57.1428571428571,4,2,1,0,0,0
81039,-100,4,2,1,0,0,0

[HitObjects]
448,192,563,5,0,0:0:0:0:
320,192,603,1,0,0:0:0:0:
192,192,643,1,0,0:0:0:0:
64,192,682,1,0,0:0:0:0:
448,192,722,1,0,0:0:0:0:
320,192,801,1,0,0:0:0:0:
192,192,881,1,0,0:0:0:0:
64,192,960,1,0,0:0:0:0:
320,192,1040,1,0,0:0:0:0:
448,192,1040,128,0,1159:0:0:0:0:
448,192,1278,128,0,1397:0:0:0:0:
192,192,1516,1,0,0:0:0:0:
64,192,1516,1,0,0:0:0:0:
448,192,1516,128,0,1635:0:0:0:0:
320,192,1754,128,0,1873:0:0:0:0:
64,192,1873,128,0,1992:0:0:0:0:
192,192,1992,128,0,2051:0:0:0:0:
192,192,2111,128,0,2230:0:0:0:0:
320,192,2230,1,0,0:0:0:0:
192,192,2349,128,0,2468:0:0:0:0:
320,192,2468,1,0,0:0:0:0:
448,192,2468,1,0,0:0:0:0:
64,192,2468,1,0,0:0:0:0:
192,192,2587,128,0,2706:0:0:0:0:
320,192,2706,128,0,2944:0:0:0:0:
192,192,2944,1,0,0:0:0:0:
64,192,2944,1,0,0:0:0:0:
64,192,3182,128,0,3301:0:0:0:0:
192,192,3301,1,0,0:0:0:0:
320,192,3420,1,0,0:0:0:0:
448,192,3420,1,0,0:0:0:0:
64,192,3420,128,0,3539:0:0:0:0:
192,192,3659,128,0,3778:0:0:0:0:
448,192,3778,128,0,3897:0:0:0:0:
320,192,3897,128,0,3956:0:0:0:0:
320,192,4016,128,0,4135:0:0:0:0:
192,192,4135,1,0,0:0:0:0:
320,192,4254,128,0,4373:0:0:0:0:
192,192,4373,1,0,0:0:0:0:
64,192,4373,1,0,0:0:0:0:
448,192,4373,1,0,0:0:0:0:
320,192,4492,128,0,4611:0:0:0:0:
192,192,4611,128,0,4849:0:0:0:0:
320,192,4849,1,0,0:0:0:0:
448,192,4849,128,0,4968:0:0:0:0:
448,192,5087,128,0,5206:0:0:0:0:
64,192,5325,1,0,0:0:0:0:
192,192,5325,1,0,0:0:0:0:
448,192,5325,128,0,5444:0:0:0:0:
320,192,5563,128,0,5682:0:0:0:0:
64,192,5682,128,0,5801:0:0:0:0:
192,192,5801,128,0,5861:0:0:0:0:
192,192,5920,128,0,6039:0:0:0:0:
320,192,6039,1,0,0:0:0:0:
192,192,6159,128,0,6278:0:0:0:0:
320,192,6278,1,0,0:0:0:0:
448,192,6278,1,0,0:0:0:0:
64,192,6278,1,0,0:0:0:0:
192,192,6397,128,0,6516:0:0:0:0:
320,192,6516,128,0,6754:0:0:0:0:
448,192,6516,1,0,0:0:0:0:
192,192,6754,1,0,0:0:0:0:
64,192,6754,1,0,0:0:0:0:
320,192,6992,128,0,7051:0:0:0:0:
192,192,7051,128,0,7230:0:0:0:0:
64,192,7230,1,0,0:0:0:0:
320,192,7230,1,0,0:0:0:0:
448,192,7230,128,0,7468:0:0:0:0:
320,192,7468,128,0,7706:0:0:0:0:
192,192,7706,128,0,7766:0:0:0:0:
192,192,7825,128,0,7944:0:0:0:0:
448,192,7944,1,0,0:0:0:0:
64,192,7944,1,0,0:0:0:0:
320,192,7944,1,0,0:0:0:0:
192,192,8063,1,0,0:0:0:0:
320,192,8182,1,0,0:0:0:0:
448,192,8182,1,0,0:0:0:0:
64,192,8182,1,0,0:0:0:0:
192,192,8301,1,0,0:0:0:0:
64,192,8301,1,0,0:0:0:0:
448,192,8420,1,0,0:0:0:0:
320,192,8539,1,0,0:0:0:0:
192,192,8659,1,0,0:0:0:0:
448,192,8659,1,0,0:0:0:0:
64,192,8659,1,0,0:0:0:0:
320,192,8897,1,0,0:0:0:0:
192,192,8897,1,0,0:0:0:0:
320,192,9135,1,0,0:0:0:0:
64,192,9135,1,0,0:0:0:0:
448,192,9135,1,0,0:0:0:0:
192,192,9373,1,0,0:0:0:0:
448,192,9373,1,0,0:0:0:0:
320,192,9492,1,0,0:0:0:0:
64,192,9611,1,0,0:0:0:0:
192,192,9611,1,0,0:0:0:0:
320,192,9849,1,0,0:0:0:0:
448,192,9849,1,0,0:0:0:0:
448,192,10087,1,0,0:0:0:0:
192,192,10087,1,0,0:0:0:0:
64,192,10087,1,0,0:0:0:0:
320,192,10325,1,0,0:0:0:0:
448,192,10444,1,0,0:0:0:0:
64,192,10563,128,0,10801:0:0:0:0:
192,192,10563,128,0,10801:0:0:0:0:
448,192,10801,1,0,0:0:0:0:
320,192,10920,1,0,0:0:0:0:
448,192,11039,1,0,0:0:0:0:
192,192,11039,1,0,0:0:0:0:
64,192,11039,1,0,0:0:0:0:
192,192,11278,1,0,0:0:0:0:
64,192,11397,1,0,0:0:0:0:
448,192,11516,128,0,11754:0:0:0:0:
320,192,11516,128,0,11754:0:0:0:0:
64,192,11754,1,0,0:0:0:0:
192,192,11873,1,0,0:0:0:0:
64,192,11992,1,0,0:0:0:0:
320,192,11992,1,0,0:0:0:0:
448,192,11992,1,0,0:0:0:0:
192,192,12111,1,0,0:0:0:0:
320,192,12230,1,0,0:0:0:0:
192,192,12349,1,0,0:0:0:0:
448,192,12468,1,0,0:0:0:0:
320,192,12468,1,0,0:0:0:0:
64,192,12468,1,0,0:0:0:0:
320,192,12706,1,0,0:0:0:0:
192,192,12706,1,0,0:0:0:0:
192,192,12944,1,0,0:0:0:0:
448,192,12944,1,0,0:0:0:0:
64,192,12944,1,0,0:0:0:0:
448,192,13182,1,0,0:0:0:0:
320,192,13182,1,0,0:0:0:0:
192,192,13301,1,0,0:0:0:0:
64,192,13420,1,0,0:0:0:0:
320,192,13420,1,0,0:0:0:0:
448,192,13659,1,0,0:0:0:0:
192,192,13659,1,0,0:0:0:0:
448,192,13897,1,0,0:0:0:0:
64,192,13897,1,0,0:0:0:0:
192,192,14016,1,0,0:0:0:0:
320,192,14016,1,0,0:0:0:0:
448,192,14135,1,0,0:0:0:0:
64,192,14135,1,0,0:0:0:0:
320,192,14254,1,0,0:0:0:0:
64,192,14373,128,0,14611:0:0:0:0:
192,192,14373,128,0,14611:0:0:0:0:
448,192,14373,1,0,0:0:0:0:
64,192,14730,1,0,0:0:0:0:
192,192,14730,1,0,0:0:0:0:
448,192,14849,1,0,0:0:0:0:
320,192,14849,1,0,0:0:0:0:
64,192,14968,1,0,0:0:0:0:
320,192,15087,1,0,0:0:0:0:
192,192,15206,1,0,0:0:0:0:
64,192,15325,1,0,0:0:0:0:
448,192,15325,128,0,15563:0:0:0:0:
320,192,15325,128,0,15563:0:0:0:0:
448,192,15682,1,0,0:0:0:0:
320,192,15682,1,0,0:0:0:0:
64,192,15801,1,0,0:0:0:0:
192,192,15801,1,0,0:0:0:0:
320,192,15920,1,0,0:0:0:0:
448,192,16039,1,0,0:0:0:0:
64,192,16039,1,0,0:0:0:0:
192,192,16159,1,0,0:0:0:0:
320,192,16159,1,0,0:0:0:0:
320,192,16278,1,0,0:0:0:0:
448,192,16278,1,0,0:0:0:0:
64,192,16278,1,0,0:0:0:0:
320,192,16516,1,0,0:0:0:0:
192,192,16516,1,0,0:0:0:0:
64,192,16754,1,0,0:0:0:0:
192,192,16754,1,0,0:0:0:0:
320,192,16873,1,0,0:0:0:0:
448,192,16873,1,0,0:0:0:0:
192,192,16992,1,0,0:0:0:0:
64,192,16992,1,0,0:0:0:0:
320,192,17111,1,0,0:0:0:0:
448,192,17111,1,0,0:0:0:0:
192,192,17230,1,0,0:0:0:0:
64,192,17230,128,0,17468:0:0:0:0:
448,192,17349,1,0,0:0:0:0:
320,192,17468,1,0,0:0:0:0:
192,192,17587,128,0,17825:0:0:0:0:
64,192,17706,1,0,0:0:0:0:
320,192,17825,1,0,0:0:0:0:
448,192,17825,1,0,0:0:0:0:
192,192,17944,1,0,0:0:0:0:
64,192,17944,128,0,18182:0:0:0:0:
448,192,18063,1,0,0:0:0:0:
320,192,18182,1,0,0:0:0:0:
192,192,18182,1,0,0:0:0:0:
64,192,18301,1,0,0:0:0:0:
448,192,18420,128,0,18539:0:0:0:0:
320,192,18420,128,0,18539:0:0:0:0:
192,192,18539,1,0,0:0:0:0:
320,192,18659,128,0,18778:0:0:0:0:
448,192,18659,128,0,18778:0:0:0:0:
64,192,18778,1,0,0:0:0:0:
448,192,18897,128,0,19016:0:0:0:0:
320,192,18897,128,0,19016:0:0:0:0:
192,192,19016,1,0,0:0:0:0:
320,192,19135,128,0,19730:0:0:0:0:
448,192,19135,128,0,19849:0:0:0:0:
64,192,19135,128,0,19611:0:0:0:0:
448,192,20087,1,0,0:0:0:0:
320,192,20087,1,0,0:0:0:0:
64,192,20087,128,0,21516:0:0:0:0:
192,192,20325,1,0,0:0:0:0:
320,192,20563,1,0,0:0:0:0:
448,192,20563,1,0,0:0:0:0:
192,192,20801,1,0,0:0:0:0:
448,192,20920,1,0,0:0:0:0:
320,192,21039,1,0,0:0:0:0:
192,192,21159,1,0,0:0:0:0:
448,192,21278,1,0,0:0:0:0:
320,192,21397,1,0,0:0:0:0:
192,192,21516,1,0,0:0:0:0:
448,192,21516,1,0,0:0:0:0:
320,192,21635,1,0,0:0:0:0:
64,192,21754,1,0,0:0:0:0:
192,192,21754,1,0,0:0:0:0:
448,192,21992,128,0,23420:0:0:0:0:
64,192,21992,1,0,0:0:0:0:
320,192,21992,1,0,0:0:0:0:
192,192,22111,1,0,0:0:0:0:
320,192,22230,1,0,0:0:0:0:
192,192,22468,1,0,0:0:0:0:
64,192,22468,1,0,0:0:0:0:
320,192,22706,1,0,0:0:0:0:
64,192,22825,1,0,0:0:0:0:
192,192,22944,1,0,0:0:0:0:
320,192,23063,1,0,0:0:0:0:
64,192,23182,1,0,0:0:0:0:
320,192,23301,1,0,0:0:0:0:
64,192,23420,1,0,0:0:0:0:
192,192,23420,1,0,0:0:0:0:
448,192,23659,1,0,0:0:0:0:
192,192,23659,1,0,0:0:0:0:
64,192,23897,128,0,25325:0:0:0:0:
448,192,23897,1,0,0:0:0:0:
192,192,24135,1,0,0:0:0:0:
448,192,24373,1,0,0:0:0:0:
320,192,24373,1,0,0:0:0:0:
192,192,24611,1,0,0:0:0:0:
448,192,24730,1,0,0:0:0:0:
320,192,24849,1,0,0:0:0:0:
192,192,24968,1,0,0:0:0:0:
448,192,25087,1,0,0:0:0:0:
192,192,25206,1,0,0:0:0:0:
448,192,25325,1,0,0:0:0:0:
320,192,25325,1,0,0:0:0:0:
64,192,25563,1,0,0:0:0:0:
320,192,25801,1,0,0:0:0:0:
448,192,25801,128,0,26754:0:0:0:0:
64,192,26039,128,0,26278:0:0:0:0:
320,192,26278,128,0,26516:0:0:0:0:
192,192,26278,1,0,0:0:0:0:
192,192,26516,128,0,26635:0:0:0:0:
320,192,26754,1,0,0:0:0:0:
64,192,26754,1,0,0:0:0:0:
64,192,26873,1,0,0:0:0:0:
320,192,26992,1,0,0:0:0:0:
448,192,26992,1,0,0:0:0:0:
192,192,27111,1,0,0:0:0:0:
320,192,27230,1,0,0:0:0:0:
448,192,27230,1,0,0:0:0:0:
320,192,27349,1,0,0:0:0:0:
448,192,27349,1,0,0:0:0:0:
192,192,27468,128,0,27587:0:0:0:0:
64,192,27468,128,0,27587:0:0:0:0:
320,192,27587,1,0,0:0:0:0:
192,192,27706,1,0,0:0:0:0:
448,192,27706,1,0,0:0:0:0:
64,192,27706,1,0,0:0:0:0:
320,192,27944,1,0,0:0:0:0:
192,192,28063,1,0,0:0:0:0:
64,192,28063,1,0,0:0:0:0:
320,192,28182,1,0,0:0:0:0:
448,192,28182,1,0,0:0:0:0:
64,192,28420,1,0,0:0:0:0:
448,192,28420,1,0,0:0:0:0:
320,192,28539,1,0,0:0:0:0:
192,192,28659,1,0,0:0:0:0:
64,192,28659,1,0,0:0:0:0:
448,192,28778,1,0,0:0:0:0:
320,192,28897,1,0,0:0:0:0:
192,192,28897,1,0,0:0:0:0:
64,192,29016,1,0,0:0:0:0:
448,192,29135,1,0,0:0:0:0:
320,192,29135,1,0,0:0:0:0:
64,192,29254,1,0,0:0:0:0:
192,192,29254,1,0,0:0:0:0:
448,192,29373,128,0,29611:0:0:0:0:
320,192,29492,128,0,29611:0:0:0:0:
192,192,29611,1,0,0:0:0:0:
64,192,29611,1,0,0:0:0:0:
320,192,29849,1,0,0:0:0:0:
448,192,29968,1,0,0:0:0:0:
64,192,29968,1,0,0:0:0:0:
192,192,30087,1,0,0:0:0:0:
320,192,30087,1,0,0:0:0:0:
320,192,30325,1,0,0:0:0:0:
448,192,30325,1,0,0:0:0:0:
192,192,30444,1,0,0:0:0:0:
448,192,30563,1,0,0:0:0:0:
64,192,30563,1,0,0:0:0:0:
192,192,30682,1,0,0:0:0:0:
320,192,30682,1,0,0:0:0:0:
448,192,30801,1,0,0:0:0:0:
64,192,30801,1,0,0:0:0:0:
320,192,30920,1,0,0:0:0:0:
64,192,31039,1,0,0:0:0:0:
192,192,31039,1,0,0:0:0:0:
320,192,31159,1,0,0:0:0:0:
448,192,31159,1,0,0:0:0:0:
192,192,31278,128,0,31516:0:0:0:0:
64,192,31278,1,0,0:0:0:0:
448,192,31516,1,0,0:0:0:0:
64,192,31516,1,0,0:0:0:0:
320,192,31516,1,0,0:0:0:0:
64,192,31873,1,0,0:0:0:0:
320,192,31873,1,0,0:0:0:0:
448,192,31873,1,0,0:0:0:0:
64,192,32230,1,0,0:0:0:0:
320,192,32230,1,0,0:0:0:0:
448,192,32230,1,0,0:0:0:0:
192,192,32706,1,0,0:0:0:0:
64,192,32706,1,0,0:0:0:0:
448,192,32706,1,0,0:0:0:0:
448,192,32944,1,0,0:0:0:0:
64,192,32944,1,0,0:0:0:0:
320,192,33063,1,0,0:0:0:0:
192,192,33063,1,0,0:0:0:0:
448,192,33182,128,0,33301:0:0:0:0:
64,192,33182,128,0,33301:0:0:0:0:
192,192,33420,1,0,0:0:0:0:
64,192,33420,1,0,0:0:0:0:
320,192,33420,1,0,0:0:0:0:
320,192,33778,1,0,0:0:0:0:
192,192,33778,1,0,0:0:0:0:
64,192,33778,1,0,0:0:0:0:
320,192,34135,1,0,0:0:0:0:
192,192,34135,1,0,0:0:0:0:
64,192,34135,1,0,0:0:0:0:
448,192,34373,1,0,0:0:0:0:
320,192,34373,1,0,0:0:0:0:
192,192,34492,1,0,0:0:0:0:
64,192,34492,1,0,0:0:0:0:
448,192,34611,1,0,0:0:0:0:
320,192,34611,1,0,0:0:0:0:
192,192,34730,1,0,0:0:0:0:
64,192,34730,1,0,0:0:0:0:
448,192,34849,128,0,35087:0:0:0:0:
320,192,34849,128,0,35087:0:0:0:0:
192,192,35087,1,0,0:0:0:0:
64,192,35087,1,0,0:0:0:0:
64,192,35206,1,0,0:0:0:0:
192,192,35206,1,0,0:0:0:0:
64,192,35325,1,0,0:0:0:0:
448,192,35325,1,0,0:0:0:0:
320,192,35325,1,0,0:0:0:0:
320,192,35563,1,0,0:0:0:0:
192,192,35801,1,0,0:0:0:0:
64,192,35801,1,0,0:0:0:0:
448,192,35801,1,0,0:0:0:0:
320,192,36039,1,0,0:0:0:0:
192,192,36039,1,0,0:0:0:0:
64,192,36278,1,0,0:0:0:0:
448,192,36278,1,0,0:0:0:0:
192,192,36397,1,0,0:0:0:0:
320,192,36397,1,0,0:0:0:0:
448,192,36516,1,0,0:0:0:0:
64,192,36635,1,0,0:0:0:0:
192,192,36635,1,0,0:0:0:0:
448,192,36754,128,0,36992:0:0:0:0:
320,192,36754,1,0,0:0:0:0:
192,192,36992,128,0,37230:0:0:0:0:
64,192,37230,1,0,0:0:0:0:
448,192,37230,1,0,0:0:0:0:
320,192,37230,1,0,0:0:0:0:
320,192,37468,1,0,0:0:0:0:
192,192,37468,1,0,0:0:0:0:
192,192,37706,1,0,0:0:0:0:
448,192,37706,1,0,0:0:0:0:
64,192,37706,1,0,0:0:0:0:
448,192,37944,1,0,0:0:0:0:
320,192,37944,1,0,0:0:0:0:
192,192,38182,1,0,0:0:0:0:
64,192,38182,1,0,0:0:0:0:
320,192,38301,1,0,0:0:0:0:
448,192,38301,1,0,0:0:0:0:
192,192,38420,1,0,0:0:0:0:
320,192,38539,1,0,0:0:0:0:
448,192,38539,1,0,0:0:0:0:
64,192,38659,128,0,38897:0:0:0:0:
192,192,38659,1,0,0:0:0:0:
320,192,38897,128,0,39135:0:0:0:0:
448,192,38897,1,0,0:0:0:0:
64,192,39135,1,0,0:0:0:0:
192,192,39135,1,0,0:0:0:0:
448,192,39135,128,0,39849:0:0:0:0:
320,192,39373,1,0,0:0:0:0:
192,192,39373,1,0,0:0:0:0:
320,192,39611,1,0,0:0:0:0:
64,192,39611,1,0,0:0:0:0:
192,192,39849,1,0,0:0:0:0:
320,192,39968,1,0,0:0:0:0:
448,192,39968,1,0,0:0:0:0:
192,192,40087,1,0,0:0:0:0:
64,192,40087,1,0,0:0:0:0:
320,192,40206,1,0,0:0:0:0:
448,192,40206,1,0,0:0:0:0:
64,192,40325,1,0,0:0:0:0:
320,192,40444,1,0,0:0:0:0:
192,192,40444,1,0,0:0:0:0:
448,192,40563,128,0,40801:0:0:0:0:
64,192,40563,1,0,0:0:0:0:
64,192,40801,128,0,41039:0:0:0:0:
320,192,40801,1,0,0:0:0:0:
192,192,41039,1,0,0:0:0:0:
320,192,41039,1,0,0:0:0:0:
448,192,41039,1,0,0:0:0:0:
448,192,41278,1,0,0:0:0:0:
64,192,41278,1,0,0:0:0:0:
192,192,41516,1,0,0:0:0:0:
320,192,41516,1,0,0:0:0:0:
64,192,41516,1,0,0:0:0:0:
448,192,41754,1,0,0:0:0:0:
192,192,41754,1,0,0:0:0:0:
320,192,41873,1,0,0:0:0:0:
192,192,41992,1,0,0:0:0:0:
64,192,41992,1,0,0:0:0:0:
448,192,41992,1,0,0:0:0:0:
320,192,42230,1,0,0:0:0:0:
64,192,42230,1,0,0:0:0:0:
192,192,42349,1,0,0:0:0:0:
320,192,42468,1,0,0:0:0:0:
448,192,42468,1,0,0:0:0:0:
192,192,42587,1,0,0:0:0:0:
64,192,42587,1,0,0:0:0:0:
320,192,42706,128,0,42944:0:0:0:0:
448,192,42706,128,0,42944:0:0:0:0:
192,192,42944,1,0,0:0:0:0:
64,192,42944,1,0,0:0:0:0:
448,192,43182,1,0,0:0:0:0:
320,192,43182,1,0,0:0:0:0:
448,192,43420,1,0,0:0:0:0:
320,192,43420,1,0,0:0:0:0:
448,192,43659,1,0,0:0:0:0:
320,192,43659,1,0,0:0:0:0:
192,192,43897,1,0,0:0:0:0:
64,192,43897,1,0,0:0:0:0:
448,192,43897,1,0,0:0:0:0:
192,192,44135,1,0,0:0:0:0:
448,192,44135,1,0,0:0:0:0:
64,192,44135,1,0,0:0:0:0:
192,192,44373,1,0,0:0:0:0:
64,192,44373,1,0,0:0:0:0:
448,192,44373,1,0,0:0:0:0:
192,192,44611,1,0,0:0:0:0:
448,192,44611,1,0,0:0:0:0:
64,192,44611,1,0,0:0:0:0:
320,192,44849,1,0,0:0:0:0:
448,192,44849,1,0,0:0:0:0:
64,192,44849,1,0,0:0:0:0:
320,192,45087,1,0,0:0:0:0:
64,192,45087,1,0,0:0:0:0:
448,192,45087,1,0,0:0:0:0:
320,192,45325,1,0,0:0:0:0:
448,192,45325,1,0,0:0:0:0:
64,192,45325,1,0,0:0:0:0:
320,192,45563,1,0,0:0:0:0:
448,192,45563,1,0,0:0:0:0:
64,192,45563,1,0,0:0:0:0:
320,192,45801,1,0,0:0:0:0:
192,192,45801,1,0,0:0:0:0:
64,192,45801,1,0,0:0:0:0:
320,192,46039,1,0,0:0:0:0:
192,192,46039,1,0,0:0:0:0:
64,192,46039,1,0,0:0:0:0:
64,192,46278,1,0,0:0:0:0:
192,192,46278,1,0,0:0:0:0:
320,192,46397,1,0,0:0:0:0:
448,192,46397,1,0,0:0:0:0:
64,192,46516,128,0,46635:0:0:0:0:
192,192,46516,128,0,46635:0:0:0:0:
320,192,46635,1,0,0:0:0:0:
448,192,46754,1,0,0:0:0:0:
192,192,46754,1,0,0:0:0:0:
64,192,46754,1,0,0:0:0:0:
320,192,46992,1,0,0:0:0:0:
448,192,46992,1,0,0:0:0:0:
192,192,47111,1,0,0:0:0:0:
64,192,47111,1,0,0:0:0:0:
320,192,47230,1,0,0:0:0:0:
448,192,47230,1,0,0:0:0:0:
192,192,47349,1,0,0:0:0:0:
448,192,47468,1,0,0:0:0:0:
64,192,47468,1,0,0:0:0:0:
320,192,47468,1,0,0:0:0:0:
64,192,47944,1,0,0:0:0:0:
448,192,47944,1,0,0:0:0:0:
320,192,48063,1,0,0:0:0:0:
192,192,48182,1,0,0:0:0:0:
64,192,48182,1,0,0:0:0:0:
320,192,48301,1,0,0:0:0:0:
64,192,48420,1,0,0:0:0:0:
192,192,48420,1,0,0:0:0:0:
448,192,48420,1,0,0:0:0:0:
320,192,48897,1,0,0:0:0:0:
448,192,48897,1,0,0:0:0:0:
192,192,49135,1,0,0:0:0:0:
64,192,49135,1,0,0:0:0:0:
448,192,49373,1,0,0:0:0:0:
320,192,49373,1,0,0:0:0:0:
192,192,49373,1,0,0:0:0:0:
64,192,49373,1,0,0:0:0:0:
320,192,50087,128,0,50563:0:0:0:0:
192,192,50563,1,0,0:0:0:0:
448,192,50563,1,0,0:0:0:0:
64,192,50563,128,0,50801:0:0:0:0:
320,192,50801,1,0,0:0:0:0:
64,192,51039,1,0,0:0:0:0:
448,192,51039,1,0,0:0:0:0:
192,192,51039,128,0,51278:0:0:0:0:
448,192,51278,128,0,51516:0:0:0:0:
320,192,51397,1,0,0:0:0:0:
64,192,51516,1,0,0:0:0:0:
192,192,51516,1,0,0:0:0:0:
320,192,51635,1,0,0:0:0:0:
448,192,51635,1,0,0:0:0:0:
64,192,51754,128,0,51992:0:0:0:0:
192,192,51873,1,0,0:0:0:0:
320,192,51992,1,0,0:0:0:0:
448,192,51992,1,0,0:0:0:0:
192,192,52230,128,0,52468:0:0:0:0:
320,192,52349,1,0,0:0:0:0:
448,192,52468,1,0,0:0:0:0:
64,192,52468,1,0,0:0:0:0:
448,192,52706,128,0,52944:0:0:0:0:
64,192,52944,1,0,0:0:0:0:
192,192,52944,1,0,0:0:0:0:
320,192,52944,128,0,53182:0:0:0:0:
64,192,53182,128,0,53420:0:0:0:0:
192,192,53301,1,0,0:0:0:0:
448,192,53420,1,0,0:0:0:0:
320,192,53420,1,0,0:0:0:0:
192,192,53539,1,0,0:0:0:0:
64,192,53539,1,0,0:0:0:0:
320,192,53659,128,0,53897:0:0:0:0:
448,192,53659,1,0,0:0:0:0:
64,192,53897,1,0,0:0:0:0:
448,192,53897,1,0,0:0:0:0:
192,192,53897,128,0,54135:0:0:0:0:
320,192,54135,128,0,54254:0:0:0:0:
192,192,54254,1,0,0:0:0:0:
64,192,54373,1,0,0:0:0:0:
448,192,54373,1,0,0:0:0:0:
64,192,54611,128,0,54730:0:0:0:0:
320,192,54849,1,0,0:0:0:0:
448,192,54849,1,0,0:0:0:0:
192,192,54849,128,0,54968:0:0:0:0:
448,192,55087,128,0,55325:0:0:0:0:
320,192,55206,1,0,0:0:0:0:
64,192,55325,1,0,0:0:0:0:
192,192,55325,1,0,0:0:0:0:
448,192,55444,1,0,0:0:0:0:
320,192,55444,1,0,0:0:0:0:
64,192,55563,128,0,55682:0:0:0:0:
192,192,55682,1,0,0:0:0:0:
320,192,55801,1,0,0:0:0:0:
448,192,55801,1,0,0:0:0:0:
64,192,55801,1,0,0:0:0:0:
192,192,56039,128,0,56516:0:0:0:0:
320,192,56159,1,0,0:0:0:0:
448,192,56278,1,0,0:0:0:0:
64,192,56278,1,0,0:0:0:0:
448,192,56516,128,0,56754:0:0:0:0:
64,192,56754,1,0,0:0:0:0:
192,192,56754,1,0,0:0:0:0:
320,192,56754,128,0,56873:0:0:0:0:
64,192,56992,128,0,57111:0:0:0:0:
192,192,57111,1,0,0:0:0:0:
320,192,57230,1,0,0:0:0:0:
448,192,57230,128,0,57349:0:0:0:0:
64,192,57349,1,0,0:0:0:0:
192,192,57349,1,0,0:0:0:0:
448,192,57468,1,0,0:0:0:0:
320,192,57468,1,0,0:0:0:0:
64,192,57587,1,0,0:0:0:0:
192,192,57706,1,0,0:0:0:0:
448,192,57706,128,0,57944:0:0:0:0:
320,192,57825,1,0,0:0:0:0:
192,192,57944,1,0,0:0:0:0:
64,192,57944,1,0,0:0:0:0:
192,192,58063,1,0,0:0:0:0:
64,192,58063,1,0,0:0:0:0:
320,192,58182,1,0,0:0:0:0:
448,192,58182,1,0,0:0:0:0:
64,192,58182,128,0,58420:0:0:0:0:
320,192,58420,1,0,0:0:0:0:
64,192,58659,1,0,0:0:0:0:
192,192,58659,1,0,0:0:0:0:
448,192,58659,128,0,58778:0:0:0:0:
448,192,58897,128,0,59135:0:0:0:0:
320,192,59016,1,0,0:0:0:0:
64,192,59135,1,0,0:0:0:0:
192,192,59135,1,0,0:0:0:0:
320,192,59254,1,0,0:0:0:0:
448,192,59254,1,0,0:0:0:0:
64,192,59373,128,0,59611:0:0:0:0:
320,192,59492,1,0,0:0:0:0:
448,192,59611,1,0,0:0:0:0:
192,192,59611,1,0,0:0:0:0:
320,192,59849,128,0,60087:0:0:0:0:
192,192,59968,1,0,0:0:0:0:
64,192,60087,1,0,0:0:0:0:
448,192,60087,1,0,0:0:0:0:
320,192,60325,128,0,60444:0:0:0:0:
192,192,60444,1,0,0:0:0:0:
448,192,60563,1,0,0:0:0:0:
64,192,60563,1,0,0:0:0:0:
320,192,60563,128,0,60682:0:0:0:0:
448,192,60801,1,0,0:0:0:0:
192,192,60801,128,0,61039:0:0:0:0:
64,192,60801,128,0,61039:0:0:0:0:
320,192,61039,1,0,0:0:0:0:
192,192,61278,1,0,0:0:0:0:
64,192,61278,1,0,0:0:0:0:
448,192,61278,1,0,0:0:0:0:
320,192,61397,1,0,0:0:0:0:
192,192,61516,1,0,0:0:0:0:
64,192,61516,1,0,0:0:0:0:
448,192,61516,1,0,0:0:0:0:
64,192,61754,1,0,0:0:0:0:
320,192,61754,1,0,0:0:0:0:
448,192,61992,1,0,0:0:0:0:
64,192,61992,1,0,0:0:0:0:
192,192,61992,1,0,0:0:0:0:
320,192,62230,128,0,62349:0:0:0:0:
192,192,62349,1,0,0:0:0:0:
64,192,62468,1,0,0:0:0:0:
320,192,62468,1,0,0:0:0:0:
448,192,62468,128,0,62587:0:0:0:0:
64,192,62706,128,0,62944:0:0:0:0:
192,192,62825,1,0,0:0:0:0:
448,192,62944,1,0,0:0:0:0:
320,192,62944,1,0,0:0:0:0:
192,192,63063,1,0,0:0:0:0:
448,192,63182,128,0,63301:0:0:0:0:
320,192,63301,1,0,0:0:0:0:
192,192,63420,1,0,0:0:0:0:
64,192,63420,1,0,0:0:0:0:
448,192,63420,1,0,0:0:0:0:
64,192,63659,1,0,0:0:0:0:
320,192,63659,128,0,64135:0:0:0:0:
448,192,63659,128,0,64135:0:0:0:0:
192,192,64135,1,0,0:0:0:0:
64,192,64135,1,0,0:0:0:0:
64,192,64373,1,0,0:0:0:0:
320,192,64373,1,0,0:0:0:0:
448,192,64492,1,0,0:0:0:0:
192,192,64492,1,0,0:0:0:0:
320,192,64611,1,0,0:0:0:0:
192,192,64730,1,0,0:0:0:0:
448,192,64849,1,0,0:0:0:0:
64,192,64849,1,0,0:0:0:0:
64,192,65087,1,0,0:0:0:0:
320,192,65087,1,0,0:0:0:0:
448,192,65087,1,0,0:0:0:0:
192,192,65206,1,0,0:0:0:0:
320,192,65325,1,0,0:0:0:0:
448,192,65325,1,0,0:0:0:0:
192,192,65444,1,0,0:0:0:0:
64,192,65444,1,0,0:0:0:0:
320,192,65563,1,0,0:0:0:0:
448,192,65563,1,0,0:0:0:0:
192,192,65682,1,0,0:0:0:0:
448,192,65801,1,0,0:0:0:0:
320,192,65801,1,0,0:0:0:0:
64,192,65801,128,0,66039:0:0:0:0:
320,192,66039,1,0,0:0:0:0:
448,192,66278,1,0,0:0:0:0:
64,192,66278,1,0,0:0:0:0:
192,192,66278,128,0,66516:0:0:0:0:
448,192,66516,128,0,66754:0:0:0:0:
320,192,66635,1,0,0:0:0:0:
192,192,66754,1,0,0:0:0:0:
64,192,66754,1,0,0:0:0:0:
448,192,66873,1,0,0:0:0:0:
320,192,66992,128,0,67230:0:0:0:0:
192,192,67111,1,0,0:0:0:0:
448,192,67230,1,0,0:0:0:0:
64,192,67230,1,0,0:0:0:0:
64,192,67468,128,0,67706:0:0:0:0:
192,192,67587,1,0,0:0:0:0:
448,192,67706,1,0,0:0:0:0:
320,192,67706,1,0,0:0:0:0:
320,192,67944,128,0,68182:0:0:0:0:
192,192,68063,1,0,0:0:0:0:
64,192,68182,1,0,0:0:0:0:
448,192,68182,128,0,68420:0:0:0:0:
192,192,68420,1,0,0:0:0:0:
64,192,68420,128,0,68659:0:0:0:0:
320,192,68539,1,0,0:0:0:0:
448,192,68659,1,0,0:0:0:0:
192,192,68659,1,0,0:0:0:0:
320,192,68778,1,0,0:0:0:0:
64,192,68778,1,0,0:0:0:0:
448,192,68897,1,0,0:0:0:0:
192,192,68897,128,0,69135:0:0:0:0:
448,192,69135,1,0,0:0:0:0:
64,192,69135,1,0,0:0:0:0:
320,192,69135,128,0,69373:0:0:0:0:
64,192,69373,128,0,69611:0:0:0:0:
192,192,69373,1,0,0:0:0:0:
448,192,69611,1,0,0:0:0:0:
192,192,69611,1,0,0:0:0:0:
448,192,69849,128,0,69968:0:0:0:0:
192,192,70087,1,0,0:0:0:0:
64,192,70087,1,0,0:0:0:0:
320,192,70087,128,0,70206:0:0:0:0:
64,192,70325,128,0,70563:0:0:0:0:
192,192,70444,1,0,0:0:0:0:
448,192,70563,1,0,0:0:0:0:
320,192,70563,1,0,0:0:0:0:
64,192,70682,1,0,0:0:0:0:
320,192,70801,128,0,70920:0:0:0:0:
192,192,70920,1,0,0:0:0:0:
320,192,71039,1,0,0:0:0:0:
448,192,71039,1,0,0:0:0:0:
64,192,71039,1,0,0:0:0:0:
192,192,71278,128,0,71754:0:0:0:0:
320,192,71397,1,0,0:0:0:0:
448,192,71516,1,0,0:0:0:0:
64,192,71516,1,0,0:0:0:0:
320,192,71754,128,0,71992:0:0:0:0:
64,192,71992,1,0,0:0:0:0:
448,192,71992,128,0,72111:0:0:0:0:
192,192,71992,1,0,0:0:0:0:
64,192,72230,128,0,72349:0:0:0:0:
320,192,72349,1,0,0:0:0:0:
448,192,72349,1,0,0:0:0:0:
64,192,72468,1,0,0:0:0:0:
192,192,72468,128,0,72587:0:0:0:0:
320,192,72706,1,0,0:0:0:0:
448,192,72706,1,0,0:0:0:0:
64,192,72706,1,0,0:0:0:0:
64,192,72944,1,0,0:0:0:0:
192,192,72944,1,0,0:0:0:0:
320,192,73063,1,0,0:0:0:0:
448,192,73063,1,0,0:0:0:0:
192,192,73182,1,0,0:0:0:0:
64,192,73182,1,0,0:0:0:0:
320,192,73301,1,0,0:0:0:0:
448,192,73301,1,0,0:0:0:0:
64,192,73420,1,0,0:0:0:0:
192,192,73420,1,0,0:0:0:0:
448,192,73420,128,0,73659:0:0:0:0:
192,192,73659,1,0,0:0:0:0:
320,192,73897,1,0,0:0:0:0:
448,192,73897,1,0,0:0:0:0:
64,192,73897,128,0,74016:0:0:0:0:
64,192,74135,128,0,74373:0:0:0:0:
192,192,74254,1,0,0:0:0:0:
448,192,74373,1,0,0:0:0:0:
320,192,74373,1,0,0:0:0:0:
192,192,74492,1,0,0:0:0:0:
448,192,74611,128,0,74849:0:0:0:0:
320,192,74730,1,0,0:0:0:0:
64,192,74849,1,0,0:0:0:0:
192,192,74849,1,0,0:0:0:0:
64,192,75087,128,0,75325:0:0:0:0:
192,192,75206,1,0,0:0:0:0:
448,192,75325,1,0,0:0:0:0:
320,192,75325,1,0,0:0:0:0:
320,192,75563,128,0,75682:0:0:0:0:
448,192,75801,1,0,0:0:0:0:
64,192,75801,1,0,0:0:0:0:
192,192,75801,128,0,75920:0:0:0:0:
320,192,76039,128,0,76278:0:0:0:0:
448,192,76039,128,0,76278:0:0:0:0:
64,192,76039,1,0,0:0:0:0:
192,192,76278,1,0,0:0:0:0:
448,192,76516,1,0,0:0:0:0:
320,192,76516,1,0,0:0:0:0:
64,192,76516,1,0,0:0:0:0:
192,192,76635,1,0,0:0:0:0:
448,192,76754,1,0,0:0:0:0:
64,192,76754,1,0,0:0:0:0:
320,192,76754,1,0,0:0:0:0:
448,192,76992,1,0,0:0:0:0:
192,192,76992,1,0,0:0:0:0:
64,192,77230,1,0,0:0:0:0:
448,192,77230,1,0,0:0:0:0:
320,192,77230,1,0,0:0:0:0:
192,192,77468,128,0,77706:0:0:0:0:
448,192,77706,1,0,0:0:0:0:
64,192,77706,1,0,0:0:0:0:
320,192,77706,128,0,77944:0:0:0:0:
448,192,77944,1,0,0:0:0:0:
64,192,78063,1,0,0:0:0:0:
192,192,78123,1,0,0:0:0:0:
320,192,78182,1,0,0:0:0:0:
448,192,78182,1,0,0:0:0:0:
64,192,78301,1,0,0:0:0:0:
320,192,78420,1,0,0:0:0:0:
192,192,78420,1,0,0:0:0:0:
448,192,78539,1,0,0:0:0:0:
320,192,78599,1,0,0:0:0:0:
64,192,78659,1,0,0:0:0:0:
192,192,78659,1,0,0:0:0:0:
448,192,78897,1,0,0:0:0:0:
192,192,78897,128,0,79373:0:0:0:0:
64,192,78897,128,0,79373:0:0:0:0:
448,192,79254,1,0,0:0:0:0:
320,192,79373,1,0,0:0:0:0:
448,192,79373,1,0,0:0:0:0:
448,192,79611,1,0,0:0:0:0:
64,192,79611,1,0,0:0:0:0:
192,192,79611,1,0,0:0:0:0:
320,192,79730,1,0,0:0:0:0:
64,192,79730,1,0,0:0:0:0:
192,192,79849,1,0,0:0:0:0:
320,192,79968,1,0,0:0:0:0:
448,192,79968,1,0,0:0:0:0:
192,192,80087,1,0,0:0:0:0:
64,192,80087,1,0,0:0:0:0:
448,192,80087,1,0,0:0:0:0:
448,192,80325,1,0,0:0:0:0:
64,192,80325,1,0,0:0:0:0:
320,192,80444,1,0,0:0:0:0:
192,192,80444,1,0,0:0:0:0:
64,192,80563,1,0,0:0:0:0:
448,192,80563,1,0,0:0:0:0:
192,192,80563,1,0,0:0:0:0:
448,192,81039,1,0,0:0:0:0:
64,192,81039,1,0,0:0:0:0:
320,192,81039,1,0,0:0:0:0:
192,192,81278,1,0,0:0:0:0:
320,192,81278,1,0,0:0:0:0:
64,192,81516,1,0,0:0:0:0:
192,192,81516,1,0,0:0:0:0:
448,192,81516,1,0,0:0:0:0:
64,192,81754,1,0,0:0:0:0:
320,192,81754,1,0,0:0:0:0:
192,192,81873,1,0,0:0:0:0:
448,192,81873,1,0,0:0:0:0:
320,192,82230,128,0,82349:0:0:0:0:
448,192,82230,128,0,82349:0:0:0:0:
320,192,82468,128,0,82825:0:0:0:0:
448,192,82468,128,0,82825:0:0:0:0:
64,192,82944,1,0,0:0:0:0:
320,192,82944,1,0,0:0:0:0:
448,192,82944,1,0,0:0:0:0:
192,192,83182,1,0,0:0:0:0:
64,192,83182,1,0,0:0:0:0:
448,192,83182,1,0,0:0:0:0:
192,192,83420,1,0,0:0:0:0:
320,192,83420,1,0,0:0:0:0:
64,192,83420,1,0,0:0:0:0:
448,192,83778,1,0,0:0:0:0:
320,192,83778,1,0,0:0:0:0:
192,192,83778,1,0,0:0:0:0:
448,192,84016,1,0,0:0:0:0:
320,192,84016,1,0,0:0:0:0:
64,192,84135,128,0,84254:0:0:0:0:
192,192,84135,128,0,84254:0:0:0:0:
448,192,84254,1,0,0:0:0:0:
320,192,84254,1,0,0:0:0:0:
192,192,84373,128,0,84730:0:0:0:0:
64,192,84373,128,0,84730:0:0:0:0:
448,192,84611,1,0,0:0:0:0:
320,192,84611,1,0,0:0:0:0:
448,192,84730,1,0,0:0:0:0:
320,192,84730,1,0,0:0:0:0:
192,192,84849,1,0,0:0:0:0:
64,192,84849,1,0,0:0:0:0:
448,192,84849,1,0,0:0:0:0:
192,192,85087,1,0,0:0:0:0:
320,192,85087,1,0,0:0:0:0:
64,192,85325,1,0,0:0:0:0:
320,192,85325,1,0,0:0:0:0:
448,192,85325,1,0,0:0:0:0:
192,192,85563,1,0,0:0:0:0:
448,192,85563,1,0,0:0:0:0:
64,192,85682,1,0,0:0:0:0:
320,192,85682,1,0,0:0:0:0:
192,192,85920,1,0,0:0:0:0:
64,192,85920,1,0,0:0:0:0:
320,192,86039,128,0,86159:0:0:0:0:
448,192,86039,128,0,86159:0:0:0:0:
192,192,86159,1,0,0:0:0:0:
64,192,86159,1,0,0:0:0:0:
320,192,86278,128,0,86635:0:0:0:0:
448,192,86278,128,0,86635:0:0:0:0:
64,192,86754,128,0,86873:0:0:0:0:
192,192,86754,128,0,86873:0:0:0:0:
448,192,86992,128,0,87111:0:0:0:0:
320,192,86992,128,0,87111:0:0:0:0:
192,192,87230,128,0,87349:0:0:0:0:
64,192,87230,128,0,87349:0:0:0:0:
320,192,87468,128,0,87587:0:0:0:0:
448,192,87468,128,0,87587:0:0:0:0:
192,192,87587,128,0,88063:0:0:0:0:
64,192,87587,128,0,88063:0:0:0:0:
448,192,88182,128,0,88659:0:0:0:0:
320,192,88182,128,0,88659:0:0:0:0:
64,192,88182,128,0,88659:0:0:0:0:
