osu file format v14

[General]
AudioFilename: audio.mp3
AudioLeadIn: 0
PreviewTime: 50087
Countdown: 0
SampleSet: Soft
StackLeniency: 0.7
Mode: 3
LetterboxInBreaks: 0
SpecialStyle: 0
WidescreenStoryboard: 0

[Editor]
Bookmarks: 20087,35325,50563
DistanceSpacing: 1.8
BeatDivisor: 4
GridSize: 8
TimelineZoom: 1.8

[Metadata]
Title:Kimama na Tenshitachi (TV Size)
TitleUnicode:気ままな天使たち (TV Size)
Artist:Wataten*5
ArtistUnicode:わたてん☆5
Creator:Syadow-
Version:Easy
Source:私に天使が舞い降りた!
Tags:opening Watashi ni Tenshi ga Maiorita! Ly0572 -_Ly0572_- Sashide Maria 指出毬亜 Shirosaki Hana 白咲花 Nagae Rika 長江里加 Hoshino Hinata 星野ひなた Ueda Reina 上田麗奈 Hoshino Miyako Mya-nee 星野みやこ Kito Akari 鬼頭明里 Himesaka Noa 姫坂乃愛 Oozora Naomi 大空直美 Konomori Kanon 小之森夏音 anime japanese ZAI-ON Eternal Truth 伊賀拓郎,WEST GROUND
BeatmapID:1907537
BeatmapSetID:913157

[Difficulty]
HPDrainRate:7
CircleSize:4
OverallDifficulty:7
ApproachRate:5
SliderMultiplier:1.4
SliderTickRate:1

[Events]
//Background and Video events
0,0,"72725286_p0.jpg",0,0
//Break Periods
//Storyboard Layer 0 (Background)
//Storyboard Layer 1 (Fail)
//Storyboard Layer 2 (Pass)
//Storyboard Layer 3 (Foreground)
//Storyboard Sound Samples

[TimingPoints]
1040,476.190476190476,4,2,1,0,1,0
50563,-100,4,2,1,0,0,1
64849,-100,4,2,1,0,0,0
65801,-100,4,2,1,0,0,1
80563,-100,4,2,1,0,0,0

[HitObjects]
448,192,563,128,0,1040:0:0:0:0:
192,192,1040,1,0,0:0:0:0:
64,192,1040,1,0,0:0:0:0:
320,192,1278,1,0,0:0:0:0:
448,192,1516,1,0,0:0:0:0:
192,192,1754,1,0,0:0:0:0:
64,192,1992,1,0,0:0:0:0:
320,192,2230,1,0,0:0:0:0:
192,192,2468,1,0,0:0:0:0:
448,192,2706,1,0,0:0:0:0:
320,192,2944,1,0,0:0:0:0:
320,192,3420,1,0,0:0:0:0:
192,192,3897,1,0,0:0:0:0:
192,192,4373,1,0,0:0:0:0:
448,192,4849,1,0,0:0:0:0:
320,192,5087,1,0,0:0:0:0:
64,192,5325,1,0,0:0:0:0:
192,192,5563,1,0,0:0:0:0:
320,192,5801,1,0,0:0:0:0:
448,192,6039,1,0,0:0:0:0:
192,192,6278,1,0,0:0:0:0:
64,192,6516,1,0,0:0:0:0:
320,192,6754,1,0,0:0:0:0:
320,192,7230,1,0,0:0:0:0:
64,192,7706,5,0,0:0:0:0:
448,192,7944,1,0,0:0:0:0:
192,192,8182,128,0,8659:0:0:0:0:
64,192,8659,5,0,0:0:0:0:
448,192,8659,1,0,0:0:0:0:
320,192,8897,1,0,0:0:0:0:
192,192,9135,1,0,0:0:0:0:
448,192,9373,1,0,0:0:0:0:
64,192,9611,1,0,0:0:0:0:
192,192,9849,1,0,0:0:0:0:
448,192,10087,1,0,0:0:0:0:
320,192,10325,1,0,0:0:0:0:
64,192,10563,128,0,11039:0:0:0:0:
320,192,11039,1,0,0:0:0:0:
192,192,11516,128,0,11992:0:0:0:0:
448,192,11992,128,0,12468:0:0:0:0:
320,192,11992,1,0,0:0:0:0:
64,192,12468,1,0,0:0:0:0:
192,192,12468,1,0,0:0:0:0:
320,192,12706,1,0,0:0:0:0:
448,192,12944,1,0,0:0:0:0:
192,192,13182,1,0,0:0:0:0:
64,192,13420,1,0,0:0:0:0:
448,192,13659,1,0,0:0:0:0:
192,192,13897,1,0,0:0:0:0:
320,192,14373,1,0,0:0:0:0:
320,192,14730,1,0,0:0:0:0:
192,192,15325,1,0,0:0:0:0:
192,192,15682,1,0,0:0:0:0:
320,192,16039,1,0,0:0:0:0:
64,192,16278,1,0,0:0:0:0:
192,192,16278,1,0,0:0:0:0:
448,192,16516,1,0,0:0:0:0:
320,192,16754,1,0,0:0:0:0:
64,192,16992,1,0,0:0:0:0:
448,192,17230,1,0,0:0:0:0:
192,192,17587,1,0,0:0:0:0:
320,192,17944,1,0,0:0:0:0:
64,192,18420,1,0,0:0:0:0:
192,192,18659,1,0,0:0:0:0:
448,192,18897,1,0,0:0:0:0:
64,192,19135,1,0,0:0:0:0:
448,192,19611,128,0,20087:0:0:0:0:
64,192,20087,1,0,0:0:0:0:
192,192,20087,1,0,0:0:0:0:
448,192,20563,1,0,0:0:0:0:
320,192,21039,1,0,0:0:0:0:
64,192,21516,1,0,0:0:0:0:
192,192,21754,1,0,0:0:0:0:
448,192,21992,1,0,0:0:0:0:
64,192,22468,1,0,0:0:0:0:
192,192,22944,1,0,0:0:0:0:
320,192,23420,1,0,0:0:0:0:
192,192,23659,1,0,0:0:0:0:
448,192,23897,1,0,0:0:0:0:
64,192,24373,1,0,0:0:0:0:
320,192,24849,1,0,0:0:0:0:
192,192,25325,1,0,0:0:0:0:
448,192,25563,1,0,0:0:0:0:
64,192,25801,128,0,26278:0:0:0:0:
448,192,26278,128,0,26754:0:0:0:0:
192,192,26754,1,0,0:0:0:0:
320,192,26992,1,0,0:0:0:0:
192,192,27230,128,0,27706:0:0:0:0:
448,192,27706,1,0,0:0:0:0:
320,192,27706,1,0,0:0:0:0:
64,192,28182,1,0,0:0:0:0:
192,192,28659,1,0,0:0:0:0:
448,192,29135,1,0,0:0:0:0:
320,192,29373,1,0,0:0:0:0:
64,192,29611,1,0,0:0:0:0:
448,192,30087,1,0,0:0:0:0:
64,192,30563,1,0,0:0:0:0:
192,192,30801,1,0,0:0:0:0:
320,192,31039,128,0,31516:0:0:0:0:
64,192,31516,1,0,0:0:0:0:
192,192,31516,1,0,0:0:0:0:
448,192,31873,1,0,0:0:0:0:
64,192,32230,1,0,0:0:0:0:
320,192,32706,1,0,0:0:0:0:
192,192,32944,128,0,33420:0:0:0:0:
320,192,33420,1,0,0:0:0:0:
448,192,33420,1,0,0:0:0:0:
64,192,33778,1,0,0:0:0:0:
448,192,34135,1,0,0:0:0:0:
192,192,34373,1,0,0:0:0:0:
320,192,34611,1,0,0:0:0:0:
320,192,34849,128,0,35325:0:0:0:0:
192,192,35325,1,0,0:0:0:0:
64,192,35325,1,0,0:0:0:0:
448,192,35801,1,0,0:0:0:0:
448,192,36278,1,0,0:0:0:0:
192,192,36754,1,0,0:0:0:0:
192,192,37230,1,0,0:0:0:0:
64,192,37230,1,0,0:0:0:0:
320,192,37706,1,0,0:0:0:0:
320,192,38182,1,0,0:0:0:0:
192,192,38659,1,0,0:0:0:0:
192,192,39135,1,0,0:0:0:0:
64,192,39135,1,0,0:0:0:0:
448,192,39611,1,0,0:0:0:0:
448,192,40087,1,0,0:0:0:0:
320,192,40563,1,0,0:0:0:0:
320,192,41039,1,0,0:0:0:0:
448,192,41039,1,0,0:0:0:0:
192,192,41516,1,0,0:0:0:0:
192,192,41992,1,0,0:0:0:0:
320,192,42468,128,0,42944:0:0:0:0:
64,192,42944,1,0,0:0:0:0:
192,192,42944,1,0,0:0:0:0:
448,192,43182,1,0,0:0:0:0:
320,192,43420,1,0,0:0:0:0:
64,192,43659,1,0,0:0:0:0:
320,192,43897,1,0,0:0:0:0:
192,192,44135,1,0,0:0:0:0:
448,192,44373,1,0,0:0:0:0:
320,192,44611,1,0,0:0:0:0:
64,192,44849,1,0,0:0:0:0:
192,192,45087,1,0,0:0:0:0:
320,192,45325,1,0,0:0:0:0:
448,192,45563,1,0,0:0:0:0:
192,192,45801,1,0,0:0:0:0:
64,192,46039,1,0,0:0:0:0:
448,192,46278,128,0,46754:0:0:0:0:
192,192,46754,1,0,0:0:0:0:
64,192,46754,1,0,0:0:0:0:
320,192,47230,1,0,0:0:0:0:
448,192,47468,1,0,0:0:0:0:
64,192,47468,1,0,0:0:0:0:
192,192,47944,1,0,0:0:0:0:
320,192,48182,1,0,0:0:0:0:
448,192,48420,1,0,0:0:0:0:
64,192,48420,1,0,0:0:0:0:
192,192,48897,1,0,0:0:0:0:
320,192,49135,1,0,0:0:0:0:
192,192,49373,1,0,0:0:0:0:
64,192,49373,1,0,0:0:0:0:
448,192,50087,128,0,50563:0:0:0:0:
192,192,50563,1,0,0:0:0:0:
64,192,50563,1,0,0:0:0:0:
320,192,51039,1,0,0:0:0:0:
64,192,51516,1,0,0:0:0:0:
448,192,51992,1,0,0:0:0:0:
192,192,52468,1,0,0:0:0:0:
320,192,52944,1,0,0:0:0:0:
448,192,53420,1,0,0:0:0:0:
64,192,53659,1,0,0:0:0:0:
320,192,53897,1,0,0:0:0:0:
192,192,54135,1,0,0:0:0:0:
448,192,54373,1,0,0:0:0:0:
320,192,54373,1,0,0:0:0:0:
64,192,54849,1,0,0:0:0:0:
448,192,55325,1,0,0:0:0:0:
192,192,55801,1,0,0:0:0:0:
320,192,56278,5,0,0:0:0:0:
64,192,56754,1,0,0:0:0:0:
192,192,56992,1,0,0:0:0:0:
448,192,57230,1,0,0:0:0:0:
320,192,57468,1,0,0:0:0:0:
64,192,57706,128,0,58182:0:0:0:0:
192,192,58182,1,0,0:0:0:0:
320,192,58182,1,0,0:0:0:0:
448,192,58659,1,0,0:0:0:0:
192,192,59135,1,0,0:0:0:0:
320,192,59611,1,0,0:0:0:0:
64,192,60087,1,0,0:0:0:0:
448,192,60325,1,0,0:0:0:0:
192,192,60563,1,0,0:0:0:0:
320,192,60801,1,0,0:0:0:0:
448,192,60801,1,0,0:0:0:0:
64,192,61278,1,0,0:0:0:0:
192,192,61516,1,0,0:0:0:0:
448,192,61754,1,0,0:0:0:0:
192,192,61992,1,0,0:0:0:0:
64,192,61992,1,0,0:0:0:0:
320,192,62468,1,0,0:0:0:0:
64,192,62944,1,0,0:0:0:0:
192,192,63182,1,0,0:0:0:0:
448,192,63420,1,0,0:0:0:0:
64,192,63659,1,0,0:0:0:0:
320,192,63659,1,0,0:0:0:0:
192,192,64373,1,0,0:0:0:0:
448,192,64849,1,0,0:0:0:0:
64,192,65087,1,0,0:0:0:0:
320,192,65325,128,0,65801:0:0:0:0:
192,192,65801,1,0,0:0:0:0:
64,192,65801,1,0,0:0:0:0:
448,192,66278,1,0,0:0:0:0:
64,192,66754,1,0,0:0:0:0:
320,192,67230,1,0,0:0:0:0:
448,192,67706,1,0,0:0:0:0:
64,192,68182,1,0,0:0:0:0:
448,192,68659,1,0,0:0:0:0:
192,192,68897,1,0,0:0:0:0:
320,192,69135,1,0,0:0:0:0:
448,192,69373,1,0,0:0:0:0:
192,192,69611,1,0,0:0:0:0:
64,192,69611,1,0,0:0:0:0:
320,192,70087,1,0,0:0:0:0:
64,192,70563,1,0,0:0:0:0:
448,192,71039,1,0,0:0:0:0:
192,192,71516,1,0,0:0:0:0:
320,192,71992,1,0,0:0:0:0:
64,192,72230,1,0,0:0:0:0:
192,192,72468,1,0,0:0:0:0:
320,192,72706,1,0,0:0:0:0:
448,192,72944,128,0,73420:0:0:0:0:
64,192,73420,1,0,0:0:0:0:
192,192,73420,1,0,0:0:0:0:
320,192,73897,1,0,0:0:0:0:
64,192,74373,1,0,0:0:0:0:
448,192,74849,1,0,0:0:0:0:
192,192,75325,1,0,0:0:0:0:
320,192,75563,1,0,0:0:0:0:
64,192,75801,1,0,0:0:0:0:
448,192,76039,1,0,0:0:0:0:
192,192,76039,1,0,0:0:0:0:
320,192,76516,1,0,0:0:0:0:
192,192,76754,1,0,0:0:0:0:
448,192,76992,1,0,0:0:0:0:
64,192,77230,1,0,0:0:0:0:
320,192,77230,1,0,0:0:0:0:
192,192,77706,1,0,0:0:0:0:
320,192,78182,1,0,0:0:0:0:
64,192,78659,1,0,0:0:0:0:
448,192,78897,1,0,0:0:0:0:
192,192,78897,1,0,0:0:0:0:
320,192,79373,1,0,0:0:0:0:
192,192,79611,1,0,0:0:0:0:
64,192,80087,1,0,0:0:0:0:
192,192,80325,1,0,0:0:0:0:
320,192,80563,1,0,0:0:0:0:
448,192,80563,1,0,0:0:0:0:
192,192,81039,1,0,0:0:0:0:
64,192,81039,1,0,0:0:0:0:
448,192,81278,1,0,0:0:0:0:
64,192,81516,1,0,0:0:0:0:
448,192,81754,1,0,0:0:0:0:
192,192,82230,1,0,0:0:0:0:
192,192,82468,128,0,82944:0:0:0:0:
320,192,82944,1,0,0:0:0:0:
448,192,82944,1,0,0:0:0:0:
64,192,83182,1,0,0:0:0:0:
448,192,83420,1,0,0:0:0:0:
64,192,83778,1,0,0:0:0:0:
320,192,84135,1,0,0:0:0:0:
320,192,84373,128,0,84849:0:0:0:0:
192,192,84849,1,0,0:0:0:0:
64,192,84849,1,0,0:0:0:0:
448,192,85087,1,0,0:0:0:0:
64,192,85325,1,0,0:0:0:0:
448,192,85563,1,0,0:0:0:0:
192,192,86039,1,0,0:0:0:0:
192,192,86278,128,0,86754:0:0:0:0:
448,192,86754,1,0,0:0:0:0:
320,192,86992,1,0,0:0:0:0:
64,192,87230,1,0,0:0:0:0:
448,192,87468,1,0,0:0:0:0:
192,192,87587,128,0,88182:0:0:0:0:
320,192,88182,128,0,88659:0:0:0:0:
