osu file format v14

[General]
AudioFilename: audio.mp3
AudioLeadIn: 0
PreviewTime: 35027
Countdown: 0
SampleSet: Normal
StackLeniency: 0.7
Mode: 1
LetterboxInBreaks: 0
WidescreenStoryboard: 0

[Editor]
DistanceSpacing: 2.5
BeatDivisor: 4
GridSize: 32
TimelineZoom: 1

[Metadata]
Title:Kimama na Tenshitachi (TV Size)
TitleUnicode:気ままな天使たち (TV Size)
Artist:Wataten*5
ArtistUnicode:わたてん☆5
Creator:Poii
Version:Muzukashii
Source:私に天使が舞い降りた!
Tags:気ままな天使たち/ハッピー・ハッピー・フレンズ japanese anime watashi ni tenshi ga mai orita opening op ファイブ shirosaki hana 白咲花 sashide maria 指出毬亜 hoshino hinata 星野ひなた nagae rika 長江里加 himesaka noa 姫坂乃愛 kitou akari 鬼頭明里 tanemura koyori 種村子依 oowada hitomi 大和田仁美 konomori kanon 小之森夏音 oozora naomi 大空直美 happy friends
BeatmapID:2162854
BeatmapSetID:1034503

[Difficulty]
HPDrainRate:6
CircleSize:2
OverallDifficulty:4
ApproachRate:10
SliderMultiplier:1.4
SliderTickRate:1

[Events]
//Background and Video events
0,0,"hmps.jpg",0,0
//Break Periods
//Storyboard Layer 0 (Background)
//Storyboard Layer 1 (Fail)
//Storyboard Layer 2 (Pass)
//Storyboard Layer 3 (Foreground)
//Storyboard Layer 4 (Overlay)
//Storyboard Sound Samples

[TimingPoints]
981,476.190476190476,4,1,0,90,1,0
8600,-100,4,1,0,90,0,0
20028,476.190476190476,4,1,0,90,1,0
50504,-100,4,1,0,90,0,1
63599,-100,4,1,0,90,0,0
65742,-100,4,1,0,90,0,1
80980,-100,4,1,0,90,0,0

[HitObjects]
256,192,981,5,0,0:0:0:0:
256,192,1457,1,8,0:0:0:0:
256,192,1695,1,8,0:0:0:0:
256,192,1933,1,0,0:0:0:0:
256,192,2052,1,0,0:0:0:0:
256,192,2290,1,8,0:0:0:0:
256,192,2647,1,8,0:0:0:0:
256,192,3123,1,0,0:0:0:0:
256,192,3361,1,8,0:0:0:0:
256,192,3600,1,0,0:0:0:0:
256,192,3838,1,0,0:0:0:0:
256,192,4195,1,8,0:0:0:0:
256,192,4790,1,0,0:0:0:0:
256,192,5266,1,8,0:0:0:0:
256,192,5504,1,8,0:0:0:0:
256,192,5742,1,0,0:0:0:0:
256,192,5861,1,0,0:0:0:0:
256,192,6099,1,8,0:0:0:0:
256,192,6456,1,8,0:0:0:0:
256,192,6933,1,0,0:0:0:0:
256,192,7171,1,8,0:0:0:0:
256,192,7409,1,0,0:0:0:0:
256,192,7647,1,8,0:0:0:0:
256,192,8123,1,8,0:0:0:0:
256,192,8242,1,8,0:0:0:0:
256,192,8361,1,8,0:0:0:0:
256,192,8600,1,4,0:0:0:0:
256,192,8957,1,8,0:0:0:0:
256,192,9314,1,8,0:0:0:0:
256,192,9552,1,0,0:0:0:0:
256,192,9909,1,8,0:0:0:0:
256,192,10266,1,8,0:0:0:0:
256,192,10504,1,0,0:0:0:0:
256,192,10980,1,8,0:0:0:0:
256,192,11219,1,8,0:0:0:0:
256,192,11457,1,0,0:0:0:0:
256,192,11933,1,8,0:0:0:0:
256,192,12409,1,4,0:0:0:0:
256,192,12766,1,8,0:0:0:0:
256,192,13123,1,8,0:0:0:0:
256,192,13361,1,0,0:0:0:0:
256,192,13600,1,8,0:0:0:0:
256,192,13838,1,8,0:0:0:0:
256,192,14314,1,4,0:0:0:0:
256,192,14552,1,8,0:0:0:0:
256,192,14790,1,8,0:0:0:0:
256,192,15028,1,0,0:0:0:0:
256,192,15266,1,8,0:0:0:0:
256,192,15742,1,0,0:0:0:0:
256,192,16219,1,12,0:0:0:0:
256,192,17171,1,0,0:0:0:0:
256,192,17528,1,0,0:0:0:0:
256,192,17766,1,0,0:0:0:0:
256,192,17885,1,8,0:0:0:0:
256,192,18123,1,0,0:0:0:0:
256,192,18361,1,8,0:0:0:0:
256,192,18600,1,0,0:0:0:0:
256,192,18838,1,0,0:0:0:0:
256,192,19076,1,8,0:0:0:0:
256,192,19552,1,8,0:0:0:0:
256,192,20028,1,4,0:0:0:0:
256,192,20504,1,8,0:0:0:0:
256,192,20742,1,0,0:0:0:0:
256,192,20980,1,8,0:0:0:0:
256,192,21337,1,0,0:0:0:0:
256,192,21694,1,8,0:0:0:0:
256,192,22408,1,0,0:0:0:0:
256,192,22647,1,0,0:0:0:0:
256,192,22885,1,8,0:0:0:0:
256,192,23242,1,8,0:0:0:0:
256,192,23599,1,8,0:0:0:0:
256,192,24313,1,0,0:0:0:0:
256,192,24551,1,0,0:0:0:0:
256,192,24789,1,8,0:0:0:0:
256,192,25147,1,8,0:0:0:0:
256,192,25504,1,0,0:0:0:0:
256,192,25742,1,8,0:0:0:0:
256,192,26099,1,8,0:0:0:0:
256,192,26456,1,0,0:0:0:0:
256,192,26694,1,0,0:0:0:0:
256,192,26932,1,8,0:0:0:0:
256,192,27170,1,8,0:0:0:0:
256,192,27885,1,8,0:0:0:0:
256,192,28123,1,0,0:0:0:0:
256,192,28361,1,0,0:0:0:0:
256,192,28599,1,8,0:0:0:0:
256,192,28956,1,8,0:0:0:0:
256,192,29313,1,0,0:0:0:0:
256,192,29789,1,8,0:0:0:0:
256,192,29908,1,8,0:0:0:0:
256,192,30027,1,8,0:0:0:0:
256,192,30266,1,0,0:0:0:0:
256,192,30504,1,8,0:0:0:0:
256,192,30861,1,0,0:0:0:0:
256,192,31218,1,0,0:0:0:0:
256,192,31456,1,8,0:0:0:0:
256,192,31813,1,0,0:0:0:0:
256,192,32170,1,8,0:0:0:0:
256,192,32647,1,12,0:0:0:0:
256,192,32885,1,12,0:0:0:0:
256,192,33361,1,8,0:0:0:0:
256,192,33599,1,8,0:0:0:0:
256,192,33837,1,0,0:0:0:0:
256,192,34194,1,8,0:0:0:0:
256,192,34551,1,12,0:0:0:0:
256,192,34789,1,12,0:0:0:0:
256,192,35266,1,8,0:0:0:0:
256,192,35504,1,0,0:0:0:0:
256,192,35742,1,0,0:0:0:0:
256,192,35980,1,8,0:0:0:0:
256,192,36218,1,0,0:0:0:0:
256,192,36575,1,0,0:0:0:0:
256,192,36932,1,8,0:0:0:0:
256,192,37408,1,8,0:0:0:0:
256,192,37647,1,0,0:0:0:0:
256,192,37885,1,0,0:0:0:0:
256,192,38123,1,8,0:0:0:0:
256,192,38599,1,0,0:0:0:0:
256,192,38837,1,0,0:0:0:0:
256,192,39075,1,8,0:0:0:0:
256,192,40027,1,8,0:0:0:0:
256,192,40266,1,8,0:0:0:0:
256,192,40504,1,0,0:0:0:0:
256,192,40742,1,0,0:0:0:0:
256,192,41218,1,8,0:0:0:0:
256,192,41456,1,0,0:0:0:0:
256,192,41694,1,8,0:0:0:0:
256,192,42170,1,8,0:0:0:0:
256,192,42408,1,0,0:0:0:0:
256,192,42647,1,12,0:0:0:0:
256,192,43123,1,0,0:0:0:0:
256,192,43361,1,0,0:0:0:0:
256,192,43599,1,8,0:0:0:0:
256,192,43837,1,0,0:0:0:0:
256,192,44075,1,0,0:0:0:0:
256,192,44313,1,8,0:0:0:0:
256,192,44551,1,8,0:0:0:0:
256,192,45027,1,8,0:0:0:0:
256,192,45266,1,8,0:0:0:0:
256,192,45504,1,0,0:0:0:0:
256,192,45742,1,8,0:0:0:0:
256,192,45980,1,8,0:0:0:0:
256,192,46218,1,0,0:0:0:0:
256,192,46456,1,8,0:0:0:0:
256,192,46694,1,4,0:0:0:0:
256,192,47051,1,0,0:0:0:0:
256,192,47170,1,8,0:0:0:0:
256,192,47408,1,4,0:0:0:0:
256,192,47885,1,0,0:0:0:0:
256,192,48123,1,8,0:0:0:0:
256,192,48361,1,12,0:0:0:0:
256,192,48837,1,0,0:0:0:0:
256,192,49075,1,8,0:0:0:0:
256,192,49313,1,0,0:0:0:0:
256,192,50027,1,0,0:0:0:0:
256,192,50504,1,12,0:0:0:0:
256,192,50980,1,0,0:0:0:0:
256,192,51218,1,8,0:0:0:0:
256,192,51456,1,0,0:0:0:0:
256,192,51694,1,0,0:0:0:0:
256,192,51932,1,8,0:0:0:0:
256,192,52170,1,8,0:0:0:0:
256,192,52647,1,0,0:0:0:0:
256,192,52885,1,8,0:0:0:0:
256,192,53123,1,0,0:0:0:0:
256,192,53361,1,0,0:0:0:0:
256,192,53599,1,8,0:0:0:0:
256,192,53837,1,0,0:0:0:0:
256,192,54075,1,8,0:0:0:0:
256,192,54551,1,0,0:0:0:0:
256,192,54789,1,8,0:0:0:0:
256,192,55027,1,8,0:0:0:0:
256,192,55266,1,0,0:0:0:0:
256,192,55504,1,8,0:0:0:0:
256,192,55742,1,0,0:0:0:0:
256,192,55980,1,8,0:0:0:0:
256,192,56694,1,8,0:0:0:0:
256,192,56932,1,0,0:0:0:0:
256,192,57170,1,8,0:0:0:0:
256,192,57647,1,8,0:0:0:0:
256,192,57885,1,8,0:0:0:0:
256,192,58004,1,8,0:0:0:0:
256,192,58123,1,8,0:0:0:0:
256,192,58599,1,0,0:0:0:0:
256,192,58837,1,8,0:0:0:0:
256,192,59313,1,8,0:0:0:0:
256,192,59551,1,8,0:0:0:0:
256,192,59789,1,0,0:0:0:0:
256,192,60027,1,0,0:0:0:0:
256,192,60266,1,8,0:0:0:0:
256,192,60504,1,0,0:0:0:0:
256,192,60742,1,12,0:0:0:0:
256,192,61218,1,0,0:0:0:0:
256,192,61456,1,0,0:0:0:0:
256,192,61694,1,8,0:0:0:0:
256,192,62170,1,0,0:0:0:0:
256,192,62408,1,8,0:0:0:0:
256,192,62647,1,0,0:0:0:0:
256,192,62885,1,0,0:0:0:0:
256,192,63123,1,8,0:0:0:0:
256,192,63599,1,12,0:0:0:0:
256,192,64075,1,0,0:0:0:0:
256,192,64313,1,8,0:0:0:0:
256,192,64551,1,8,0:0:0:0:
256,192,64789,1,0,0:0:0:0:
256,192,65027,1,8,0:0:0:0:
256,192,65266,1,0,0:0:0:0:
256,192,65385,1,0,0:0:0:0:
256,192,65504,1,0,0:0:0:0:
256,192,65742,1,12,0:0:0:0:
256,192,66218,1,0,0:0:0:0:
256,192,66456,1,8,0:0:0:0:
256,192,66694,1,0,0:0:0:0:
256,192,66932,1,0,0:0:0:0:
256,192,67170,1,8,0:0:0:0:
256,192,67408,1,8,0:0:0:0:
256,192,67885,1,0,0:0:0:0:
256,192,68123,1,8,0:0:0:0:
256,192,68361,1,0,0:0:0:0:
256,192,68599,1,0,0:0:0:0:
256,192,68837,1,8,0:0:0:0:
256,192,69075,1,0,0:0:0:0:
256,192,69313,1,8,0:0:0:0:
256,192,69789,1,0,0:0:0:0:
256,192,70027,1,8,0:0:0:0:
256,192,70265,1,0,0:0:0:0:
256,192,70504,1,0,0:0:0:0:
256,192,70742,1,8,0:0:0:0:
256,192,70980,1,0,0:0:0:0:
256,192,71218,1,8,0:0:0:0:
256,192,71694,1,8,0:0:0:0:
256,192,71932,1,0,0:0:0:0:
256,192,72170,1,8,0:0:0:0:
256,192,72408,1,8,0:0:0:0:
256,192,72885,1,8,0:0:0:0:
256,192,73123,1,0,0:0:0:0:
256,192,73242,1,0,0:0:0:0:
256,192,73361,1,0,0:0:0:0:
256,192,73837,1,8,0:0:0:0:
256,192,74075,1,8,0:0:0:0:
256,192,74551,1,0,0:0:0:0:
256,192,74789,1,0,0:0:0:0:
256,192,75027,1,8,0:0:0:0:
256,192,75266,1,0,0:0:0:0:
256,192,75504,1,0,0:0:0:0:
256,192,75742,1,8,0:0:0:0:
256,192,75980,1,12,0:0:0:0:
256,192,76456,1,8,0:0:0:0:
256,192,76694,1,0,0:0:0:0:
256,192,76932,1,0,0:0:0:0:
256,192,77408,1,0,0:0:0:0:
256,192,77647,1,8,0:0:0:0:
256,192,77885,1,8,0:0:0:0:
256,192,78123,1,0,0:0:0:0:
256,192,78361,1,8,0:0:0:0:
256,192,78837,1,12,0:0:0:0:
256,192,79313,1,0,0:0:0:0:
256,192,79551,1,8,0:0:0:0:
256,192,79789,1,0,0:0:0:0:
256,192,80027,1,8,0:0:0:0:
256,192,80980,1,4,0:0:0:0:
256,192,81218,1,0,0:0:0:0:
256,192,81456,1,8,0:0:0:0:
256,192,81813,1,8,0:0:0:0:
256,192,82170,1,12,0:0:0:0:
256,192,82408,1,12,0:0:0:0:
256,192,82885,1,0,0:0:0:0:
256,192,83123,1,0,0:0:0:0:
256,192,83361,1,8,0:0:0:0:
256,192,83718,1,8,0:0:0:0:
256,192,84075,1,12,0:0:0:0:
256,192,84313,1,12,0:0:0:0:
256,192,84789,1,0,0:0:0:0:
256,192,85027,1,8,0:0:0:0:
256,192,85266,1,0,0:0:0:0:
256,192,85623,1,8,0:0:0:0:
256,192,85980,1,12,0:0:0:0:
256,192,86218,1,12,0:0:0:0:
256,192,86694,1,0,0:0:0:0:
256,192,86932,1,8,0:0:0:0:
256,192,87170,1,8,0:0:0:0:
256,192,87527,1,8,0:0:0:0:
256,192,88123,1,4,0:0:0:0:
