osu file format v14

[General]
AudioFilename: audio.mp3
AudioLeadIn: 0
PreviewTime: 35027
Countdown: 0
SampleSet: Normal
StackLeniency: 0.7
Mode: 1
LetterboxInBreaks: 0
WidescreenStoryboard: 0

[Editor]
DistanceSpacing: 2.5
BeatDivisor: 2
GridSize: 32
TimelineZoom: 1

[Metadata]
Title:Kimama na Tenshitachi (TV Size)
TitleUnicode:気ままな天使たち (TV Size)
Artist:Wataten*5
ArtistUnicode:わたてん☆5
Creator:Poii
Version:Kantan
Source:私に天使が舞い降りた!
Tags:気ままな天使たち/ハッピー・ハッピー・フレンズ japanese anime watashi ni tenshi ga mai orita opening op ファイブ shirosaki hana 白咲花 sashide maria 指出毬亜 hoshino hinata 星野ひなた nagae rika 長江里加 himesaka noa 姫坂乃愛 kitou akari 鬼頭明里 tanemura koyori 種村子依 oowada hitomi 大和田仁美 konomori kanon 小之森夏音 oozora naomi 大空直美 happy friends
BeatmapID:2162853
BeatmapSetID:1034503

[Difficulty]
HPDrainRate:8
CircleSize:2
OverallDifficulty:2
ApproachRate:10
SliderMultiplier:1.4
SliderTickRate:1

[Events]
//Background and Video events
0,0,"hmps.jpg",0,0
//Break Periods
//Storyboard Layer 0 (Background)
//Storyboard Layer 1 (Fail)
//Storyboard Layer 2 (Pass)
//Storyboard Layer 3 (Foreground)
//Storyboard Layer 4 (Overlay)
//Storyboard Sound Samples

[TimingPoints]
981,476.190476190476,4,1,0,90,1,0
8600,-100,4,1,0,90,0,0
20028,476.190476190476,4,1,0,90,1,0
50504,-100,4,1,0,90,0,1
63599,-100,4,1,0,90,0,0
65742,-100,4,1,0,90,0,1
80980,-100,4,1,0,90,0,0

[HitObjects]
256,192,981,5,0,0:0:0:0:
256,192,1933,1,0,0:0:0:0:
256,192,2885,1,8,0:0:0:0:
256,192,4790,1,0,0:0:0:0:
256,192,5742,1,0,0:0:0:0:
256,192,6695,1,8,0:0:0:0:
256,192,7647,1,8,0:0:0:0:
256,192,8123,1,8,0:0:0:0:
256,192,8600,1,4,0:0:0:0:
256,192,9552,1,0,0:0:0:0:
256,192,10504,1,0,0:0:0:0:
256,192,12409,1,12,0:0:0:0:
256,192,13361,1,0,0:0:0:0:
256,192,13838,1,0,0:0:0:0:
256,192,14314,1,4,0:0:0:0:
256,192,15742,1,8,0:0:0:0:
256,192,16219,1,12,0:0:0:0:
256,192,17885,1,0,0:0:0:0:
256,192,19076,1,8,0:0:0:0:
256,192,20028,1,4,0:0:0:0:
256,192,21456,1,0,0:0:0:0:
256,192,22408,1,0,0:0:0:0:
256,192,23361,1,8,0:0:0:0:
256,192,24789,1,8,0:0:0:0:
256,192,25742,1,8,0:0:0:0:
256,192,26694,1,0,0:0:0:0:
256,192,27647,1,4,0:0:0:0:
256,192,28123,1,0,0:0:0:0:
256,192,28599,1,8,0:0:0:0:
256,192,30027,1,8,0:0:0:0:
256,192,30504,1,8,0:0:0:0:
256,192,31456,1,8,0:0:0:0:
256,192,32170,1,8,0:0:0:0:
256,192,33361,1,8,0:0:0:0:
256,192,33837,1,0,0:0:0:0:
256,192,34313,1,8,0:0:0:0:
256,192,35266,1,8,0:0:0:0:
256,192,36218,1,0,0:0:0:0:
256,192,37170,1,8,0:0:0:0:
256,192,38123,1,0,0:0:0:0:
256,192,38599,1,0,0:0:0:0:
256,192,39075,1,8,0:0:0:0:
256,192,40504,1,0,0:0:0:0:
256,192,41694,1,0,0:0:0:0:
256,192,42170,1,0,0:0:0:0:
256,192,42647,1,12,0:0:0:0:
256,192,43837,1,0,0:0:0:0:
256,192,44789,1,8,0:0:0:0:
256,192,45742,1,8,0:0:0:0:
256,192,46218,1,8,0:0:0:0:
256,192,46694,1,4,0:0:0:0:
256,192,47408,1,4,0:0:0:0:
256,192,48361,1,12,0:0:0:0:
256,192,48837,1,0,0:0:0:0:
256,192,49313,1,0,0:0:0:0:
256,192,50504,1,12,0:0:0:0:
256,192,51218,1,0,0:0:0:0:
256,192,52170,1,8,0:0:0:0:
256,192,53361,1,8,0:0:0:0:
256,192,53837,1,0,0:0:0:0:
256,192,54313,1,8,0:0:0:0:
256,192,55266,1,8,0:0:0:0:
256,192,55980,1,0,0:0:0:0:
256,192,56694,1,8,0:0:0:0:
256,192,57170,1,8,0:0:0:0:
256,192,58123,1,8,0:0:0:0:
256,192,58837,1,0,0:0:0:0:
256,192,59789,1,0,0:0:0:0:
256,192,60742,1,12,0:0:0:0:
256,192,61456,1,0,0:0:0:0:
256,192,61932,1,8,0:0:0:0:
256,192,62647,1,0,0:0:0:0:
256,192,63599,1,12,0:0:0:0:
256,192,64789,1,8,0:0:0:0:
256,192,65742,1,12,0:0:0:0:
256,192,66455,1,0,0:0:0:0:
256,192,67408,1,0,0:0:0:0:
256,192,68599,1,0,0:0:0:0:
256,192,69075,1,0,0:0:0:0:
256,192,69551,1,8,0:0:0:0:
256,192,70504,1,0,0:0:0:0:
256,192,71456,1,8,0:0:0:0:
256,192,71932,1,0,0:0:0:0:
256,192,72408,1,8,0:0:0:0:
256,192,73361,1,0,0:0:0:0:
256,192,74075,1,8,0:0:0:0:
256,192,75027,1,8,0:0:0:0:
256,192,75980,1,12,0:0:0:0:
256,192,76694,1,0,0:0:0:0:
256,192,77170,1,0,0:0:0:0:
256,192,77647,1,8,0:0:0:0:
256,192,78837,1,12,0:0:0:0:
256,192,79551,1,8,0:0:0:0:
256,192,80027,1,8,0:0:0:0:
256,192,80980,1,4,0:0:0:0:
256,192,81456,1,8,0:0:0:0:
256,192,82408,1,8,0:0:0:0:
256,192,82885,1,0,0:0:0:0:
256,192,83361,1,8,0:0:0:0:
256,192,84313,1,8,0:0:0:0:
256,192,84789,1,0,0:0:0:0:
256,192,85266,1,0,0:0:0:0:
256,192,86218,1,8,0:0:0:0:
256,192,86694,1,0,0:0:0:0:
256,192,87170,1,8,0:0:0:0:
256,192,88123,1,4,0:0:0:0:
