osu file format v14

[General]
AudioFilename: audio.mp3
AudioLeadIn: 0
PreviewTime: 50087
Countdown: 0
SampleSet: Soft
StackLeniency: 0.7
Mode: 0
LetterboxInBreaks: 0
WidescreenStoryboard: 0

[Editor]
DistanceSpacing: 1.6
BeatDivisor: 4
GridSize: 16
TimelineZoom: 1.299999

[Metadata]
Title:Kimama na Tenshi tachi (TV Size)
TitleUnicode:気ままな天使たち (TV Size)
Artist:Wataten*5
ArtistUnicode:わたてん☆5
Creator:lililing
Version:Insane
Source:私に天使が舞い降りた!
Tags:指出毬亜 長江里加 鬼頭明里 大和田仁美 大空直美による opening moe anime Watashi ni Tenshi ga Maiorita! UjiMatcha pappl e 104
BeatmapID:1906879
BeatmapSetID:908133

[Difficulty]
HPDrainRate:6
CircleSize:4
OverallDifficulty:7.5
ApproachRate:9
SliderMultiplier:1.8
SliderTickRate:1

[Events]
//Background and Video events
0,0,"20190116183015.jpg",0,0
Video,0,"mv.mp4"
//Break Periods
//Storyboard Layer 0 (Background)
//Storyboard Layer 1 (Fail)
//Storyboard Layer 2 (Pass)
//Storyboard Layer 3 (Foreground)
//Storyboard Sound Samples

[TimingPoints]
1040,476.190476190476,4,2,1,60,1,0
1040,-125,4,2,1,60,0,0
7944,-111.111111111111,4,2,1,60,0,0
8182,-100,4,2,8,70,0,0
8420,-90.9090909090909,4,2,8,70,0,0
8659,-83.3333333333333,4,2,8,80,0,0
18182,-90.9090909090909,4,2,8,70,0,0
19135,-100,4,2,8,70,0,0
20087,-100,4,2,1,60,0,0
26992,-100,4,2,8,65,0,0
31516,-66.6666666666667,4,2,8,65,0,0
32230,-100,4,2,8,65,0,0
34611,-100,4,2,1,65,0,0
35325,-100,4,2,8,70,0,0
42706,-83.3333333333333,4,2,8,70,0,0
42944,-100,4,2,8,70,0,0
44849,-100,4,2,8,75,0,0
46754,-100,4,2,8,80,0,0
48659,-100,4,2,8,80,0,0
49373,-200,4,2,8,80,0,0
50087,-100,4,2,8,80,0,0
50563,-66.6666666666667,4,2,8,90,0,1
63897,-66.6666666666667,4,2,8,85,0,0
65801,-66.6666666666667,4,2,8,90,0,1
79135,-71.4285714285714,4,2,8,85,0,0
79611,-76.9230769230769,4,2,8,80,0,0
80087,-83.3333333333333,4,2,8,75,0,0
80563,-90.9090909090909,4,2,8,75,0,0
81040,-100,4,2,8,70,0,0
88182,-200,4,2,8,50,0,0

[Colours]
Combo1 : 128,0,128
Combo2 : 255,128,0
Combo3 : 255,255,0
Combo4 : 128,64,0

[HitObjects]
120,97,1040,5,6,0:0:0:0:
184,192,1278,1,2,0:0:0:0:
97,268,1516,1,8,0:0:0:0:
173,353,1754,1,2,0:0:0:0:
173,353,1873,1,2,0:0:0:0:
173,353,1992,2,0,L|218:358,1,36,2|2,0:0|0:0,0:0:0:0:
327,328,2349,1,2,0:0:0:0:
327,328,2468,2,0,L|372:333,1,36,8|2,0:0|0:0,0:0:0:0:
416,340,2706,2,0,P|411:302|422:260,1,72,2|0,0:0|0:0,0:0:0:0:
471,167,3182,5,2,0:0:0:0:
416,65,3420,1,8,0:0:0:0:
300,77,3659,1,2,0:0:0:0:
300,77,3778,1,2,0:0:0:0:
300,77,3897,2,0,L|243:66,1,36,2|2,0:0|0:0,0:0:0:0:
149,77,4254,1,2,0:0:0:0:
149,77,4373,2,0,L|92:66,2,36,8|2|2,0:0|0:0|0:0,0:0:0:0:
224,164,4849,5,2,0:0:0:0:
136,238,5087,1,2,0:0:0:0:
213,323,5325,1,8,0:0:0:0:
303,252,5563,1,2,0:0:0:0:
303,252,5682,1,2,0:0:0:0:
303,252,5801,2,0,L|360:265,1,36,2|2,0:0|0:0,0:0:0:0:
467,284,6159,1,2,0:0:0:0:
467,284,6278,2,0,L|475:225,1,36,8|2,0:0|0:0,0:0:0:0:
490,200,6516,2,0,P|494:158|490:124,1,72,2|0,0:0|0:0,0:0:0:0:
422,34,6992,5,2,0:0:0:0:
382,168,7230,1,8,0:0:0:0:
318,77,7468,1,2,0:0:0:0:
216,173,7706,2,0,L|201:112,1,36,2|0,0:0|0:0,0:0:0:0:
160,63,7944,5,8,0:0:0:0:
124,254,8182,5,8,0:0:0:0:
120,276,8301,1,8,0:0:0:0:
116,298,8420,1,2,0:0:0:0:
112,320,8539,1,0,0:0:0:0:
109,342,8659,6,0,P|186:318|276:352,1,161.999995056153,6|0,0:0|0:0,0:0:0:0:
292,357,9135,1,2,0:0:0:0:
468,319,9373,2,0,L|460:252,1,53.9999983520508,0|0,3:0|0:0,0:0:0:0:
463,216,9611,2,0,P|437:164|389:158,1,107.999996704102,2|0,0:0|3:0,0:0:0:0:
312,230,10087,1,2,0:0:0:0:
340,75,10325,1,0,3:0:0:0:
261,148,10563,6,0,P|176:141|125:79,1,161.999995056153,2|0,0:0|3:0,0:0:0:0:
127,39,11039,2,0,L|69:141,2,107.999996704102,2|0|2,0:0|3:0|0:0,0:0:0:0:
24,221,11754,1,0,3:0:0:0:
24,221,11873,1,0,3:0:0:0:
24,221,11992,2,0,B|56:238|72:286|72:302|56:350|24:366,1,161.999995056153,2|0,0:0|0:0,0:0:0:0:
16,377,12468,6,0,B|52:356|52:356|182:368,1,161.999995056153,6|0,0:0|0:0,0:0:0:0:
196,369,12944,1,2,0:0:0:0:
396,355,13182,2,0,P|421:373|454:372,2,53.9999983520508,0|0|2,3:0|0:0|0:0,0:0:0:0:
286,212,13659,5,8,0:0:0:0:
401,55,13897,5,8,0:0:0:0:
353,29,14016,1,2,3:0:0:0:
300,19,14135,1,2,0:0:0:0:
247,24,14254,1,0,0:0:0:0:
196,45,14373,6,0,L|142:38,1,53.9999983520508,6|0,0:0|0:0,0:0:0:0:
48,116,14611,1,2,3:0:0:0:
48,116,14849,2,0,L|103:110,1,53.9999983520508,0|2,0:0|3:0,0:0:0:0:
203,220,15087,5,8,3:0:0:0:
157,208,15206,1,2,3:0:0:0:
108,197,15325,5,6,0:0:0:0:
108,197,15444,2,0,P|100:243|109:306,1,107.999996704102,8|6,3:0|0:0,0:0:0:0:
163,361,15801,6,0,P|227:373|349:344,1,161.999995056153,8|2,1:0|0:0,0:0:0:0:
381,280,16278,6,0,L|374:203,1,53.9999983520508,6|0,0:0|0:0,0:0:0:0:
361,81,16516,2,0,L|365:134,1,53.9999983520508,8|0,0:0|0:0,0:0:0:0:
261,212,16754,2,0,L|255:158,2,53.9999983520508,2|2|2,0:0|3:0|0:0,0:0:0:0:
295,14,17230,2,0,B|262:6|262:6|182:13,1,107.999996704102,2|0,0:0|0:0,0:0:0:0:
89,22,17587,1,2,0:0:0:0:
164,147,17825,5,2,0:0:0:0:
65,157,17944,1,8,0:0:0:0:
140,282,18182,6,0,L|132:347,1,49.5000015106202,2|0,0:3|0:0,0:0:0:0:
251,222,18420,1,2,0:0:0:0:
251,222,18539,1,2,3:0:0:0:
251,222,18659,6,0,L|257:172,1,49.5000015106202,8|2,0:0|0:3,0:0:0:0:
267,78,18897,1,2,0:3:0:0:
290,353,19135,1,14,0:0:0:0:
290,354,19611,6,0,B|322:337|322:337|430:353,1,135,0|0,0:0|0:0,0:0:0:0:
462,357,20087,6,0,B|420:331|412:271|437:225,1,135,6|0,0:0|0:0,0:0:0:0:
468,146,20563,2,0,L|445:97,1,45,8|0,0:0|0:0,0:0:0:0:
410,17,20801,1,0,0:0:0:0:
356,150,21039,2,0,P|314:131|288:96,1,90,0|0,0:0|0:0,0:0:0:0:
265,14,21397,1,0,0:0:0:0:
265,14,21516,2,0,L|204:19,1,45,8|0,0:0|0:0,0:0:0:0:
87,73,21754,2,0,L|131:76,1,45,2|0,0:0|0:0,0:0:0:0:
193,165,21992,5,0,0:0:0:0:
193,165,22111,1,0,0:0:0:0:
193,165,22230,2,0,L|193:213,1,45,0|0,0:0|0:0,0:0:0:0:
192,379,22468,1,8,0:0:0:0:
86,190,22706,1,0,0:0:0:0:
300,190,22944,2,0,B|331:218|331:285|304:321,1,135,0|0,0:0|0:0,0:0:0:0:
287,355,23420,2,0,L|341:361,1,45,8|0,0:0|0:0,0:0:0:0:
463,371,23659,1,2,0:0:0:0:
444,251,23897,5,2,0:0:0:0:
444,251,24016,1,0,0:0:0:0:
444,251,24135,2,0,L|437:203,1,45,0|0,0:0|0:0,0:0:0:0:
423,94,24373,1,8,0:0:0:0:
318,162,24611,1,0,0:0:0:0:
247,61,24849,2,0,P|205:113|197:185,1,135,0|0,0:0|0:0,0:0:0:0:
229,251,25325,1,8,0:0:0:0:
306,345,25563,1,0,0:0:0:0:
427,326,25801,6,0,P|465:278|469:206,1,135,2|0,0:0|0:0,0:0:0:0:
456,125,26278,1,8,0:0:0:0:
217,51,26516,2,0,L|256:103,1,45,0|0,0:0|0:0,0:0:0:0:
362,257,26754,1,0,3:0:0:0:
357,0,26992,5,8,0:0:0:0:
207,210,27230,5,8,0:0:0:0:
201,254,27349,1,8,0:0:0:0:
208,298,27468,1,2,0:3:0:0:
226,339,27587,1,0,0:0:0:0:
255,371,27706,6,0,L|381:376,1,90,6|0,0:0|0:0,0:0:0:0:
416,337,28063,1,2,0:0:0:0:
500,329,28182,2,0,P|493:305|475:278,1,45,8|0,0:0|0:0,0:0:0:0:
353,114,28420,1,2,0:0:0:0:
344,374,28659,1,0,0:0:0:0:
505,168,28897,1,2,0:0:0:0:
253,241,29135,2,0,L|165:267,1,90,8|0,0:0|0:0,0:0:0:0:
11,311,29611,5,2,0:0:0:0:
139,137,29849,1,0,0:0:0:0:
139,137,29968,1,2,0:0:0:0:
139,137,30087,2,0,L|217:137,1,45,8|0,0:0|0:0,0:0:0:0:
373,136,30325,2,0,L|343:191,1,45,2|0,0:0|0:0,0:0:0:0:
256,339,30563,5,0,0:0:0:0:
256,339,30682,1,10,0:0:0:0:
256,339,30801,1,2,0:0:0:0:
256,69,31039,5,8,0:0:0:0:
139,271,31278,1,2,0:0:0:0:
373,272,31516,6,0,B|407:256|407:256|486:107,2,202.500007724762,2|2|2,0:0|0:0|0:0,0:0:0:0:
263,298,32468,5,0,0:0:0:0:
240,300,32587,1,0,3:0:0:0:
218,303,32706,1,8,0:0:0:0:
78,308,32944,5,8,0:0:0:0:
48,275,33063,1,0,3:0:0:0:
34,233,33182,2,0,L|34:174,1,45,6|0,3:0|0:0,0:0:0:0:
41,27,33420,5,2,0:0:0:0:
149,123,33659,1,2,0:0:0:0:
270,45,33897,1,0,0:0:0:0:
411,71,34135,1,2,0:0:0:0:
411,71,34254,1,0,0:0:0:0:
411,71,34373,6,0,L|374:116,1,45,8|2,0:0|0:0,0:0:0:0:
309,185,34611,1,0,0:0:0:0:
309,185,34730,1,2,0:0:0:0:
309,185,34849,1,0,0:0:0:0:
409,304,35087,1,0,3:0:0:0:
409,304,35206,1,0,3:0:0:0:
409,304,35325,6,0,P|372:329|327:341,1,90,14|2,0:0|0:0,0:0:0:0:
202,270,35801,2,0,P|158:281|121:306,1,90,8|2,0:0|0:0,0:0:0:0:
61,361,36159,1,0,0:0:0:0:
14,294,36278,2,0,L|28:230,1,45,8|0,0:0|3:0,0:0:0:0:
75,40,36635,1,0,3:0:0:0:
87,50,36754,2,0,P|123:74|187:72,1,90,8|2,0:0|0:0,0:0:0:0:
308,45,37230,5,8,0:0:0:0:
416,45,37468,1,2,0:0:0:0:
470,139,37706,1,8,0:0:0:0:
416,232,37944,1,2,0:0:0:0:
308,232,38182,1,8,0:0:0:0:
308,232,38301,1,2,0:0:0:0:
254,139,38539,1,0,0:0:0:0:
254,139,38659,1,8,0:0:0:0:
362,139,38897,1,2,0:0:0:0:
416,233,39135,5,8,0:0:0:0:
362,326,39373,1,2,0:0:0:0:
254,326,39611,2,0,P|186:307|119:328,1,135,8|2,0:0|0:0,0:0:0:0:
96,339,40087,1,8,0:0:0:0:
74,361,40206,1,2,0:0:0:0:
17,209,40444,1,2,0:0:0:0:
17,209,40563,2,0,L|17:138,1,45,8|0,0:0|0:0,0:0:0:0:
17,47,40801,1,2,0:0:0:0:
158,128,41039,5,8,0:0:0:0:
283,24,41278,2,0,L|352:15,1,45,2|0,0:0|0:0,0:0:0:0:
434,4,41516,1,8,0:0:0:0:
265,138,41754,2,0,L|334:129,1,45,0|0,3:0|3:0,0:0:0:0:
416,118,41992,1,8,0:0:0:0:
250,256,42230,2,0,L|319:247,1,45,0|0,3:0|3:0,0:0:0:0:
401,236,42468,1,8,0:0:0:0:
401,236,42587,1,8,3:0:0:0:
401,236,42706,2,0,P|428:237|464:258,1,53.9999983520508,10|0,2:3|0:0,0:0:0:0:
401,342,42944,6,0,L|293:356,1,90,8|0,3:0|0:0,0:0:0:0:
97,383,43420,1,2,0:0:0:0:
18,181,43659,1,2,0:0:0:0:
18,181,43778,1,0,0:0:0:0:
18,181,43897,2,0,P|50:133|50:80,1,90,2|2,0:0|0:0,0:0:0:0:
60,21,44254,1,0,0:0:0:0:
129,62,44373,2,0,P|177:94|230:94,1,90,2|2,0:0|0:0,0:0:0:0:
367,71,44849,6,0,P|319:39|266:39,1,90,2|2,0:0|0:0,0:0:0:0:
485,34,45325,1,2,0:0:0:0:
414,179,45563,1,2,0:0:0:0:
414,179,45683,1,0,0:0:0:0:
414,179,45801,2,0,P|392:221|393:267,1,90,2|2,0:0|0:0,0:0:0:0:
392,292,46159,1,0,0:0:0:0:
392,325,46278,2,0,L|330:326,1,45,2|0,0:0|0:3,0:0:0:0:
202,328,46516,1,8,0:0:0:0:
36,322,46754,6,0,P|49:278|42:210,1,90,6|0,0:0|0:0,0:0:0:0:
48,190,47111,1,2,0:0:0:0:
46,153,47230,2,0,L|39:98,1,45,8|0,0:0|0:0,0:0:0:0:
24,1,47468,6,0,P|110:26|147:107,1,180,2|0,0:0|0:3,0:0:0:0:
153,143,48063,1,2,0:0:0:0:
151,190,48182,2,0,L|151:252,1,45,2|0,0:0|0:0,0:0:0:0:
274,302,48420,6,0,B|274:107,1,180,6|2,0:0|0:0,0:0:0:0:
296,15,49135,1,8,0:0:0:0:
424,41,49373,2,0,P|393:87|415:135,1,112.5,2|0,0:0|0:0,0:0:0:0:
442,151,50087,6,0,P|405:208|431:267,1,135,2|0,0:0|0:0,0:0:0:0:
457,292,50563,6,0,B|409:284|362:277|354:340|302:331|258:324,1,202.500007724762,6|0,0:0|0:0,0:0:0:0:
244,324,51039,2,0,L|169:281,1,67.5000025749208,8|0,0:0|0:0,0:0:0:0:
1,184,51278,1,0,0:0:0:0:
244,43,51516,1,2,0:0:0:0:
244,43,51635,2,0,L|198:123,1,67.5000025749208,0|0,3:0|0:0,0:0:0:0:
82,324,51992,1,8,0:0:0:0:
82,43,52230,1,0,0:0:0:0:
325,184,52468,5,2,0:0:0:0:
163,183,52706,1,0,0:0:0:0:
406,44,52944,2,0,P|463:94|486:158,1,135.000005149842,8|0,0:0|0:0,0:0:0:0:
498,361,53420,1,2,0:0:0:0:
465,352,53539,1,0,3:0:0:0:
432,343,53659,2,0,L|359:323,1,67.5000025749208,0|0,0:0|0:0,0:0:0:0:
211,279,53896,1,8,0:0:0:0:
385,231,54135,1,0,0:0:0:0:
322,95,54373,6,0,P|362:40|461:30,1,135.000005149842,2|0,0:0|0:0,0:0:0:0:
505,250,54849,1,8,0:0:0:0:
433,142,55087,1,0,0:0:0:0:
437,368,55325,1,2,0:0:0:0:
384,372,55444,1,0,3:0:0:0:
331,373,55563,2,0,L|231:374,1,67.5000025749208,0|0,0:0|0:0,0:0:0:0:
89,374,55801,2,0,B|97:326|97:326|89:286|89:286|97:238,1,135.000005149842,8|0,0:0|0:0,0:0:0:0:
215,1,56278,6,0,B|223:49|223:49|215:89|215:89|223:137,1,135.000005149842,2|0,0:0|0:0,0:0:0:0:
307,380,56754,1,8,0:0:0:0:
384,130,56992,1,0,0:0:0:0:
175,288,57230,5,2,0:0:0:0:
208,286,57349,1,8,3:0:0:0:
242,285,57468,1,2,0:0:0:0:
437,283,57706,5,2,0:0:0:0:
452,240,57825,1,0,0:0:0:0:
467,198,57944,1,2,3:0:0:0:
482,155,58063,1,2,3:0:0:0:
494,124,58182,6,0,P|474:65|415:23,1,135.000005149842,6|0,0:0|0:0,0:0:0:0:
172,23,58659,2,0,B|119:43|119:43|105:145,1,135.000005149842,8|0,0:0|0:0,0:0:0:0:
86,362,59135,1,2,0:0:0:0:
118,351,59254,1,0,3:0:0:0:
150,341,59373,2,0,L|230:315,1,67.5000025749208,0|0,0:0|0:0,0:0:0:0:
463,243,59611,1,8,0:0:0:0:
217,154,59849,1,0,0:0:0:0:
364,372,60087,5,2,0:0:0:0:
372,110,60325,1,0,0:0:0:0:
126,21,60563,1,8,0:0:0:0:
53,250,60801,1,2,0:0:0:0:
53,129,61039,5,2,0:0:0:0:
158,189,61278,1,2,0:0:0:0:
53,250,61516,1,2,0:0:0:0:
158,189,61754,1,0,0:0:0:0:
263,250,61992,6,0,L|263:168,1,67.5000025749208,2|0,0:0|0:0,0:0:0:0:
263,372,62230,1,2,0:0:0:0:
263,128,62468,2,0,P|325:138|369:192,1,135.000005149842,8|0,0:0|0:0,0:0:0:0:
158,312,62944,1,2,0:0:0:0:
158,68,63182,1,0,0:0:0:0:
368,190,63420,1,8,0:0:0:0:
158,190,63659,6,0,P|198:242|263:250,1,135.000005149842,8|0,0:0|0:0,0:0:0:0:
368,68,64135,1,2,0:0:0:0:
473,251,64373,6,0,P|433:198|368:190,2,135.000005149842,8|0|2,0:0|0:0|0:0,0:0:0:0:
263,128,65087,5,8,0:0:0:0:
53,250,65325,5,8,0:0:0:0:
25,207,65444,1,8,0:0:0:0:
16,158,65563,1,2,3:0:0:0:
21,107,65682,1,2,0:3:0:0:
41,61,65801,6,0,B|97:85|137:61|137:61|185:85|241:61,1,202.500007724762,6|0,0:0|0:0,0:0:0:0:
278,49,66277,2,0,L|326:109,1,67.5000025749208,8|0,0:0|0:0,0:0:0:0:
432,219,66516,1,0,0:0:0:0:
456,256,66635,1,0,3:0:0:0:
454,300,66754,1,2,0:0:0:0:
427,335,66873,2,0,L|360:334,1,67.5000025749208,0|2,0:0|0:0,0:0:0:0:
51,235,67230,1,8,0:0:0:0:
313,235,67468,1,0,0:0:0:0:
101,81,67706,5,2,0:0:0:0:
263,81,67944,1,0,0:0:0:0:
182,330,68182,2,0,L|182:189,1,135.000005149842,8|0,0:0|0:0,0:0:0:0:
360,26,68658,1,2,0:0:0:0:
360,59,68777,1,0,3:0:0:0:
360,94,68897,2,0,L|360:169,1,67.5000025749208,8|0,0:0|0:0,0:0:0:0:
359,333,69134,1,8,0:0:0:0:
255,111,69373,1,0,0:0:0:0:
255,353,69611,6,0,L|118:352,1,135.000005149842,2|0,0:0|0:0,0:0:0:0:
15,132,70087,1,8,0:0:0:0:
12,374,70325,1,0,0:0:0:0:
118,186,70563,1,2,0:0:0:0:
151,186,70682,1,0,0:0:0:0:
185,186,70801,2,0,L|259:186,1,67.5000025749208,0|0,0:0|0:0,0:0:0:0:
405,240,71039,2,0,B|437:270|439:333|406:373,1,135.000005149842,8|0,0:0|0:0,0:0:0:0:
357,127,71516,6,0,B|325:97|323:33|356:-6,1,135.000005149842,2|0,0:0|0:0,0:0:0:0:
329,306,71992,1,8,0:0:0:0:
329,306,72230,5,0,0:0:0:0:
296,305,72349,1,0,3:0:0:0:
262,305,72468,2,0,L|123:305,1,135.000005149842,2|2,0:0|0:0,0:0:0:0:
128,62,72944,5,10,0:0:0:0:
178,62,73063,1,2,3:0:0:0:
229,62,73182,1,2,3:0:0:0:
279,62,73301,1,2,3:0:0:0:
330,62,73420,6,0,P|421:98|460:214,1,202.500007724762,6|0,0:0|0:0,0:0:0:0:
463,243,73897,2,0,B|431:222|399:238|399:238|364:221|325:242,1,135.000005149842,8|0,0:0|0:0,0:0:0:0:
127,257,74373,1,2,0:0:0:0:
62,149,74611,6,0,L|141:130,1,67.5000025749208,0|0,0:0|0:0,0:0:0:0:
207,38,74849,1,8,0:0:0:0:
207,38,75087,6,0,L|249:107,1,67.5000025749208,0|0,0:0|0:0,0:0:0:0:
359,144,75325,1,2,0:0:0:0:
359,144,75563,6,0,L|306:205,1,67.5000025749208,0|0,0:0|0:0,0:0:0:0:
305,319,75801,2,0,L|229:287,1,67.5000025749208,8|0,0:0|0:0,0:0:0:0:
214,195,76039,1,0,3:0:0:0:
122,325,76278,6,0,P|62:294|26:237,1,135.000005149842,2|0,0:0|0:0,0:0:0:0:
242,95,76754,1,8,0:0:0:0:
25,213,76992,1,0,0:0:0:0:
26,183,77111,1,0,3:0:0:0:
26,157,77230,6,0,B|26:122|26:122|56:102,1,67.5000025749208,6|0,0:0|0:0,0:0:0:0:
159,45,77468,1,0,0:0:0:0:
394,95,77706,2,0,P|456:105|518:57,1,135.000005149842,8|0,0:0|0:0,0:0:0:0:
319,45,78182,1,2,0:0:0:0:
441,267,78420,1,0,0:0:0:0:
437,18,78658,1,2,0:0:0:0:
319,231,78897,6,0,P|257:221|195:269,1,135.000005149842,8|0,0:0|0:0,0:0:0:0:
391,137,79373,1,2,0:0:0:0:
369,361,79611,1,2,3:0:0:0:
325,361,79730,1,0,3:0:0:0:
281,361,79849,1,0,0:0:0:0:
237,361,79968,1,2,0:0:0:0:
193,361,80087,6,0,L|139:361,1,53.9999983520508,8|0,0:0|3:0,0:0:0:0:
85,359,80325,1,2,0:0:0:0:
71,336,80444,1,2,3:0:0:0:
55,314,80563,1,8,0:0:0:0:
25,194,81039,5,6,0:0:0:0:
241,194,81278,1,2,0:0:0:0:
52,88,81516,5,8,0:0:0:0:
226,88,81754,1,2,0:0:0:0:
205,88,81873,2,0,P|165:112|138:152,1,90,2|0,0:0|3:0,0:0:0:0:
131,243,82230,1,8,0:0:0:0:
132,27,82468,1,8,0:0:0:0:
351,29,82825,1,0,3:0:0:0:
373,29,82944,6,0,L|407:83,1,45,6|0,0:0|0:0,0:0:0:0:
477,164,83182,1,2,0:0:0:0:
420,256,83420,2,0,P|401:304|349:323,1,90,2|0,0:0|0:0,0:0:0:0:
315,330,83778,1,2,0:0:0:0:
169,360,84016,5,2,3:0:0:0:
151,340,84135,1,0,3:0:0:0:
130,319,84254,1,0,3:0:0:0:
114,299,84373,2,0,P|97:279|88:247,1,45,8|0,0:0|0:0,0:0:0:0:
48,91,84611,5,0,3:0:0:0:
40,68,84730,1,0,3:0:0:0:
35,50,84849,5,6,0:0:0:0:
219,161,85087,1,2,0:0:0:0:
3,168,85325,1,2,0:0:0:0:
180,45,85563,1,2,0:0:0:0:
180,45,85682,1,8,0:0:0:0:
375,41,85920,5,2,3:0:0:0:
398,58,86039,1,0,3:0:0:0:
416,83,86159,1,0,3:0:0:0:
424,111,86278,2,0,L|419:184,1,45,8|2,0:0|3:0,0:0:0:0:
413,258,86515,1,2,3:0:0:0:
413,258,86754,6,0,L|471:249,1,45,8|0,3:0|0:0,0:0:0:0:
338,209,86992,2,0,L|280:218,1,45,8|0,3:0|0:0,0:0:0:0:
218,166,87230,1,2,0:0:0:0:
206,193,87349,1,2,0:0:0:0:
204,223,87468,1,2,0:3:0:0:
211,252,87587,2,0,P|170:333|129:252,1,225,6|8,0:0|3:0,0:0:0:0:
