osu file format v14

[General]
AudioFilename: audio.mp3
AudioLeadIn: 0
PreviewTime: 50087
Countdown: 0
SampleSet: Soft
StackLeniency: 0.7
Mode: 0
LetterboxInBreaks: 0
WidescreenStoryboard: 1

[Editor]
DistanceSpacing: 0.8
BeatDivisor: 2
GridSize: 32
TimelineZoom: 0.3999999

[Metadata]
Title:Kimama na Tenshi tachi (TV Size)
TitleUnicode:気ままな天使たち (TV Size)
Artist:Wataten*5
ArtistUnicode:わたてん☆5
Creator:lililing
Version:Easy
Source:私に天使が舞い降りた!
Tags:指出毬亜 長江里加 鬼頭明里 大和田仁美 大空直美による opening moe anime Watashi ni Tenshi ga Maiorita! UjiMatcha pappl e 104
BeatmapID:1910183
BeatmapSetID:908133

[Difficulty]
HPDrainRate:2
CircleSize:2.5
OverallDifficulty:2
ApproachRate:3
SliderMultiplier:1.19999990463257
SliderTickRate:1

[Events]
//Background and Video events
0,0,"20190116183015.jpg",0,0
Video,0,"mv.mp4"
//Break Periods
//Storyboard Layer 0 (Background)
//Storyboard Layer 1 (Fail)
//Storyboard Layer 2 (Pass)
//Storyboard Layer 3 (Foreground)
//Storyboard Sound Samples

[TimingPoints]
1040,476.190476190476,4,2,1,60,1,0
7944,-100,4,2,1,60,0,0
8182,-100,4,2,8,70,0,0
8659,-100,4,2,8,80,0,0
18182,-100,4,2,8,70,0,0
20087,-100,4,2,1,60,0,0
26992,-100,4,2,8,65,0,0
34611,-100,4,2,1,65,0,0
35325,-100,4,2,8,70,0,0
44849,-100,4,2,8,75,0,0
46754,-100,4,2,8,80,0,0
50563,-100,4,2,8,90,0,1
63897,-100,4,2,8,85,0,0
65801,-100,4,2,8,90,0,1
79135,-100,4,2,8,85,0,0
79611,-100,4,2,8,80,0,0
80087,-100,4,2,8,75,0,0
81040,-100,4,2,8,70,0,0
88182,-100,4,2,8,50,0,0

[Colours]
Combo1 : 128,0,128
Combo2 : 255,128,0
Combo3 : 255,255,0
Combo4 : 128,64,0

[HitObjects]
58,62,1040,5,6,0:0:0:0:
153,71,1516,2,0,P|168:134|146:188,1,119.999990463257,8|2,0:0|0:0,2:2:0:0:
73,242,2468,2,0,B|128:212|191:205|251:215|311:249,1,239.999980926514,8|8,0:0|0:0,2:2:0:0:
393,278,3897,1,2,0:0:0:0:
416,184,4373,6,0,L|431:55,2,119.999990463257,8|2|8,0:0|0:0|0:0,2:2:0:0:
393,278,5801,1,2,0:0:0:0:
317,337,6278,2,0,B|262:367|199:374|139:364|79:330,1,239.999980926514,8|8,0:0|0:0,2:2:0:0:
7,280,7706,2,0,L|74:168,1,119.999990463257,2|8,0:0|0:0,2:2:0:0:
120,95,8659,6,0,P|60:80|6:104,2,119.999990463257,6|2|2,0:0|0:0|0:0,2:2:0:0:
191,158,10087,2,0,P|251:173|305:149,1,119.999990463257,2|2,0:0|0:0,2:2:0:0:
242,76,11039,1,2,0:0:0:0:
311,9,11516,2,0,L|403:108,1,119.999990463257,2|2,0:0|0:0,2:2:0:0:
466,158,12468,6,0,P|488:99|477:45,2,119.999990463257,6|2|2,0:0|0:0|0:0,2:2:0:0:
393,220,13897,1,8,0:0:0:0:
438,304,14373,1,2,0:0:0:0:
365,366,14849,2,0,L|240:358,1,119.999990463257,0|2,0:0|0:0,2:2:0:0:
149,355,15801,1,8,0:0:0:0:
51,352,16278,6,0,P|82:294|85:221,1,119.999990463257,6|2,0:0|0:0,2:2:0:0:
35,160,17230,2,0,P|42:100|71:48,1,119.999990463257,2|0,0:0|2:2,2:2:0:0:
163,20,18182,1,2,0:3:0:0:
221,96,18659,1,8,0:0:0:0:
290,25,19135,2,0,L|411:14,1,119.999990463257,14|0,0:0|2:2,2:2:0:0:
505,7,20087,5,6,0:0:0:0:
468,95,20563,2,0,L|477:221,1,119.999990463257,8|0,0:0|2:2,2:2:0:0:
508,298,21516,2,0,B|458:337|458:337|394:319,1,119.999990463257,8|0,0:0|2:2,2:2:0:0:
342,253,22468,2,0,P|286:248|233:286,2,119.999990463257,8|0|8,0:0|2:2|0:0,2:2:0:0:
311,344,23897,6,0,P|262:377|204:373,1,119.999990463257,2|8,0:0|0:0,2:2:0:0:
143,299,24849,2,0,L|142:174,2,119.999990463257,0|8|2,2:2|0:0|0:0,2:2:0:0:
80,372,26278,1,8,0:0:0:0:
1,318,26754,2,0,L|0:193,1,119.999990463257,0|8,3:0|0:0,2:2:0:0:
30,107,27706,5,6,0:0:0:0:
71,20,28182,2,0,B|128:2|128:2|194:28,1,119.999990463257,8|0,0:0|2:2,2:2:0:0:
251,92,29135,2,0,L|375:66,1,119.999990463257,8|2,0:0|0:0,2:2:0:0:
442,5,30087,2,0,P|463:62|448:117,1,119.999990463257,8|0,0:0|2:2,2:2:0:0:
396,198,31039,1,8,0:0:0:0:
458,270,31516,6,0,B|403:310|346:278|346:278|277:238|212:290,1,239.999980926514,2|0,0:0|2:2,2:2:0:0:
148,323,32944,1,8,0:0:0:0:
64,370,33420,2,0,B|24:315|57:258|57:258|96:189|44:124,1,239.999980926514,2|8,0:0|0:0,2:2:0:0:
15,55,34849,1,8,0:0:0:0:
110,58,35325,6,0,L|237:34,1,119.999990463257,6|8,0:0|0:0,2:2:0:0:
322,51,36278,2,0,L|449:27,2,119.999990463257,8|8|8,0:0|0:0|0:0,2:2:0:0:
260,124,37706,1,8,0:0:0:0:
344,169,38182,2,0,L|471:145,2,119.999990463257,8|8|8,0:0|0:0|0:3,2:2:0:0:
271,231,39611,5,8,0:3:0:0:
327,308,40087,1,8,0:0:0:0:
249,364,40563,2,0,P|193:363|126:333,1,119.999990463257,8|8,0:0|0:0,2:2:0:0:
58,279,41516,2,0,L|47:146,1,119.999990463257,2|8,3:0|0:0,2:2:0:0:
90,73,42468,1,2,0:0:0:0:
165,132,42944,6,0,L|174:251,2,119.999990463257,8|2|2,3:0|0:0|0:0,2:2:0:0:
218,52,44373,1,2,0:0:0:0:
274,129,44849,2,0,P|337:128|390:102,1,119.999990463257,2|2,0:0|0:0,2:2:0:0:
472,58,45801,2,0,L|481:177,1,119.999990463257,2|2,0:0|0:0,2:2:0:0:
489,273,46754,5,6,0:0:0:0:
394,258,47230,2,0,B|335:248|335:248|290:289,1,119.999990463257,8|0,0:0|2:2,2:2:0:0:
220,360,48182,2,0,P|74:314|40:182,1,299.999976158143,2|2,0:0|0:0,2:2:0:0:
87,48,50087,5,2,0:0:0:0:
152,118,50563,2,0,P|209:148|262:114,1,119.999990463257,6|8,0:0|0:0,2:2:0:0:
313,49,51516,2,0,P|366:26|415:56,1,119.999990463257,2|8,0:0|0:0,2:2:0:0:
481,125,52468,2,0,P|470:190|469:265,1,119.999990463257,2|8,0:0|0:0,2:2:0:0:
468,339,53420,1,2,0:0:0:0:
378,292,53897,6,0,L|259:322,1,119.999990463257,8|2,0:0|0:0,2:2:0:0:
167,303,54849,2,0,L|48:333,2,119.999990463257,8|2|8,0:0|0:0|0:0,2:2:0:0:
218,221,56278,1,2,0:0:0:0:
133,174,56754,2,0,P|114:115|135:61,1,119.999990463257,8|2,0:0|0:0,2:2:0:0:
219,19,57706,6,0,L|356:22,1,119.999990463257,8|6,0:0|0:0,2:2:0:0:
419,74,58659,1,8,0:0:0:0:
336,122,59135,2,0,L|216:119,2,119.999990463257,2|8|2,0:0|0:0|0:0,2:2:0:0:
418,170,60563,2,0,P|436:229|416:283,1,119.999990463257,8|2,0:0|0:0,2:2:0:0:
351,350,61515,1,2,0:0:0:0:
289,276,61992,6,0,B|172:241,1,119.999990463257,2|8,0:0|0:0,2:2:0:0:
81,214,62944,2,0,P|99:305|186:337,2,179.999985694886,2|8|8,0:0|0:0|0:0,2:2:0:0:
104,120,64849,2,0,L|231:102,1,119.999990463257,2|8,0:0|0:0,2:2:0:0:
281,27,65801,6,0,L|408:45,1,119.999990463257,6|8,0:0|0:0,2:2:0:0:
494,57,66754,2,0,P|464:116|465:169,1,119.999990463257,2|8,0:0|0:0,2:2:0:0:
501,257,67706,2,0,P|500:316|471:368,1,119.999990463257,2|8,0:0|0:0,2:2:0:0:
378,347,68659,1,2,0:0:0:0:
298,293,69135,6,0,L|199:218,1,119.999990463257,8|2,0:0|0:0,2:2:0:0:
139,292,70087,2,0,L|234:364,2,119.999990463257,8|2|8,0:0|0:0|0:0,2:2:0:0:
99,204,71516,1,2,0:0:0:0:
10,166,71992,2,0,P|51:121|112:108,1,119.999990463257,8|2,0:0|0:0,2:2:0:0:
189,156,72944,6,0,B|301:99,1,119.999990463257,2|6,0:0|0:0,2:2:0:0:
349,21,73897,2,0,P|389:71|386:136,1,119.999990463257,8|2,0:0|0:0,2:2:0:0:
356,214,74849,2,0,L|506:256,1,119.999990463257,8|2,0:0|0:0,2:2:0:0:
471,342,75801,2,0,B|335:361,1,119.999990463257,8|2,0:0|0:0,2:2:0:0:
257,372,76753,1,8,0:0:0:0:
165,343,77230,6,0,L|162:203,1,119.999990463257,6|8,0:0|0:0,2:2:0:0:
71,193,78182,2,0,L|59:392,2,179.999985694886,2|8|2,0:0|0:0|3:0,2:2:0:0:
77,97,80087,2,0,P|116:47|185:31,1,119.999990463257,8|8,0:0|0:0,2:2:0:0:
263,41,81039,6,0,L|397:8,2,119.999990463257,6|8|0,0:0|0:0|2:2,2:2:0:0:
197,111,82468,1,8,0:0:0:0:
285,150,82944,2,0,L|419:117,1,119.999990463257,6|2,0:0|0:0,2:2:0:0:
492,89,83897,2,0,B|510:149|510:233,1,119.999990463257,0|8,2:2|0:0,2:2:0:0:
499,303,84849,6,0,P|444:331|389:322,2,119.999990463257,6|2|0,0:0|0:0|2:2,2:2:0:0:
430,238,86278,1,8,0:0:0:0:
334,243,86754,2,0,L|214:289,1,119.999990463257,8|2,3:0|0:0,2:2:0:0:
133,323,87706,1,0,2:2:0:0:
51,374,88182,2,0,P|37:311|69:250,1,119.999990463257,8|0,3:0|2:2,2:2:0:0:
