osu file format v14

[General]
AudioFilename: audio.mp3
AudioLeadIn: 0
PreviewTime: 65781
Countdown: 0
SampleSet: Soft
StackLeniency: 0.7
Mode: 3
LetterboxInBreaks: 0
SpecialStyle: 0
WidescreenStoryboard: 0

[Editor]
DistanceSpacing: 0.5
BeatDivisor: 4
GridSize: 16
TimelineZoom: 1

[Metadata]
Title:Ganbare! Kumoko-san no Thema (TV Size)
TitleUnicode:がんばれ!蜘蛛子さんのテーマ (TV Size)
Artist:Watashi (CV: Yuuki Aoi)
ArtistUnicode:私(CV:悠木碧)
Creator:Shirou
Version:Reina's Easy
Source:蜘蛛ですが、なにか?
Tags:So I'm a Spider, What? Kumo Desu ga, Nani ka? kumodesu rock jrock j-rock anime ending ed japanese speedcore 11Bit _Asha Al-Reina cryochan FAMoss
BeatmapID:2884974
BeatmapSetID:1398110

[Difficulty]
HPDrainRate:6.5
CircleSize:4
OverallDifficulty:7
ApproachRate:5
SliderMultiplier:1.4
SliderTickRate:1

[Events]
//Background and Video events
0,0,"spidey.jpg",0,0
Video,-26,"bga.mp4"
//Break Periods
//Storyboard Layer 0 (Background)
//Storyboard Layer 1 (Fail)
//Storyboard Layer 2 (Pass)
//Storyboard Layer 3 (Foreground)
//Storyboard Layer 4 (Overlay)
//Storyboard Sound Samples

[TimingPoints]
79,315.789473684211,4,2,1,40,1,0
2605,-100,4,2,1,50,0,0
5131,-100,4,2,1,60,0,0
7657,-100,4,2,1,70,0,1
17763,-100,4,2,1,70,0,0
38026,474.308300395257,4,2,2,80,1,0
38026,-66.6666666666667,4,2,2,80,0,0
39923,481.154771451484,4,2,2,80,1,0
39923,-65.7894736842105,4,2,2,80,0,0
43772,478.08764940239,4,2,2,80,1,0
43772,-66.2251655629139,4,2,2,80,0,0
47596,480,4,2,2,80,1,0
47596,-65.7894736842105,4,2,2,80,0,0
50476,486.61800486618,4,2,2,80,1,0
50476,-64.9350649350649,4,2,2,80,0,0
51449,471.883602044829,4,2,2,80,1,0
51449,-67.1140939597315,4,2,2,80,0,0
53336,428.571428571429,4,2,1,70,1,0
53336,-74.0740740740741,4,2,1,70,0,0
55050,387.096774193548,4,2,1,70,1,0
55050,-81.9672131147541,4,2,1,70,0,0
56598,352.941176470588,4,2,1,70,1,0
56598,-90.0900900900901,4,2,1,70,0,0
58009,338.983050847458,4,2,1,70,1,0
58009,-93.4579439252336,4,2,1,70,0,0
59364,324.324324324324,4,2,1,70,1,0
59364,-98.0392156862745,4,2,1,70,0,0
63255,315.789473684211,4,2,1,70,1,0
65781,-100,4,2,1,70,0,1
75570,-100,4,2,1,70,0,0
75886,-100,4,2,1,70,0,1
85991,-100,4,2,1,70,0,0
86234,315.789473684211,4,2,1,70,1,0

[HitObjects]
448,192,79,5,0,0:0:0:0:
320,192,710,1,0,0:0:0:0:
64,192,1342,1,0,0:0:0:0:
192,192,1973,1,0,0:0:0:0:
320,192,2605,1,0,0:0:0:0:
64,192,3236,1,0,0:0:0:0:
320,192,3868,1,0,0:0:0:0:
192,192,4500,1,0,0:0:0:0:
64,192,5131,128,0,5447:0:0:0:0:
192,192,5447,128,0,5763:0:0:0:0:
320,192,5763,128,0,6079:0:0:0:0:
448,192,6079,128,0,6394:0:0:0:0:
64,192,6394,128,0,7342:0:0:0:0:
448,192,7342,1,0,0:0:0:70:Clap Drum.wav
192,192,7657,1,2,0:0:0:0:
448,192,7657,1,4,0:0:0:0:
64,192,7973,1,2,0:0:0:0:
320,192,8289,1,2,0:0:0:0:
192,192,8605,1,2,0:0:0:0:
320,192,8921,1,2,0:0:0:0:
64,192,9236,1,2,0:0:0:0:
448,192,9552,1,2,0:0:0:0:
192,192,9868,1,2,0:0:0:0:
448,192,10184,1,2,0:0:0:0:
64,192,10500,1,2,0:0:0:0:
320,192,10815,1,2,0:0:0:0:
192,192,11131,1,2,0:0:0:0:
320,192,11447,1,2,0:0:0:0:
64,192,11763,128,2,12079:0:0:0:0:
448,192,12079,128,2,12394:0:0:0:0:
192,192,12394,128,2,12710:0:0:0:0:
320,192,12710,1,4,0:0:0:0:
448,192,12710,1,2,0:0:0:0:
64,192,13026,1,2,0:0:0:0:
448,192,13342,1,2,0:0:0:0:
192,192,13657,1,2,0:0:0:0:
448,192,13973,1,2,0:0:0:0:
64,192,14289,5,2,0:0:0:0:
320,192,14605,1,2,0:0:0:0:
192,192,14921,1,2,0:0:0:0:
192,192,15236,5,8,0:0:0:0:
320,192,15236,1,4,0:0:0:0:
64,192,15710,1,8,0:0:0:0:
320,192,15710,1,4,0:0:0:0:
192,192,16184,1,8,0:0:0:0:
448,192,16184,1,4,0:0:0:0:
64,192,16657,5,2,0:0:0:0:
192,192,16815,1,8,0:0:0:0:
448,192,16973,1,2,0:0:0:0:
320,192,17131,1,12,0:0:0:0:
64,192,17289,128,8,17763:0:0:0:0:
448,192,17763,5,4,0:0:0:0:
320,192,17763,1,2,0:0:0:0:
64,192,18079,1,2,0:0:0:0:
320,192,18394,1,2,0:0:0:0:
64,192,18710,1,2,0:0:0:0:
448,192,19026,1,2,0:0:0:0:
192,192,19342,1,2,0:0:0:0:
448,192,19657,1,2,0:0:0:0:
320,192,19815,1,0,0:0:0:0:
192,192,19973,1,2,0:0:0:0:
448,192,20289,1,2,0:0:0:0:
64,192,20605,1,2,0:0:0:0:
320,192,20921,1,2,0:0:0:0:
192,192,21236,1,2,0:0:0:0:
320,192,21394,128,0,21868:0:0:0:0:
448,192,21868,128,2,22184:0:0:0:0:
64,192,22184,128,2,22500:0:0:0:0:
320,192,22500,1,2,0:0:0:0:
192,192,22815,1,2,0:0:0:0:
448,192,23131,1,2,0:0:0:0:
192,192,23447,1,2,0:0:0:0:
448,192,23763,1,2,0:0:0:0:
64,192,24079,1,2,0:0:0:0:
320,192,24394,1,2,0:0:0:0:
64,192,24710,1,2,0:0:0:0:
192,192,24868,1,0,0:0:0:0:
320,192,25026,1,2,0:0:0:0:
64,192,25342,1,2,0:0:0:0:
448,192,25657,1,2,0:0:0:0:
192,192,25973,1,2,0:0:0:0:
320,192,26289,1,2,0:0:0:0:
192,192,26447,1,8,0:0:0:0:
64,192,26605,1,2,0:0:0:0:
448,192,26605,1,4,0:0:0:0:
320,192,26921,1,6,0:0:0:0:
192,192,27236,1,4,0:0:0:0:
320,192,27236,1,8,0:0:0:0:
64,192,27552,128,8,27868:0:0:0:0:
320,192,27868,1,2,0:0:0:0:
448,192,27868,1,4,0:0:0:0:
192,192,28184,1,8,0:0:0:0:
448,192,28657,1,2,0:0:0:0:
192,192,28815,128,8,29131:0:0:0:0:
320,192,29131,1,2,0:0:0:0:
64,192,29447,1,8,0:0:0:0:
448,192,29605,1,2,0:0:0:0:
320,192,29921,1,2,0:0:0:0:
64,192,30079,128,8,30394:0:0:0:0:
448,192,30394,1,2,0:0:0:0:
192,192,30710,1,8,0:0:0:0:
320,192,31184,1,2,0:0:0:0:
64,192,31342,1,8,0:0:0:0:
448,192,31657,128,2,31973:0:0:0:0:
320,192,31973,128,8,32289:0:0:0:0:
192,192,32289,128,0,32605:0:0:0:0:
448,192,32605,1,8,0:0:0:0:
192,192,32921,1,2,0:0:0:0:
448,192,33236,1,8,0:0:0:0:
64,192,33710,1,2,0:0:0:0:
448,192,33868,1,8,0:0:0:0:
192,192,34184,1,2,0:0:0:0:
448,192,34342,5,2,0:0:0:0:
320,192,34500,1,8,0:0:0:0:
448,192,34815,1,2,0:0:0:0:
64,192,34973,1,2,0:0:0:0:
192,192,35131,1,8,0:0:0:0:
448,192,35447,5,2,0:0:0:0:
192,192,35447,1,4,0:0:0:0:
320,192,35763,5,8,0:0:0:0:
64,192,36079,5,2,0:0:0:0:
320,192,36079,1,4,0:0:0:0:
192,192,36394,1,8,0:0:0:0:
192,192,36710,5,4,0:0:0:0:
448,192,36710,1,2,0:0:0:0:
448,192,37026,1,6,0:0:0:0:
64,192,37342,128,4,38026:0:0:0:0:
192,192,37342,1,2,0:0:0:0:
448,192,38026,1,0,0:0:0:0:
320,192,39923,1,0,0:0:0:0:
192,192,41847,1,0,0:0:0:0:
320,192,42809,1,0,0:0:0:0:
448,192,43772,1,0,0:0:0:0:
64,192,45684,1,0,0:0:0:0:
192,192,47596,1,0,0:0:0:0:
448,192,49516,1,0,0:0:0:0:
320,192,50476,1,0,0:0:0:0:
192,192,51449,1,0,0:0:0:0:
64,192,53336,1,12,0:0:0:0:
320,192,53657,1,12,0:0:0:0:
64,192,53978,1,12,0:0:0:0:
448,192,54193,128,12,54621:0:0:0:0:
192,192,55050,1,12,0:0:0:0:
448,192,55340,1,12,0:0:0:0:
192,192,55630,1,12,0:0:0:0:
320,192,55824,128,12,56211:0:0:0:0:
448,192,56598,1,12,0:0:0:0:
64,192,56862,1,12,0:0:0:0:
448,192,57127,1,12,0:0:0:0:
192,192,57303,128,12,57656:0:0:0:0:
320,192,58009,1,12,0:0:0:0:
192,192,58263,1,12,0:0:0:0:
320,192,58517,1,12,0:0:0:0:
64,192,58686,128,12,59025:0:0:0:0:
320,192,59364,1,12,0:0:0:0:
64,192,59688,1,8,0:0:0:0:
448,192,60012,1,8,0:0:0:0:
192,192,60336,1,8,0:0:0:0:
320,192,60661,1,8,0:0:0:0:
64,192,60985,1,8,0:0:0:0:
448,192,61309,1,8,0:0:0:0:
192,192,61634,1,8,0:0:0:0:
64,192,61958,128,10,62282:0:0:0:0:
192,192,62282,128,10,62607:0:0:0:0:
320,192,62607,128,10,62931:0:0:0:0:
448,192,62931,128,10,63255:0:0:0:0:
64,192,63255,128,10,63570:0:0:0:0:
192,192,63570,128,10,63886:0:0:0:0:
448,192,63886,128,2,64518:0:0:0:0:
64,192,64518,1,2,0:0:0:0:
320,192,64676,1,0,0:0:0:0:
192,192,64833,1,0,0:0:0:0:
448,192,64991,1,0,0:0:0:0:
64,192,65149,1,0,0:0:0:0:
320,192,65465,1,0,0:0:0:70:Clap Drum.wav
64,192,65781,1,8,0:0:0:0:
320,192,65781,1,4,0:0:0:0:
448,192,66018,1,2,0:0:0:0:
64,192,66255,1,8,0:0:0:0:
320,192,66412,1,8,0:0:0:0:
192,192,66649,1,2,0:0:0:0:
320,192,66886,1,8,0:0:0:0:
64,192,67044,1,4,0:0:0:0:
192,192,67044,1,8,0:0:0:0:
448,192,67281,1,2,0:0:0:0:
64,192,67518,1,8,0:0:0:0:
320,192,67676,1,8,0:0:0:0:
192,192,67991,128,8,68307:0:0:0:0:
320,192,68307,1,4,0:0:0:0:
448,192,68307,1,8,0:0:0:0:
64,192,68544,1,2,0:0:0:0:
320,192,68781,1,8,0:0:0:0:
192,192,68939,1,8,0:0:0:0:
448,192,69176,1,2,0:0:0:0:
192,192,69412,1,8,0:0:0:0:
448,192,69570,128,8,70202:0:0:0:0:
320,192,69570,1,4,0:0:0:0:
64,192,69886,1,12,0:0:0:0:
192,192,70202,1,0,0:0:0:40:Kick #5.1.wav
320,192,70360,1,0,0:0:0:40:Kick #5.1.wav
192,192,70518,1,0,0:0:0:40:Kick #5.1.wav
320,192,70676,1,0,0:0:0:40:Kick #5.1.wav
448,192,70833,1,8,0:0:0:0:
64,192,70833,1,4,0:0:0:0:
192,192,71149,1,8,0:0:0:0:
448,192,71307,1,8,0:0:0:0:
64,192,71465,1,8,0:0:0:0:
320,192,71702,1,2,0:0:0:0:
64,192,71939,1,8,0:0:0:0:
448,192,72097,1,8,0:0:0:0:
320,192,72097,1,4,0:0:0:0:
192,192,72333,1,2,0:0:0:0:
448,192,72570,1,8,0:0:0:0:
64,192,72728,128,8,73360:0:0:0:0:
320,192,73360,1,4,0:0:0:0:
448,192,73360,1,8,0:0:0:0:
192,192,73597,1,2,0:0:0:0:
320,192,73833,1,8,0:0:0:0:
64,192,73991,1,8,0:0:0:0:
448,192,74228,1,2,0:0:0:0:
64,192,74465,1,8,0:0:0:0:
320,192,74623,128,4,74939:0:0:0:0:
448,192,74623,1,8,0:0:0:0:
192,192,74939,128,8,75255:0:0:0:0:
320,192,75255,128,12,75570:0:0:0:0:
64,192,75570,1,0,0:0:0:70:Clap Drum.wav
448,192,75886,1,0,0:0:0:40:Kick #5.1.wav
64,192,75886,1,4,0:0:0:0:
448,192,76202,1,0,0:0:0:40:Kick #5.1.wav
192,192,76518,1,0,0:0:0:40:Kick #5.1.wav
192,192,76833,1,0,0:0:0:40:Kick #5.1.wav
448,192,77149,128,0,77781:0:0:0:40:Kick #5.1.wav
64,192,77465,1,0,0:0:0:40:Kick #5.1.wav
192,192,77781,1,0,0:0:0:40:Kick #5.1.wav
320,192,78097,128,8,78412:0:0:0:0:
192,192,78412,1,0,0:0:0:40:Kick #5.1.wav
192,192,78728,1,0,0:0:0:40:Kick #5.1.wav
448,192,79044,1,0,0:0:0:40:Kick #5.1.wav
448,192,79360,1,0,0:0:0:40:Kick #5.1.wav
192,192,79676,128,0,80307:0:0:0:40:Kick #5.1.wav
320,192,79991,1,0,0:0:0:40:Kick #5.1.wav
448,192,80307,1,0,0:0:0:0:
64,192,80623,1,0,0:0:0:70:Clap Drum.wav
448,192,80939,128,0,82202:0:0:0:40:Kick #5.1.wav
64,192,80939,1,4,0:0:0:0:
192,192,81255,1,0,0:0:0:40:Kick #5.1.wav
320,192,81570,1,0,0:0:0:40:Kick #5.1.wav
64,192,81886,1,0,0:0:0:40:Kick #5.1.wav
320,192,82202,128,0,83465:0:0:0:40:Kick #5.1.wav
192,192,82518,1,0,0:0:0:40:Kick #5.1.wav
448,192,82833,1,0,0:0:0:40:Kick #5.1.wav
64,192,83149,1,8,0:0:0:0:
192,192,83465,128,0,84728:0:0:0:40:Kick #5.1.wav
448,192,83781,1,0,0:0:0:40:Kick #5.1.wav
64,192,84097,1,0,0:0:0:40:Kick #5.1.wav
320,192,84412,1,0,0:0:0:40:Kick #5.1.wav
64,192,84728,128,0,85991:0:0:0:40:Kick #5.1.wav
320,192,85044,5,0,0:0:0:40:Kick #5.1.wav
192,192,85360,1,0,0:0:0:40:Kick #5.1.wav
448,192,85676,1,0,0:0:0:70:Clap Drum.wav
448,192,86234,128,0,88444:0:0:0:70:Clap Drum.wav
320,192,86234,128,6,88444:0:0:0:0:
