osu file format v14

[General]
AudioFilename: audio.mp3
AudioLeadIn: 0
PreviewTime: 65781
Countdown: 0
SampleSet: Soft
StackLeniency: 0.7
Mode: 3
LetterboxInBreaks: 0
SpecialStyle: 0
WidescreenStoryboard: 1

[Editor]
DistanceSpacing: 0.5
BeatDivisor: 4
GridSize: 16
TimelineZoom: 1.7

[Metadata]
Title:Ganbare! Kumoko-san no Thema (TV Size)
TitleUnicode:がんばれ!蜘蛛子さんのテーマ (TV Size)
Artist:Watashi (CV: Yuuki Aoi)
ArtistUnicode:私(CV:悠木碧)
Creator:Shirou
Version:Asha's Normal
Source:蜘蛛ですが、なにか?
Tags:So I'm a Spider, What? Kumo Desu ga, Nani ka? kumodesu rock jrock j-rock anime ending ed japanese speedcore 11Bit _Asha Al-Reina cryochan FAMoss
BeatmapID:2886292
BeatmapSetID:1398110

[Difficulty]
HPDrainRate:7
CircleSize:4
OverallDifficulty:7.5
ApproachRate:5
SliderMultiplier:1.4
SliderTickRate:1

[Events]
//Background and Video events
0,0,"spidey.jpg",0,0
Video,-26,"bga.mp4"
//Break Periods
//Storyboard Layer 0 (Background)
//Storyboard Layer 1 (Fail)
//Storyboard Layer 2 (Pass)
//Storyboard Layer 3 (Foreground)
//Storyboard Layer 4 (Overlay)
//Storyboard Sound Samples

[TimingPoints]
79,315.789473684211,4,2,1,40,1,0
2605,-100,4,2,1,50,0,0
5131,-100,4,2,1,60,0,0
7657,-100,4,2,1,70,0,1
17763,-100,4,2,1,70,0,0
38026,474.308300395257,4,2,2,80,1,0
38026,-66.6666666666667,4,2,2,80,0,0
39923,481.154771451484,4,2,2,80,1,0
39923,-65.7894736842105,4,2,2,80,0,0
43772,478.08764940239,4,2,2,80,1,0
43772,-66.2251655629139,4,2,2,80,0,0
47596,480,4,2,2,80,1,0
47596,-65.7894736842105,4,2,2,80,0,0
50476,486.61800486618,4,2,2,80,1,0
50476,-64.9350649350649,4,2,2,80,0,0
51449,471.883602044829,4,2,2,80,1,0
51449,-67.1140939597315,4,2,2,80,0,0
53336,428.571428571429,4,2,1,70,1,0
53336,-74.0740740740741,4,2,1,70,0,0
55050,387.096774193548,4,2,1,70,1,0
55050,-81.9672131147541,4,2,1,70,0,0
56598,352.941176470588,4,2,1,70,1,0
56598,-90.0900900900901,4,2,1,70,0,0
58009,338.983050847458,4,2,1,70,1,0
58009,-93.4579439252336,4,2,1,70,0,0
59364,324.324324324324,4,2,1,70,1,0
59364,-98.0392156862745,4,2,1,70,0,0
63255,315.789473684211,4,2,1,70,1,0
65781,-100,4,2,1,70,0,1
75570,-100,4,2,1,70,0,0
75886,-100,4,2,1,70,0,1
85991,-100,4,2,1,70,0,0
86234,315.789473684211,4,2,1,70,1,0

[HitObjects]
448,192,79,5,0,0:0:0:0:
192,192,394,1,0,0:0:0:0:
448,192,710,1,0,0:0:0:0:
192,192,1026,1,0,0:0:0:0:
64,192,1342,1,0,0:0:0:0:
320,192,1657,1,0,0:0:0:0:
64,192,1973,1,0,0:0:0:0:
192,192,2131,1,0,0:0:0:0:
320,192,2289,1,0,0:0:0:0:
192,192,2605,1,0,0:0:0:0:
448,192,2921,1,0,0:0:0:0:
64,192,3236,1,0,0:0:0:0:
320,192,3394,1,0,0:0:0:0:
192,192,3552,1,0,0:0:0:0:
320,192,3868,1,0,0:0:0:0:
64,192,4184,1,0,0:0:0:0:
448,192,4500,1,0,0:0:0:0:
192,192,4657,1,0,0:0:0:0:
320,192,4815,1,0,0:0:0:0:
64,192,5131,128,0,5289:0:0:0:0:
320,192,5289,128,0,5447:0:0:0:0:
192,192,5447,128,0,5605:0:0:0:0:
448,192,5605,128,0,5763:0:0:0:0:
64,192,5763,128,0,5921:0:0:0:0:
320,192,5921,128,0,6079:0:0:0:0:
192,192,6079,128,0,6236:0:0:0:0:
448,192,6236,128,0,6394:0:0:0:0:
64,192,6394,128,0,7184:0:0:0:0:
192,192,6394,128,0,7184:0:0:0:0:
448,192,7184,1,2,0:0:0:0:
320,192,7263,1,2,0:0:0:0:
192,192,7342,1,0,0:0:0:70:Clap Drum.wav
64,192,7342,1,0,0:0:0:0:
448,192,7657,1,2,0:0:0:0:
320,192,7657,1,4,0:0:0:0:
192,192,7815,1,8,0:0:0:0:
320,192,7973,1,2,0:0:0:0:
64,192,7973,1,0,0:0:0:0:
320,192,8131,1,8,0:0:0:0:
64,192,8131,1,0,0:0:0:0:
448,192,8289,1,2,0:0:0:0:
64,192,8447,1,8,0:0:0:0:
320,192,8605,1,2,0:0:0:0:
448,192,8605,1,0,0:0:0:0:
448,192,8763,1,8,0:0:0:0:
320,192,8763,1,0,0:0:0:0:
192,192,8921,1,2,0:0:0:0:
448,192,9079,1,8,0:0:0:0:
64,192,9236,1,2,0:0:0:0:
192,192,9236,1,0,0:0:0:0:
64,192,9394,1,8,0:0:0:0:
192,192,9394,1,0,0:0:0:0:
320,192,9552,1,2,0:0:0:0:
64,192,9710,1,8,0:0:0:0:
192,192,9868,1,2,0:0:0:0:
448,192,9868,1,0,0:0:0:0:
192,192,10026,1,8,0:0:0:0:
448,192,10026,1,0,0:0:0:0:
320,192,10184,1,2,0:0:0:0:
64,192,10342,1,8,0:0:0:0:
448,192,10500,128,2,10657:0:0:0:0:
192,192,10657,128,8,10815:0:0:0:0:
320,192,10815,128,2,11131:0:0:0:0:
192,192,10973,1,8,0:0:0:0:
64,192,11131,128,2,11289:0:0:0:0:
448,192,11289,1,8,0:0:0:0:
192,192,11447,1,2,0:0:0:0:
320,192,11605,1,8,0:0:0:0:
448,192,11763,128,2,12079:0:0:0:0:
192,192,11921,1,8,0:0:0:0:
64,192,12079,128,2,12394:0:0:0:0:
448,192,12236,1,8,0:0:0:0:
320,192,12394,128,2,12710:0:0:0:0:
192,192,12552,1,8,0:0:0:0:
64,192,12710,1,4,0:0:0:0:
448,192,12710,1,2,0:0:0:0:
320,192,12868,1,8,0:0:0:0:
192,192,13026,1,2,0:0:0:0:
64,192,13026,1,0,0:0:0:0:
192,192,13184,1,8,0:0:0:0:
64,192,13184,1,0,0:0:0:0:
448,192,13342,1,2,0:0:0:0:
64,192,13500,1,8,0:0:0:0:
448,192,13657,1,2,0:0:0:0:
320,192,13657,1,0,0:0:0:0:
320,192,13815,1,8,0:0:0:0:
448,192,13815,1,0,0:0:0:0:
192,192,13973,1,2,0:0:0:0:
320,192,14131,1,8,0:0:0:0:
64,192,14289,1,2,0:0:0:0:
448,192,14289,1,0,0:0:0:0:
64,192,14447,1,8,0:0:0:0:
448,192,14447,1,0,0:0:0:0:
192,192,14605,1,2,0:0:0:0:
448,192,14763,1,8,0:0:0:0:
192,192,14921,1,2,0:0:0:0:
320,192,14921,1,0,0:0:0:0:
192,192,15079,1,8,0:0:0:0:
320,192,15079,1,0,0:0:0:0:
64,192,15236,1,8,0:0:0:0:
448,192,15236,1,4,0:0:0:0:
320,192,15394,1,2,0:0:0:0:
192,192,15552,1,2,0:0:0:0:
64,192,15710,1,8,0:0:0:0:
448,192,15710,1,4,0:0:0:0:
192,192,15868,1,2,0:0:0:0:
320,192,16026,1,2,0:0:0:0:
448,192,16184,1,8,0:0:0:0:
64,192,16184,1,4,0:0:0:0:
192,192,16500,1,6,0:0:0:0:
448,192,16657,1,2,0:0:0:0:
320,192,16736,1,8,0:0:0:0:
64,192,16815,1,8,0:0:0:0:
64,192,16973,1,2,0:0:0:0:
448,192,17131,1,8,0:0:0:0:
320,192,17131,1,4,0:0:0:0:
448,192,17289,1,8,0:0:0:0:
192,192,17447,128,2,17763:0:0:0:0:
320,192,17763,1,4,0:0:0:0:
64,192,17763,1,2,0:0:0:0:
320,192,17921,1,0,0:0:0:0:
64,192,18079,1,2,0:0:0:0:
64,192,18236,1,0,0:0:0:0:
448,192,18394,1,2,0:0:0:0:
192,192,18552,1,0,0:0:0:0:
320,192,18710,1,2,0:0:0:0:
320,192,18868,128,0,19184:0:0:0:0:
64,192,19026,1,2,0:0:0:0:
448,192,19184,1,0,0:0:0:0:
192,192,19342,1,2,0:0:0:0:
448,192,19500,1,0,0:0:0:0:
64,192,19657,128,2,19815:0:0:0:0:
320,192,19815,128,0,19973:0:0:0:0:
64,192,19973,128,2,20131:0:0:0:0:
448,192,20131,1,0,0:0:0:0:
192,192,20289,1,2,0:0:0:0:
192,192,20447,1,0,0:0:0:0:
448,192,20605,1,2,0:0:0:0:
448,192,20763,1,0,0:0:0:0:
192,192,20921,1,2,0:0:0:0:
320,192,21079,1,0,0:0:0:0:
64,192,21236,1,2,0:0:0:0:
448,192,21394,128,0,21868:0:0:0:0:
192,192,21552,1,2,0:0:0:0:
320,192,21710,1,0,0:0:0:0:
64,192,21868,128,2,22184:0:0:0:0:
448,192,22026,1,0,0:0:0:0:
320,192,22184,128,2,22500:0:0:0:0:
64,192,22342,1,0,0:0:0:0:
192,192,22500,128,2,22657:0:0:0:0:
320,192,22657,1,0,0:0:0:0:
64,192,22815,1,2,0:0:0:0:
64,192,22973,1,0,0:0:0:0:
448,192,23131,1,2,0:0:0:0:
192,192,23289,1,0,0:0:0:0:
320,192,23447,1,2,0:0:0:0:
320,192,23605,1,0,0:0:0:0:
192,192,23763,1,2,0:0:0:0:
192,192,23921,128,0,24236:0:0:0:0:
448,192,24079,1,2,0:0:0:0:
320,192,24236,1,0,0:0:0:0:
64,192,24394,1,2,0:0:0:0:
448,192,24552,1,0,0:0:0:0:
192,192,24710,128,2,24868:0:0:0:0:
320,192,24868,128,0,25026:0:0:0:0:
192,192,25026,128,2,25184:0:0:0:0:
448,192,25184,1,0,0:0:0:0:
64,192,25342,1,2,0:0:0:0:
64,192,25500,1,0,0:0:0:0:
448,192,25657,1,2,0:0:0:0:
448,192,25815,1,0,0:0:0:0:
192,192,25973,1,2,0:0:0:0:
320,192,26131,1,0,0:0:0:0:
64,192,26289,1,2,0:0:0:0:
448,192,26447,1,8,0:0:0:0:
448,192,26605,1,2,0:0:0:0:
192,192,26605,1,4,0:0:0:0:
320,192,26842,1,8,0:0:0:0:
64,192,26921,1,2,0:0:0:0:
192,192,26921,1,4,0:0:0:0:
448,192,27236,1,8,0:0:0:0:
320,192,27236,1,4,0:0:0:0:
192,192,27552,128,8,27868:0:0:0:0:
64,192,27868,1,2,0:0:0:0:
448,192,27868,1,4,0:0:0:0:
320,192,28026,1,0,0:0:0:0:
192,192,28184,1,8,0:0:0:0:
448,192,28342,1,0,0:0:0:0:
64,192,28500,128,0,28815:0:0:0:0:
320,192,28815,128,8,28973:0:0:0:0:
448,192,28815,128,0,28973:0:0:0:0:
192,192,29131,1,2,0:0:0:0:
448,192,29289,1,0,0:0:0:0:
64,192,29447,1,8,0:0:0:0:
320,192,29605,1,2,0:0:0:0:
448,192,29763,128,0,30079:0:0:0:0:
192,192,29921,1,2,0:0:0:0:
64,192,29921,1,0,0:0:0:0:
64,192,30079,128,8,30236:0:0:0:0:
192,192,30079,128,0,30236:0:0:0:0:
320,192,30394,1,2,0:0:0:0:
192,192,30552,1,0,0:0:0:0:
448,192,30710,1,8,0:0:0:0:
320,192,30868,1,0,0:0:0:0:
64,192,31026,1,0,0:0:0:0:
192,192,31184,1,2,0:0:0:0:
448,192,31342,1,8,0:0:0:0:
320,192,31500,1,0,0:0:0:0:
192,192,31657,128,2,31973:0:0:0:0:
448,192,31815,1,2,0:0:0:0:
64,192,31973,128,8,32289:0:0:0:0:
448,192,32131,1,2,0:0:0:0:
320,192,32289,128,0,32605:0:0:0:0:
192,192,32447,1,2,0:0:0:0:
64,192,32605,1,8,0:0:0:0:
448,192,32763,1,0,0:0:0:0:
192,192,32921,1,2,0:0:0:0:
64,192,33079,128,0,33394:0:0:0:0:
320,192,33236,1,8,0:0:0:0:
448,192,33394,1,0,0:0:0:0:
192,192,33552,1,0,0:0:0:0:
320,192,33710,1,2,0:0:0:0:
64,192,33868,1,8,0:0:0:0:
448,192,34026,1,0,0:0:0:0:
320,192,34184,128,2,34342:0:0:0:0:
192,192,34342,128,2,34500:0:0:0:0:
448,192,34500,128,8,34657:0:0:0:0:
64,192,34657,128,0,34815:0:0:0:0:
192,192,34815,128,2,34973:0:0:0:0:
320,192,34973,1,2,0:0:0:0:
64,192,35131,128,8,35289:0:0:0:0:
448,192,35131,128,0,35289:0:0:0:0:
192,192,35447,1,2,0:0:0:0:
64,192,35447,128,4,35763:0:0:0:0:
448,192,35605,1,0,0:0:0:0:
320,192,35763,1,8,0:0:0:0:
192,192,35921,1,0,0:0:0:0:
448,192,36079,128,2,36394:0:0:0:0:
320,192,36079,1,4,0:0:0:0:
64,192,36236,1,0,0:0:0:0:
192,192,36394,1,8,0:0:0:0:
320,192,36552,1,0,0:0:0:0:
64,192,36710,1,4,0:0:0:0:
448,192,36710,1,2,0:0:0:0:
192,192,36868,1,0,0:0:0:0:
448,192,37026,1,2,0:0:0:0:
64,192,37026,1,4,0:0:0:0:
320,192,37184,1,0,0:0:0:0:
64,192,37342,1,4,0:0:0:0:
448,192,37342,128,2,38026:0:0:0:0:
192,192,38026,1,0,0:0:0:0:
64,192,38026,128,0,39923:0:0:0:0:
320,192,39923,1,0,0:0:0:0:
448,192,39923,128,0,41847:0:0:0:0:
64,192,41847,1,0,0:0:0:0:
192,192,41847,128,0,42809:0:0:0:0:
64,192,42809,1,0,0:0:0:0:
320,192,42809,128,0,43772:0:0:0:0:
192,192,43772,1,0,0:0:0:0:
448,192,43772,128,0,45684:0:0:0:0:
320,192,45684,1,0,0:0:0:0:
64,192,45684,128,0,47596:0:0:0:0:
448,192,47596,1,0,0:0:0:0:
320,192,47596,128,0,49516:0:0:0:0:
448,192,49516,1,0,0:0:0:0:
192,192,49516,128,0,50476:0:0:0:0:
448,192,50476,128,0,51449:0:0:0:0:
320,192,50476,1,0,0:0:0:0:
192,192,51449,1,0,0:0:0:0:
64,192,51449,128,0,53336:0:0:0:0:
320,192,53336,1,8,0:0:0:0:
448,192,53336,1,4,0:0:0:0:
320,192,53657,1,8,0:0:0:0:
448,192,53657,1,4,0:0:0:0:
320,192,53978,1,8,0:0:0:0:
448,192,53978,1,4,0:0:0:0:
320,192,54193,128,8,54621:0:0:0:0:
448,192,54193,128,4,54621:0:0:0:0:
192,192,55050,1,8,0:0:0:0:
64,192,55050,1,4,0:0:0:0:
64,192,55340,1,8,0:0:0:0:
192,192,55340,1,4,0:0:0:0:
192,192,55630,1,8,0:0:0:0:
64,192,55630,1,4,0:0:0:0:
64,192,55824,128,8,56211:0:0:0:0:
192,192,55824,128,4,56211:0:0:0:0:
192,192,56598,1,4,0:0:0:0:
320,192,56598,1,8,0:0:0:0:
320,192,56862,1,8,0:0:0:0:
192,192,56862,1,4,0:0:0:0:
192,192,57127,1,8,0:0:0:0:
320,192,57127,1,4,0:0:0:0:
320,192,57303,128,4,57656:0:0:0:0:
192,192,57303,128,8,57656:0:0:0:0:
448,192,58009,1,8,0:0:0:0:
64,192,58009,1,4,0:0:0:0:
64,192,58263,1,8,0:0:0:0:
448,192,58263,1,4,0:0:0:0:
448,192,58517,1,8,0:0:0:0:
64,192,58517,1,4,0:0:0:0:
64,192,58686,128,8,59025:0:0:0:0:
448,192,58686,128,4,59025:0:0:0:0:
320,192,59364,1,12,0:0:0:0:
320,192,59526,128,8,59688:0:0:0:0:
192,192,59688,1,8,0:0:0:0:
192,192,59850,128,8,60012:0:0:0:0:
448,192,60012,1,8,0:0:0:0:
448,192,60174,128,8,60336:0:0:0:0:
64,192,60336,1,8,0:0:0:0:
64,192,60499,128,8,60661:0:0:0:0:
320,192,60661,1,8,0:0:0:0:
320,192,60823,128,8,60985:0:0:0:0:
64,192,60985,1,8,0:0:0:0:
64,192,61147,128,8,61309:0:0:0:0:
448,192,61309,1,8,0:0:0:0:
448,192,61472,128,8,61634:0:0:0:0:
192,192,61634,1,8,0:0:0:0:
192,192,61796,128,8,61958:0:0:0:0:
320,192,61958,1,10,0:0:0:0:
448,192,62120,1,8,0:0:0:0:
192,192,62282,1,10,0:0:0:0:
320,192,62445,1,8,0:0:0:0:
64,192,62607,1,10,0:0:0:0:
192,192,62769,1,8,0:0:0:0:
320,192,62931,1,10,0:0:0:0:
448,192,63093,1,8,0:0:0:0:
64,192,63255,1,10,0:0:0:0:
64,192,63412,1,8,0:0:0:0:
320,192,63570,1,10,0:0:0:0:
320,192,63728,1,8,0:0:0:0:
64,192,63886,128,2,64044:0:0:0:0:
320,192,64044,128,2,64202:0:0:0:0:
64,192,64202,128,2,64360:0:0:0:0:
320,192,64360,128,2,64518:0:0:0:0:
192,192,64518,1,2,0:0:0:0:
448,192,64676,1,0,0:0:0:0:
320,192,64755,1,0,0:0:0:0:
192,192,64833,1,0,0:0:0:0:
448,192,64991,1,0,0:0:0:0:
64,192,65149,1,0,0:0:0:0:
320,192,65307,1,0,0:0:0:0:
64,192,65465,1,0,0:0:0:70:Clap Drum.wav
192,192,65465,1,2,0:0:0:0:
448,192,65781,1,8,0:0:0:0:
64,192,65781,1,4,0:0:0:0:
320,192,65939,1,8,0:0:0:0:
192,192,66018,1,2,0:0:0:0:
64,192,66097,1,8,0:0:0:0:
448,192,66176,1,2,0:0:0:0:
320,192,66255,1,8,0:0:0:0:
192,192,66412,1,8,0:0:0:0:
448,192,66570,1,8,0:0:0:0:
320,192,66649,1,2,0:0:0:0:
64,192,66728,1,8,0:0:0:0:
192,192,66807,1,2,0:0:0:0:
320,192,66886,1,8,0:0:0:0:
64,192,67044,1,8,0:0:0:0:
448,192,67044,1,4,0:0:0:0:
192,192,67202,1,8,0:0:0:0:
320,192,67281,1,2,0:0:0:0:
448,192,67360,1,8,0:0:0:0:
64,192,67439,1,2,0:0:0:0:
192,192,67518,1,8,0:0:0:0:
320,192,67676,1,8,0:0:0:0:
320,192,67833,1,8,0:0:0:0:
64,192,67991,1,8,0:0:0:0:
64,192,68149,1,8,0:0:0:0:
448,192,68307,1,8,0:0:0:0:
320,192,68307,1,4,0:0:0:0:
192,192,68465,1,8,0:0:0:0:
64,192,68544,1,2,0:0:0:0:
320,192,68623,1,8,0:0:0:0:
192,192,68702,1,2,0:0:0:0:
448,192,68781,1,8,0:0:0:0:
64,192,68939,1,8,0:0:0:0:
320,192,69097,1,8,0:0:0:0:
448,192,69176,1,2,0:0:0:0:
192,192,69255,1,8,0:0:0:0:
320,192,69333,1,2,0:0:0:0:
64,192,69412,1,8,0:0:0:0:
448,192,69570,128,8,70202:0:0:0:0:
320,192,69570,1,4,0:0:0:0:
192,192,69728,1,2,0:0:0:0:
320,192,69886,1,12,0:0:0:0:
192,192,70044,1,2,0:0:0:0:
64,192,70202,1,0,0:0:0:40:Kick #5.1.wav
64,192,70360,1,0,0:0:0:40:Kick #5.1.wav
448,192,70518,1,0,0:0:0:40:Kick #5.1.wav
448,192,70676,1,0,0:0:0:40:Kick #5.1.wav
64,192,70833,1,8,0:0:0:0:
192,192,70833,1,4,0:0:0:0:
320,192,70991,1,8,0:0:0:0:
192,192,71070,1,2,0:0:0:0:
448,192,71149,1,8,0:0:0:0:
64,192,71228,1,2,0:0:0:0:
320,192,71307,1,8,0:0:0:0:
448,192,71465,1,8,0:0:0:0:
192,192,71623,1,8,0:0:0:0:
320,192,71702,1,2,0:0:0:0:
64,192,71781,1,8,0:0:0:0:
448,192,71860,1,2,0:0:0:0:
192,192,71939,1,8,0:0:0:0:
448,192,72097,1,8,0:0:0:0:
64,192,72097,1,4,0:0:0:0:
320,192,72255,1,8,0:0:0:0:
64,192,72333,1,2,0:0:0:0:
448,192,72412,1,8,0:0:0:0:
192,192,72491,1,2,0:0:0:0:
320,192,72570,1,8,0:0:0:0:
64,192,72728,1,8,0:0:0:0:
64,192,72886,1,8,0:0:0:0:
448,192,73044,1,8,0:0:0:0:
448,192,73202,1,8,0:0:0:0:
64,192,73360,1,8,0:0:0:0:
192,192,73360,1,4,0:0:0:0:
320,192,73518,1,8,0:0:0:0:
192,192,73597,1,2,0:0:0:0:
448,192,73676,1,8,0:0:0:0:
320,192,73755,1,2,0:0:0:0:
64,192,73833,1,8,0:0:0:0:
448,192,73991,1,8,0:0:0:0:
192,192,74149,1,8,0:0:0:0:
320,192,74228,1,2,0:0:0:0:
64,192,74307,1,8,0:0:0:0:
192,192,74386,1,2,0:0:0:0:
448,192,74465,1,8,0:0:0:0:
320,192,74623,128,12,74781:0:0:0:0:
64,192,74781,128,8,74939:0:0:0:0:
448,192,74939,128,8,75097:0:0:0:0:
192,192,75097,128,8,75255:0:0:0:0:
448,192,75255,128,12,75412:0:0:0:0:
320,192,75412,128,8,75570:0:0:0:0:
192,192,75570,1,0,0:0:0:70:Clap Drum.wav
64,192,75570,1,2,0:0:0:0:
448,192,75886,1,0,0:0:0:40:Kick #5.1.wav
64,192,75886,1,4,0:0:0:0:
320,192,76044,128,0,76202:0:0:0:40:Kick #5.1.wav
192,192,76202,128,0,76360:0:0:0:40:Kick #5.1.wav
448,192,76360,128,0,76518:0:0:0:40:Kick #5.1.wav
320,192,76518,128,0,76676:0:0:0:40:Kick #5.1.wav
64,192,76676,128,0,76833:0:0:0:40:Kick #5.1.wav
448,192,76833,128,0,76991:0:0:0:40:Kick #5.1.wav
192,192,76991,128,0,77149:0:0:0:40:Kick #5.1.wav
320,192,77149,1,0,0:0:0:40:Kick #5.1.wav
448,192,77149,1,0,0:0:0:0:
64,192,77386,1,0,0:0:0:40:Kick #5.1.wav
192,192,77386,1,0,0:0:0:0:
320,192,77623,1,0,0:0:0:40:Kick #5.1.wav
192,192,77623,1,0,0:0:0:0:
64,192,77781,1,0,0:0:0:40:Kick #5.1.wav
448,192,77781,1,0,0:0:0:0:
64,192,78097,128,8,78412:0:0:0:0:
448,192,78097,128,0,78412:0:0:0:0:
192,192,78412,1,0,0:0:0:40:Kick #5.1.wav
320,192,78412,1,4,0:0:0:0:
448,192,78570,128,0,78728:0:0:0:40:Kick #5.1.wav
320,192,78728,128,0,78886:0:0:0:40:Kick #5.1.wav
64,192,78886,128,0,79044:0:0:0:40:Kick #5.1.wav
192,192,79044,128,0,79202:0:0:0:40:Kick #5.1.wav
448,192,79202,128,0,79360:0:0:0:40:Kick #5.1.wav
320,192,79360,128,0,79518:0:0:0:40:Kick #5.1.wav
192,192,79518,128,0,79676:0:0:0:40:Kick #5.1.wav
448,192,79676,1,0,0:0:0:40:Kick #5.1.wav
64,192,79676,1,4,0:0:0:0:
320,192,79912,1,0,0:0:0:40:Kick #5.1.wav
192,192,79912,1,0,0:0:0:0:
448,192,79991,1,0,0:0:0:40:Kick #5.1.wav
192,192,80149,1,0,0:0:0:40:Kick #5.1.wav
64,192,80149,1,0,0:0:0:0:
448,192,80307,1,0,0:0:0:0:
320,192,80307,1,0,0:0:0:0:
64,192,80465,1,0,0:0:0:40:Kick #5.1.wav
192,192,80623,128,0,80939:0:0:0:70:Clap Drum.wav
64,192,80623,128,2,80939:0:0:0:0:
320,192,80939,1,0,0:0:0:40:Kick #5.1.wav
448,192,80939,1,4,0:0:0:0:
192,192,81097,128,0,81255:0:0:0:40:Kick #5.1.wav
448,192,81255,128,0,81412:0:0:0:40:Kick #5.1.wav
64,192,81412,128,0,81570:0:0:0:40:Kick #5.1.wav
320,192,81570,128,0,81728:0:0:0:40:Kick #5.1.wav
192,192,81728,128,0,81886:0:0:0:40:Kick #5.1.wav
64,192,81886,128,0,82044:0:0:0:40:Kick #5.1.wav
320,192,82044,128,0,82202:0:0:0:40:Kick #5.1.wav
448,192,82202,128,0,82360:0:0:0:40:Kick #5.1.wav
192,192,82360,128,0,82518:0:0:0:40:Kick #5.1.wav
320,192,82518,128,0,82676:0:0:0:40:Kick #5.1.wav
64,192,82676,128,0,82833:0:0:0:40:Kick #5.1.wav
448,192,82833,1,0,0:0:0:40:Kick #5.1.wav
320,192,82833,1,0,0:0:0:0:
192,192,82991,1,0,0:0:0:40:Kick #5.1.wav
192,192,83149,128,8,83465:0:0:0:0:
64,192,83149,1,0,0:0:0:0:
448,192,83465,1,0,0:0:0:40:Kick #5.1.wav
320,192,83465,128,4,83623:0:0:0:0:
64,192,83623,128,0,83781:0:0:0:40:Kick #5.1.wav
448,192,83781,128,0,83939:0:0:0:40:Kick #5.1.wav
192,192,83939,128,0,84097:0:0:0:40:Kick #5.1.wav
320,192,84097,128,0,84255:0:0:0:40:Kick #5.1.wav
448,192,84255,128,0,84412:0:0:0:40:Kick #5.1.wav
192,192,84412,128,0,84570:0:0:0:40:Kick #5.1.wav
64,192,84570,128,0,84728:0:0:0:40:Kick #5.1.wav
448,192,84728,1,0,0:0:0:40:Kick #5.1.wav
320,192,84728,1,4,0:0:0:0:
192,192,84886,1,0,0:0:0:0:
320,192,84965,1,0,0:0:0:40:Kick #5.1.wav
64,192,85044,1,0,0:0:0:40:Kick #5.1.wav
448,192,85044,1,4,0:0:0:0:
320,192,85202,1,0,0:0:0:40:Kick #5.1.wav
192,192,85281,1,0,0:0:0:0:
448,192,85360,1,0,0:0:0:40:Kick #5.1.wav
64,192,85360,1,4,0:0:0:0:
320,192,85518,1,0,0:0:0:40:Kick #5.1.wav
448,192,85597,1,0,0:0:0:40:Kick #5.1.wav
64,192,85676,1,0,0:0:0:70:Clap Drum.wav
192,192,85676,1,6,0:0:0:0:
448,192,85833,1,0,0:0:0:35:Kick #5.1.wav
320,192,85912,1,0,0:0:0:35:Kick #5.1.wav
64,192,86234,128,0,88681:0:0:0:70:Clap Drum.wav
448,192,86234,128,6,88681:0:0:0:0:
