osu file format v14

[General]
AudioFilename: audio.mp3
AudioLeadIn: 0
PreviewTime: 65781
Countdown: 0
SampleSet: Soft
StackLeniency: 0.7
Mode: 3
LetterboxInBreaks: 0
SpecialStyle: 0
WidescreenStoryboard: 1

[Editor]
Bookmarks: 7657,17763,27868,38026,53336
DistanceSpacing: 0.5
BeatDivisor: 4
GridSize: 16
TimelineZoom: 1.2

[Metadata]
Title:Ganbare! Kumoko-san no Thema (TV Size)
TitleUnicode:がんばれ!蜘蛛子さんのテーマ (TV Size)
Artist:Watashi (CV: Yuuki Aoi)
ArtistUnicode:私(CV:悠木碧)
Creator:Shirou
Version:11Bit's Hard
Source:蜘蛛ですが、なにか?
Tags:So I'm a Spider, What? Kumo Desu ga, Nani ka? kumodesu rock jrock j-rock anime ending ed japanese speedcore 11Bit _Asha Al-Reina cryochan FAMoss
BeatmapID:2884973
BeatmapSetID:1398110

[Difficulty]
HPDrainRate:7.5
CircleSize:4
OverallDifficulty:8
ApproachRate:5
SliderMultiplier:1.4
SliderTickRate:1

[Events]
//Background and Video events
0,0,"spidey.jpg",0,0
Video,-26,"bga.mp4"
//Break Periods
//Storyboard Layer 0 (Background)
//Storyboard Layer 1 (Fail)
//Storyboard Layer 2 (Pass)
//Storyboard Layer 3 (Foreground)
//Storyboard Layer 4 (Overlay)
//Storyboard Sound Samples

[TimingPoints]
79,315.789473684211,4,2,1,40,1,0
2605,-100,4,2,1,50,0,0
5131,-100,4,2,1,60,0,0
7657,-100,4,2,1,70,0,1
17763,-100,4,2,1,70,0,0
38026,474.308300395257,4,2,2,80,1,0
38026,-66.6666666666667,4,2,2,80,0,0
39923,481.154771451484,4,2,2,80,1,0
39923,-65.7894736842105,4,2,2,80,0,0
43772,478.08764940239,4,2,2,80,1,0
43772,-66.2251655629139,4,2,2,80,0,0
47596,480,4,2,2,80,1,0
47596,-65.7894736842105,4,2,2,80,0,0
50476,486.61800486618,4,2,2,80,1,0
50476,-64.9350649350649,4,2,2,80,0,0
51449,471.883602044829,4,2,2,80,1,0
51449,-67.1140939597315,4,2,2,80,0,0
53336,428.571428571429,4,2,1,70,1,0
53336,-74.0740740740741,4,2,1,70,0,0
55050,387.096774193548,4,2,1,70,1,0
55050,-81.9672131147541,4,2,1,70,0,0
56598,352.941176470588,4,2,1,70,1,0
56598,-90.0900900900901,4,2,1,70,0,0
58009,338.983050847458,4,2,1,70,1,0
58009,-93.4579439252336,4,2,1,70,0,0
59364,324.324324324324,4,2,1,70,1,0
59364,-98.0392156862745,4,2,1,70,0,0
63255,315.789473684211,4,2,1,70,1,0
65781,-100,4,2,1,70,0,1
75570,-100,4,2,1,70,0,0
75886,-100,4,2,1,70,0,1
85991,-100,4,2,1,70,0,0
86234,315.789473684211,4,2,1,70,1,0

[HitObjects]
448,192,79,5,0,0:0:0:0:
192,192,236,1,0,0:0:0:0:
448,192,394,1,0,0:0:0:0:
192,192,552,1,0,0:0:0:0:
448,192,710,1,0,0:0:0:0:
192,192,868,1,0,0:0:0:0:
448,192,1026,1,0,0:0:0:0:
192,192,1184,1,0,0:0:0:0:
448,192,1342,1,0,0:0:0:0:
192,192,1500,1,0,0:0:0:0:
448,192,1657,1,0,0:0:0:0:
192,192,1815,1,0,0:0:0:0:
448,192,1973,1,0,0:0:0:0:
192,192,2131,1,0,0:0:0:0:
448,192,2289,1,0,0:0:0:0:
192,192,2447,1,0,0:0:0:0:
448,192,2605,1,0,0:0:0:0:
192,192,2763,1,0,0:0:0:0:
448,192,2921,1,0,0:0:0:0:
192,192,3079,1,0,0:0:0:0:
320,192,3236,1,0,0:0:0:0:
64,192,3394,1,0,0:0:0:0:
320,192,3552,1,0,0:0:0:0:
64,192,3710,1,0,0:0:0:0:
448,192,3868,1,0,0:0:0:0:
64,192,4026,1,0,0:0:0:0:
448,192,4184,1,0,0:0:0:0:
64,192,4342,1,0,0:0:0:0:
448,192,4500,1,0,0:0:0:0:
192,192,4657,1,0,0:0:0:0:
448,192,4815,1,0,0:0:0:0:
192,192,4973,1,0,0:0:0:0:
448,192,5131,1,0,0:0:0:0:
320,192,5210,1,0,0:0:0:0:
192,192,5289,1,0,0:0:0:0:
448,192,5368,1,0,0:0:0:0:
64,192,5447,1,0,0:0:0:0:
192,192,5526,1,0,0:0:0:0:
320,192,5605,1,0,0:0:0:0:
64,192,5684,1,0,0:0:0:0:
448,192,5763,1,0,0:0:0:0:
320,192,5842,1,0,0:0:0:0:
192,192,5921,1,0,0:0:0:0:
448,192,6000,1,0,0:0:0:0:
64,192,6079,1,0,0:0:0:0:
192,192,6157,1,0,0:0:0:0:
320,192,6236,1,0,0:0:0:0:
64,192,6315,1,0,0:0:0:0:
448,192,6394,128,0,7184:0:0:0:0:
192,192,6394,128,0,7026:0:0:0:0:
64,192,7184,1,2,0:0:0:0:
192,192,7184,1,0,0:0:0:0:
320,192,7263,1,2,0:0:0:0:
448,192,7342,1,0,0:0:0:70:Clap Drum.wav
192,192,7342,1,0,0:0:0:0:
64,192,7342,1,0,0:0:0:0:
192,192,7657,1,2,0:0:0:0:
64,192,7657,1,4,0:0:0:0:
448,192,7657,1,0,0:0:0:0:
320,192,7815,1,8,0:0:0:0:
64,192,7815,1,0,0:0:0:0:
192,192,7973,1,2,0:0:0:0:
320,192,7973,1,0,0:0:0:0:
448,192,7973,1,0,0:0:0:0:
192,192,8131,1,8,0:0:0:0:
448,192,8131,1,0,0:0:0:0:
448,192,8289,1,2,0:0:0:0:
64,192,8289,1,0,0:0:0:0:
320,192,8447,1,8,0:0:0:0:
192,192,8447,1,0,0:0:0:0:
192,192,8605,1,2,0:0:0:0:
64,192,8605,1,0,0:0:0:0:
448,192,8605,1,0,0:0:0:0:
64,192,8763,1,8,0:0:0:0:
448,192,8763,1,0,0:0:0:0:
64,192,8921,1,2,0:0:0:0:
320,192,8921,1,0,0:0:0:0:
448,192,9079,1,8,0:0:0:0:
192,192,9079,1,0,0:0:0:0:
448,192,9236,1,2,0:0:0:0:
320,192,9236,1,0,0:0:0:0:
64,192,9236,1,0,0:0:0:0:
320,192,9394,1,8,0:0:0:0:
64,192,9394,1,0,0:0:0:0:
192,192,9552,1,2,0:0:0:0:
320,192,9552,1,0,0:0:0:0:
448,192,9710,1,8,0:0:0:0:
64,192,9710,1,0,0:0:0:0:
320,192,9868,1,2,0:0:0:0:
64,192,9868,1,0,0:0:0:0:
192,192,9868,1,0,0:0:0:0:
192,192,10026,1,8,0:0:0:0:
320,192,10026,1,0,0:0:0:0:
448,192,10184,1,2,0:0:0:0:
192,192,10184,1,0,0:0:0:0:
448,192,10342,1,8,0:0:0:0:
64,192,10342,1,0,0:0:0:0:
320,192,10500,1,2,0:0:0:0:
192,192,10500,1,0,0:0:0:0:
64,192,10500,1,0,0:0:0:0:
192,192,10657,1,8,0:0:0:0:
448,192,10657,1,0,0:0:0:0:
320,192,10815,1,2,0:0:0:0:
64,192,10815,1,0,0:0:0:0:
192,192,10973,1,8,0:0:0:0:
320,192,10973,1,0,0:0:0:0:
192,192,11131,1,2,0:0:0:0:
64,192,11131,1,0,0:0:0:0:
448,192,11131,1,0,0:0:0:0:
320,192,11289,1,8,0:0:0:0:
448,192,11289,1,0,0:0:0:0:
64,192,11447,1,2,0:0:0:0:
320,192,11447,1,0,0:0:0:0:
64,192,11605,1,8,0:0:0:0:
448,192,11605,1,0,0:0:0:0:
448,192,11763,1,2,0:0:0:0:
320,192,11763,1,0,0:0:0:0:
192,192,11763,1,0,0:0:0:0:
320,192,11921,1,8,0:0:0:0:
448,192,11921,1,0,0:0:0:0:
320,192,12079,1,2,0:0:0:0:
64,192,12079,1,0,0:0:0:0:
192,192,12079,1,0,0:0:0:0:
64,192,12236,1,8,0:0:0:0:
192,192,12236,1,0,0:0:0:0:
64,192,12394,1,2,0:0:0:0:
448,192,12394,1,0,0:0:0:0:
320,192,12473,1,8,0:0:0:0:
192,192,12552,1,8,0:0:0:0:
64,192,12631,1,8,0:0:0:0:
192,192,12710,1,4,0:0:0:0:
320,192,12710,1,2,0:0:0:0:
448,192,12710,1,0,0:0:0:0:
448,192,12868,1,8,0:0:0:0:
64,192,12868,1,0,0:0:0:0:
320,192,13026,1,2,0:0:0:0:
192,192,13026,1,0,0:0:0:0:
64,192,13026,1,0,0:0:0:0:
192,192,13184,1,8,0:0:0:0:
320,192,13184,1,0,0:0:0:0:
64,192,13342,1,2,0:0:0:0:
320,192,13342,1,0,0:0:0:0:
64,192,13500,1,8,0:0:0:0:
448,192,13500,1,0,0:0:0:0:
320,192,13657,1,2,0:0:0:0:
448,192,13657,1,0,0:0:0:0:
192,192,13657,1,0,0:0:0:0:
192,192,13815,1,8,0:0:0:0:
320,192,13815,1,0,0:0:0:0:
192,192,13973,1,2,0:0:0:0:
448,192,13973,1,0,0:0:0:0:
64,192,14131,1,8,0:0:0:0:
320,192,14131,1,0,0:0:0:0:
192,192,14289,1,2,0:0:0:0:
64,192,14289,1,0,0:0:0:0:
448,192,14289,1,0,0:0:0:0:
448,192,14447,1,8,0:0:0:0:
192,192,14447,1,0,0:0:0:0:
448,192,14605,1,2,0:0:0:0:
64,192,14605,1,0,0:0:0:0:
320,192,14763,1,8,0:0:0:0:
192,192,14763,1,0,0:0:0:0:
320,192,14921,1,2,0:0:0:0:
448,192,14921,1,0,0:0:0:0:
64,192,14921,1,0,0:0:0:0:
64,192,15079,1,8,0:0:0:0:
448,192,15079,1,0,0:0:0:0:
64,192,15236,1,8,0:0:0:0:
320,192,15236,1,4,0:0:0:0:
192,192,15236,1,0,0:0:0:0:
320,192,15394,1,2,0:0:0:0:
320,192,15552,1,2,0:0:0:0:
64,192,15552,1,0,0:0:0:0:
192,192,15710,1,8,0:0:0:0:
448,192,15710,1,4,0:0:0:0:
64,192,15710,1,0,0:0:0:0:
320,192,15868,1,2,0:0:0:0:
192,192,15868,1,0,0:0:0:0:
320,192,16026,1,2,0:0:0:0:
192,192,16184,128,8,16342:0:0:0:0:
64,192,16184,128,4,16500:0:0:0:0:
320,192,16184,1,0,0:0:0:0:
448,192,16500,128,6,16657:0:0:0:0:
192,192,16657,1,2,0:0:0:0:
64,192,16657,1,0,0:0:0:0:
320,192,16736,1,8,0:0:0:0:
448,192,16815,1,8,0:0:0:0:
64,192,16815,1,0,0:0:0:0:
320,192,16973,1,2,0:0:0:0:
192,192,16973,1,0,0:0:0:0:
448,192,17131,1,8,0:0:0:0:
64,192,17131,1,4,0:0:0:0:
192,192,17131,1,0,0:0:0:0:
448,192,17289,1,8,0:0:0:0:
64,192,17289,1,0,0:0:0:0:
192,192,17447,128,2,17763:0:0:0:0:
320,192,17763,1,4,0:0:0:0:
448,192,17763,1,2,0:0:0:0:
64,192,17763,1,0,0:0:0:0:
320,192,17921,1,0,0:0:0:0:
192,192,18000,1,0,0:0:0:0:
448,192,18079,1,2,0:0:0:0:
320,192,18079,1,0,0:0:0:0:
192,192,18236,1,0,0:0:0:0:
320,192,18315,1,0,0:0:0:0:
192,192,18394,1,2,0:0:0:0:
64,192,18394,1,0,0:0:0:0:
320,192,18552,1,0,0:0:0:0:
448,192,18710,1,2,0:0:0:0:
64,192,18710,1,0,0:0:0:0:
192,192,18868,1,0,0:0:0:0:
64,192,19026,1,2,0:0:0:0:
448,192,19026,1,0,0:0:0:0:
320,192,19184,1,0,0:0:0:0:
448,192,19342,1,2,0:0:0:0:
192,192,19342,1,0,0:0:0:0:
192,192,19500,1,0,0:0:0:0:
320,192,19579,1,0,0:0:0:0:
448,192,19657,1,2,0:0:0:0:
64,192,19657,1,0,0:0:0:0:
64,192,19815,1,0,0:0:0:0:
192,192,19815,1,0,0:0:0:0:
448,192,19973,1,2,0:0:0:0:
64,192,19973,1,0,0:0:0:0:
320,192,20131,1,0,0:0:0:0:
448,192,20289,1,2,0:0:0:0:
192,192,20289,1,0,0:0:0:0:
64,192,20447,1,0,0:0:0:0:
320,192,20526,1,0,0:0:0:0:
64,192,20605,1,2,0:0:0:0:
192,192,20605,1,0,0:0:0:0:
448,192,20763,1,0,0:0:0:0:
192,192,20842,1,0,0:0:0:0:
448,192,20921,1,2,0:0:0:0:
320,192,20921,1,0,0:0:0:0:
192,192,21079,1,0,0:0:0:0:
64,192,21236,1,2,0:0:0:0:
320,192,21236,1,0,0:0:0:0:
448,192,21394,1,0,0:0:0:0:
192,192,21394,1,0,0:0:0:0:
320,192,21473,1,0,0:0:0:0:
64,192,21552,1,2,0:0:0:0:
192,192,21552,1,0,0:0:0:0:
192,192,21710,1,0,0:0:0:0:
448,192,21868,1,2,0:0:0:0:
192,192,21868,1,0,0:0:0:0:
448,192,22026,1,0,0:0:0:0:
192,192,22105,1,0,0:0:0:0:
448,192,22184,1,2,0:0:0:0:
64,192,22184,1,0,0:0:0:0:
64,192,22342,1,0,0:0:0:0:
64,192,22500,1,2,0:0:0:0:
448,192,22500,1,0,0:0:0:0:
192,192,22657,1,0,0:0:0:0:
64,192,22815,1,2,0:0:0:0:
448,192,22815,1,0,0:0:0:0:
320,192,22894,1,0,0:0:0:0:
448,192,22973,1,0,0:0:0:0:
192,192,23131,1,2,0:0:0:0:
320,192,23131,1,0,0:0:0:0:
64,192,23289,1,0,0:0:0:0:
192,192,23368,1,0,0:0:0:0:
448,192,23447,1,2,0:0:0:0:
64,192,23447,1,0,0:0:0:0:
320,192,23605,1,0,0:0:0:0:
448,192,23763,1,2,0:0:0:0:
192,192,23763,1,0,0:0:0:0:
64,192,23921,1,0,0:0:0:0:
448,192,24000,1,0,0:0:0:0:
192,192,24079,1,2,0:0:0:0:
320,192,24079,1,0,0:0:0:0:
448,192,24236,1,0,0:0:0:0:
320,192,24394,1,2,0:0:0:0:
64,192,24394,1,0,0:0:0:0:
320,192,24552,1,0,0:0:0:0:
192,192,24631,1,0,0:0:0:0:
448,192,24710,1,2,0:0:0:0:
64,192,24710,1,0,0:0:0:0:
320,192,24868,1,0,0:0:0:0:
448,192,24868,1,0,0:0:0:0:
448,192,25026,1,2,0:0:0:0:
64,192,25026,1,0,0:0:0:0:
192,192,25184,1,0,0:0:0:0:
448,192,25342,1,2,0:0:0:0:
320,192,25342,1,0,0:0:0:0:
64,192,25421,1,0,0:0:0:0:
320,192,25500,1,0,0:0:0:0:
64,192,25579,1,0,0:0:0:0:
192,192,25657,1,2,0:0:0:0:
448,192,25657,1,0,0:0:0:0:
320,192,25736,1,0,0:0:0:0:
192,192,25815,1,0,0:0:0:0:
320,192,25894,1,0,0:0:0:0:
448,192,25973,1,2,0:0:0:0:
64,192,25973,1,0,0:0:0:0:
192,192,26131,1,0,0:0:0:0:
448,192,26289,1,2,0:0:0:0:
320,192,26289,1,0,0:0:0:0:
320,192,26447,1,8,0:0:0:0:
64,192,26447,1,0,0:0:0:0:
192,192,26605,1,2,0:0:0:0:
64,192,26605,1,4,0:0:0:0:
448,192,26605,1,0,0:0:0:0:
192,192,26842,1,8,0:0:0:0:
64,192,26921,1,2,0:0:0:0:
448,192,26921,1,4,0:0:0:0:
320,192,26921,1,0,0:0:0:0:
64,192,27236,1,8,0:0:0:0:
192,192,27236,1,4,0:0:0:0:
320,192,27236,1,0,0:0:0:0:
448,192,27552,128,8,27710:0:0:0:0:
64,192,27552,1,0,0:0:0:0:
320,192,27868,1,2,0:0:0:0:
192,192,27868,1,4,0:0:0:0:
64,192,27868,1,0,0:0:0:0:
448,192,28026,1,0,0:0:0:0:
192,192,28184,1,8,0:0:0:0:
64,192,28184,1,0,0:0:0:0:
320,192,28342,1,0,0:0:0:0:
320,192,28500,1,0,0:0:0:0:
192,192,28657,1,2,0:0:0:0:
64,192,28657,1,0,0:0:0:0:
448,192,28815,1,8,0:0:0:0:
320,192,28815,1,0,0:0:0:0:
64,192,28815,1,0,0:0:0:0:
192,192,28973,1,0,0:0:0:0:
320,192,29052,1,0,0:0:0:0:
448,192,29131,1,2,0:0:0:0:
64,192,29131,1,0,0:0:0:0:
320,192,29289,1,0,0:0:0:0:
192,192,29447,1,8,0:0:0:0:
64,192,29447,1,0,0:0:0:0:
448,192,29605,1,2,0:0:0:0:
64,192,29605,1,0,0:0:0:0:
448,192,29763,1,0,0:0:0:0:
192,192,29921,1,2,0:0:0:0:
64,192,29921,1,0,0:0:0:0:
320,192,29921,1,0,0:0:0:0:
320,192,30079,1,8,0:0:0:0:
64,192,30079,1,0,0:0:0:0:
192,192,30079,1,0,0:0:0:0:
448,192,30236,1,0,0:0:0:0:
64,192,30315,1,0,0:0:0:0:
192,192,30394,1,2,0:0:0:0:
448,192,30394,1,0,0:0:0:0:
64,192,30552,1,0,0:0:0:0:
448,192,30710,1,8,0:0:0:0:
320,192,30710,1,0,0:0:0:0:
192,192,30868,1,0,0:0:0:0:
320,192,30947,1,8,0:0:0:0:
448,192,30947,1,0,0:0:0:0:
192,192,31026,1,0,0:0:0:0:
448,192,31184,1,2,0:0:0:0:
64,192,31184,1,0,0:0:0:0:
320,192,31342,1,8,0:0:0:0:
64,192,31342,1,0,0:0:0:0:
192,192,31500,1,0,0:0:0:0:
192,192,31657,1,2,0:0:0:0:
64,192,31657,1,0,0:0:0:0:
320,192,31657,1,0,0:0:0:0:
320,192,31815,1,2,0:0:0:0:
64,192,31815,1,0,0:0:0:0:
192,192,31973,1,8,0:0:0:0:
320,192,31973,1,0,0:0:0:0:
448,192,31973,1,0,0:0:0:0:
448,192,32131,1,2,0:0:0:0:
192,192,32131,1,0,0:0:0:0:
320,192,32289,128,0,32447:0:0:0:0:
448,192,32447,1,2,0:0:0:0:
64,192,32447,1,0,0:0:0:0:
64,192,32605,1,8,0:0:0:0:
448,192,32605,1,0,0:0:0:0:
320,192,32763,1,0,0:0:0:0:
192,192,32842,1,8,0:0:0:0:
64,192,32842,1,0,0:0:0:0:
320,192,32921,1,2,0:0:0:0:
448,192,32921,1,0,0:0:0:0:
64,192,33000,1,0,0:0:0:0:
448,192,33079,1,0,0:0:0:0:
320,192,33236,1,8,0:0:0:0:
192,192,33236,1,0,0:0:0:0:
320,192,33394,1,0,0:0:0:0:
192,192,33473,1,8,0:0:0:0:
64,192,33473,1,0,0:0:0:0:
320,192,33552,1,0,0:0:0:0:
192,192,33710,1,2,0:0:0:0:
448,192,33710,1,0,0:0:0:0:
64,192,33789,1,0,0:0:0:0:
448,192,33868,1,8,0:0:0:0:
320,192,33868,1,0,0:0:0:0:
192,192,34026,1,0,0:0:0:0:
448,192,34105,1,0,0:0:0:0:
192,192,34184,1,2,0:0:0:0:
320,192,34184,1,0,0:0:0:0:
320,192,34342,1,2,0:0:0:0:
64,192,34342,1,0,0:0:0:0:
192,192,34500,1,8,0:0:0:0:
448,192,34500,1,0,0:0:0:0:
320,192,34657,1,0,0:0:0:0:
192,192,34815,1,2,0:0:0:0:
64,192,34815,1,0,0:0:0:0:
192,192,34973,1,2,0:0:0:0:
64,192,34973,1,0,0:0:0:0:
448,192,35131,1,8,0:0:0:0:
320,192,35131,1,0,0:0:0:0:
64,192,35131,1,0,0:0:0:0:
320,192,35289,1,0,0:0:0:0:
64,192,35368,1,0,0:0:0:0:
192,192,35447,128,2,35684:0:0:0:0:
448,192,35447,128,4,35684:0:0:0:0:
320,192,35447,128,0,35684:0:0:0:0:
320,192,35763,128,8,36000:0:0:0:0:
64,192,35763,128,0,36000:0:0:0:0:
192,192,36079,128,2,36315:0:0:0:0:
64,192,36079,128,4,36315:0:0:0:0:
448,192,36079,128,0,36315:0:0:0:0:
192,192,36394,1,8,0:0:0:0:
448,192,36394,128,0,36710:0:0:0:0:
64,192,36552,1,0,0:0:0:0:
320,192,36710,1,4,0:0:0:0:
192,192,36710,1,2,0:0:0:0:
64,192,36710,1,0,0:0:0:0:
192,192,37026,1,2,0:0:0:0:
320,192,37026,1,4,0:0:0:0:
448,192,37026,1,0,0:0:0:0:
448,192,37342,128,4,38026:0:0:0:0:
192,192,37342,1,2,0:0:0:0:
64,192,37342,1,0,0:0:0:0:
320,192,38026,1,0,0:0:0:0:
64,192,38026,128,0,39093:0:0:0:0:
448,192,39369,1,0,0:0:0:0:
192,192,39567,1,0,0:0:0:0:
64,192,39765,1,0,0:0:0:0:
448,192,39863,1,0,0:0:0:0:
192,192,39923,1,0,0:0:0:0:
320,192,39923,128,0,41005:0:0:0:0:
192,192,41366,1,0,0:0:0:0:
448,192,41667,1,0,0:0:0:0:
320,192,41847,1,0,0:0:0:0:
64,192,41847,128,0,42689:0:0:0:0:
192,192,42809,1,0,0:0:0:0:
320,192,42809,1,0,0:0:0:0:
448,192,43230,128,0,43772:0:0:0:0:
320,192,43772,1,0,0:0:0:0:
64,192,43772,128,0,44608:0:0:0:0:
448,192,45086,1,0,0:0:0:0:
320,192,45301,1,0,0:0:0:0:
192,192,45493,128,0,45684:0:0:0:0:
64,192,45684,1,0,0:0:0:0:
448,192,45684,128,0,46521:0:0:0:0:
192,192,46760,1,0,0:0:0:0:
320,192,47118,1,0,0:0:0:0:
192,192,47238,1,0,0:0:0:0:
320,192,47437,1,0,0:0:0:0:
448,192,47596,1,0,0:0:0:0:
64,192,47596,128,0,48556:0:0:0:0:
448,192,48844,1,0,0:0:0:0:
192,192,49036,1,0,0:0:0:0:
320,192,49356,1,0,0:0:0:0:
64,192,49516,1,0,0:0:0:0:
320,192,49516,128,0,49876:0:0:0:0:
192,192,49996,128,0,50356:0:0:0:0:
64,192,50476,1,0,0:0:0:0:
320,192,50476,1,0,0:0:0:0:
320,192,50800,1,0,0:0:0:0:
448,192,51145,1,0,0:0:0:0:
64,192,51449,1,0,0:0:0:0:
320,192,51449,128,0,52628:0:0:0:0:
448,192,53336,1,8,0:0:0:0:
192,192,53336,1,4,0:0:0:0:
320,192,53336,1,0,0:0:0:0:
448,192,53657,1,8,0:0:0:0:
320,192,53657,1,4,0:0:0:0:
192,192,53657,1,0,0:0:0:0:
448,192,53978,1,8,0:0:0:0:
320,192,53978,1,4,0:0:0:0:
192,192,53978,1,0,0:0:0:0:
192,192,54193,128,8,54514:0:0:0:0:
320,192,54193,128,4,54514:0:0:0:0:
448,192,54193,128,0,54514:0:0:0:0:
448,192,55050,1,8,0:0:0:0:
64,192,55050,1,4,0:0:0:0:
320,192,55050,1,0,0:0:0:0:
448,192,55340,1,8,0:0:0:0:
320,192,55340,1,4,0:0:0:0:
64,192,55340,1,0,0:0:0:0:
448,192,55630,1,8,0:0:0:0:
320,192,55630,1,4,0:0:0:0:
64,192,55630,1,0,0:0:0:0:
64,192,55824,128,8,56114:0:0:0:0:
320,192,55824,128,4,56114:0:0:0:0:
448,192,55824,128,0,56114:0:0:0:0:
448,192,56598,1,4,0:0:0:0:
192,192,56598,1,8,0:0:0:0:
64,192,56598,1,0,0:0:0:0:
448,192,56862,1,8,0:0:0:0:
192,192,56862,1,4,0:0:0:0:
64,192,56862,1,0,0:0:0:0:
448,192,57127,1,8,0:0:0:0:
192,192,57127,1,4,0:0:0:0:
64,192,57127,1,0,0:0:0:0:
64,192,57303,128,4,57568:0:0:0:0:
192,192,57303,128,8,57568:0:0:0:0:
448,192,57303,128,0,57568:0:0:0:0:
320,192,58009,1,8,0:0:0:0:
192,192,58009,1,4,0:0:0:0:
64,192,58009,1,0,0:0:0:0:
320,192,58263,1,8,0:0:0:0:
64,192,58263,1,4,0:0:0:0:
192,192,58263,1,0,0:0:0:0:
320,192,58517,1,8,0:0:0:0:
192,192,58517,1,4,0:0:0:0:
64,192,58517,1,0,0:0:0:0:
64,192,58686,128,8,58941:0:0:0:0:
192,192,58686,128,4,58941:0:0:0:0:
320,192,58686,128,0,58941:0:0:0:0:
448,192,59364,1,4,0:0:0:0:
320,192,59364,1,8,0:0:0:0:
64,192,59526,1,8,0:0:0:0:
192,192,59607,1,8,0:0:0:0:
448,192,59688,1,8,0:0:0:0:
320,192,59688,1,0,0:0:0:0:
448,192,59850,1,8,0:0:0:0:
320,192,59931,1,8,0:0:0:0:
192,192,60012,1,8,0:0:0:0:
64,192,60012,1,0,0:0:0:0:
448,192,60174,1,8,0:0:0:0:
192,192,60255,1,8,0:0:0:0:
448,192,60336,1,8,0:0:0:0:
320,192,60336,1,0,0:0:0:0:
64,192,60499,1,8,0:0:0:0:
320,192,60580,1,8,0:0:0:0:
64,192,60661,1,8,0:0:0:0:
192,192,60661,1,0,0:0:0:0:
448,192,60823,1,8,0:0:0:0:
320,192,60904,1,8,0:0:0:0:
448,192,60985,1,8,0:0:0:0:
192,192,60985,1,0,0:0:0:0:
64,192,61147,1,8,0:0:0:0:
192,192,61228,1,8,0:0:0:0:
64,192,61309,1,8,0:0:0:0:
320,192,61309,1,0,0:0:0:0:
192,192,61472,1,8,0:0:0:0:
320,192,61553,1,8,0:0:0:0:
64,192,61634,1,8,0:0:0:0:
448,192,61634,1,0,0:0:0:0:
320,192,61796,1,8,0:0:0:0:
192,192,61877,1,8,0:0:0:0:
448,192,61958,5,8,0:0:0:0:
64,192,61958,1,2,0:0:0:0:
320,192,62039,1,8,0:0:0:0:
192,192,62120,1,8,0:0:0:0:
64,192,62201,1,8,0:0:0:0:
448,192,62282,1,8,0:0:0:0:
320,192,62282,1,2,0:0:0:0:
64,192,62364,1,8,0:0:0:0:
192,192,62445,1,8,0:0:0:0:
320,192,62526,1,8,0:0:0:0:
64,192,62607,1,8,0:0:0:0:
448,192,62607,1,2,0:0:0:0:
192,192,62688,1,8,0:0:0:0:
320,192,62769,1,8,0:0:0:0:
448,192,62850,1,8,0:0:0:0:
192,192,62931,1,8,0:0:0:0:
64,192,62931,1,2,0:0:0:0:
448,192,63012,1,8,0:0:0:0:
320,192,63093,1,8,0:0:0:0:
192,192,63174,1,8,0:0:0:0:
64,192,63255,1,8,0:0:0:0:
448,192,63255,1,2,0:0:0:0:
320,192,63333,1,8,0:0:0:0:
192,192,63412,1,8,0:0:0:0:
320,192,63491,1,8,0:0:0:0:
64,192,63570,1,8,0:0:0:0:
448,192,63570,1,2,0:0:0:0:
192,192,63649,1,8,0:0:0:0:
320,192,63728,1,8,0:0:0:0:
192,192,63807,1,8,0:0:0:0:
448,192,63886,1,2,0:0:0:0:
64,192,63886,1,0,0:0:0:0:
320,192,63965,1,2,0:0:0:0:
64,192,64044,1,2,0:0:0:0:
320,192,64123,1,2,0:0:0:0:
192,192,64202,1,2,0:0:0:0:
448,192,64281,1,2,0:0:0:0:
192,192,64360,1,2,0:0:0:0:
448,192,64439,1,2,0:0:0:0:
192,192,64518,1,2,0:0:0:0:
320,192,64676,1,0,0:0:0:0:
192,192,64755,1,0,0:0:0:0:
320,192,64833,1,0,0:0:0:0:
192,192,64991,1,0,0:0:0:0:
192,192,65149,128,0,65307:0:0:0:0:
320,192,65307,1,0,0:0:0:0:
448,192,65465,1,0,0:0:0:70:Clap Drum.wav
64,192,65465,1,2,0:0:0:0:
192,192,65781,1,8,0:0:0:0:
64,192,65781,1,4,0:0:0:0:
448,192,65781,1,0,0:0:0:0:
64,192,65939,1,8,0:0:0:0:
192,192,66018,1,2,0:0:0:0:
448,192,66097,1,8,0:0:0:0:
320,192,66097,1,0,0:0:0:0:
192,192,66176,1,2,0:0:0:0:
320,192,66255,1,8,0:0:0:0:
448,192,66412,1,8,0:0:0:0:
192,192,66412,1,0,0:0:0:0:
448,192,66570,1,8,0:0:0:0:
64,192,66570,1,0,0:0:0:0:
320,192,66649,1,2,0:0:0:0:
64,192,66728,1,8,0:0:0:0:
192,192,66728,1,0,0:0:0:0:
320,192,66886,1,8,0:0:0:0:
192,192,66886,1,0,0:0:0:0:
448,192,67044,1,8,0:0:0:0:
320,192,67044,1,4,0:0:0:0:
64,192,67202,1,8,0:0:0:0:
448,192,67202,1,0,0:0:0:0:
320,192,67281,1,2,0:0:0:0:
192,192,67360,1,8,0:0:0:0:
320,192,67439,1,2,0:0:0:0:
448,192,67518,1,8,0:0:0:0:
192,192,67518,1,0,0:0:0:0:
448,192,67676,1,8,0:0:0:0:
64,192,67676,1,0,0:0:0:0:
320,192,67833,1,8,0:0:0:0:
192,192,67912,1,2,0:0:0:0:
320,192,67991,1,8,0:0:0:0:
64,192,67991,1,0,0:0:0:0:
448,192,68070,1,8,0:0:0:0:
64,192,68149,1,8,0:0:0:0:
448,192,68228,1,8,0:0:0:0:
192,192,68307,1,8,0:0:0:0:
64,192,68307,1,4,0:0:0:0:
320,192,68465,1,8,0:0:0:0:
64,192,68544,1,2,0:0:0:0:
192,192,68623,1,8,0:0:0:0:
320,192,68623,1,0,0:0:0:0:
448,192,68702,1,2,0:0:0:0:
192,192,68781,1,8,0:0:0:0:
64,192,68939,1,8,0:0:0:0:
448,192,68939,1,0,0:0:0:0:
320,192,69097,1,8,0:0:0:0:
64,192,69176,1,2,0:0:0:0:
192,192,69255,1,8,0:0:0:0:
320,192,69255,1,0,0:0:0:0:
448,192,69333,1,2,0:0:0:0:
192,192,69412,1,8,0:0:0:0:
320,192,69570,1,8,0:0:0:0:
448,192,69570,1,4,0:0:0:0:
64,192,69649,1,0,0:0:0:0:
192,192,69728,1,2,0:0:0:0:
320,192,69807,1,2,0:0:0:0:
448,192,69886,1,8,0:0:0:0:
64,192,69886,1,4,0:0:0:0:
192,192,69965,1,0,0:0:0:0:
320,192,70044,1,2,0:0:0:0:
448,192,70123,1,2,0:0:0:0:
192,192,70202,1,0,0:0:0:40:Kick #5.1.wav
64,192,70202,1,4,0:0:0:0:
192,192,70360,1,0,0:0:0:40:Kick #5.1.wav
64,192,70360,1,4,0:0:0:0:
320,192,70518,1,0,0:0:0:40:Kick #5.1.wav
448,192,70518,1,4,0:0:0:0:
320,192,70676,1,0,0:0:0:40:Kick #5.1.wav
448,192,70676,1,4,0:0:0:0:
448,192,70833,1,8,0:0:0:0:
64,192,70833,1,4,0:0:0:0:
192,192,70833,1,0,0:0:0:0:
320,192,70991,1,8,0:0:0:0:
192,192,71070,1,2,0:0:0:0:
448,192,71149,1,8,0:0:0:0:
64,192,71149,1,0,0:0:0:0:
320,192,71228,1,2,0:0:0:0:
448,192,71307,1,8,0:0:0:0:
64,192,71465,1,8,0:0:0:0:
192,192,71465,1,0,0:0:0:0:
320,192,71623,1,8,0:0:0:0:
192,192,71702,1,2,0:0:0:0:
64,192,71781,1,8,0:0:0:0:
448,192,71781,1,0,0:0:0:0:
320,192,71860,1,2,0:0:0:0:
448,192,71939,1,8,0:0:0:0:
320,192,72097,1,8,0:0:0:0:
64,192,72097,1,4,0:0:0:0:
192,192,72255,1,8,0:0:0:0:
320,192,72333,1,2,0:0:0:0:
448,192,72412,1,8,0:0:0:0:
192,192,72412,1,0,0:0:0:0:
64,192,72491,1,2,0:0:0:0:
448,192,72570,1,8,0:0:0:0:
320,192,72728,1,8,0:0:0:0:
64,192,72728,1,0,0:0:0:0:
192,192,72886,1,8,0:0:0:0:
320,192,72965,1,2,0:0:0:0:
448,192,73044,1,8,0:0:0:0:
192,192,73044,1,0,0:0:0:0:
64,192,73123,1,2,0:0:0:0:
448,192,73202,1,8,0:0:0:0:
64,192,73360,1,8,0:0:0:0:
192,192,73360,1,4,0:0:0:0:
448,192,73518,1,8,0:0:0:0:
192,192,73597,1,2,0:0:0:0:
64,192,73676,1,8,0:0:0:0:
320,192,73676,1,0,0:0:0:0:
448,192,73755,1,2,0:0:0:0:
64,192,73833,1,8,0:0:0:0:
320,192,73991,1,8,0:0:0:0:
448,192,73991,1,0,0:0:0:0:
448,192,74149,1,8,0:0:0:0:
64,192,74228,1,2,0:0:0:0:
320,192,74307,1,8,0:0:0:0:
192,192,74307,1,0,0:0:0:0:
448,192,74386,1,2,0:0:0:0:
192,192,74465,1,8,0:0:0:0:
448,192,74623,1,4,0:0:0:0:
64,192,74623,1,8,0:0:0:0:
192,192,74702,1,8,0:0:0:0:
448,192,74781,1,8,0:0:0:0:
192,192,74860,1,8,0:0:0:0:
320,192,74939,1,8,0:0:0:0:
64,192,75018,1,8,0:0:0:0:
320,192,75097,1,8,0:0:0:0:
64,192,75176,1,8,0:0:0:0:
448,192,75255,1,8,0:0:0:0:
192,192,75255,1,4,0:0:0:0:
320,192,75333,1,8,0:0:0:0:
64,192,75412,1,8,0:0:0:0:
448,192,75491,1,8,0:0:0:0:
192,192,75570,1,0,0:0:0:70:Clap Drum.wav
320,192,75570,1,2,0:0:0:0:
448,192,75886,1,0,0:0:0:40:Kick #5.1.wav
64,192,75886,1,4,0:0:0:0:
320,192,75965,1,0,0:0:0:0:
64,192,76044,1,0,0:0:0:40:Kick #5.1.wav
192,192,76123,1,0,0:0:0:40:Kick #5.1.wav
320,192,76202,1,0,0:0:0:40:Kick #5.1.wav
64,192,76281,1,0,0:0:0:40:Kick #5.1.wav
320,192,76360,1,0,0:0:0:40:Kick #5.1.wav
192,192,76439,1,0,0:0:0:40:Kick #5.1.wav
448,192,76518,1,0,0:0:0:40:Kick #5.1.wav
192,192,76597,1,0,0:0:0:40:Kick #5.1.wav
320,192,76676,1,0,0:0:0:40:Kick #5.1.wav
64,192,76755,1,0,0:0:0:40:Kick #5.1.wav
192,192,76833,1,0,0:0:0:40:Kick #5.1.wav
448,192,76833,1,0,0:0:0:0:
192,192,76991,1,0,0:0:0:40:Kick #5.1.wav
448,192,76991,1,0,0:0:0:0:
64,192,77149,1,0,0:0:0:40:Kick #5.1.wav
320,192,77149,1,0,0:0:0:0:
192,192,77228,1,0,0:0:0:0:
448,192,77307,1,0,0:0:0:40:Kick #5.1.wav
320,192,77386,1,0,0:0:0:40:Kick #5.1.wav
448,192,77465,1,0,0:0:0:40:Kick #5.1.wav
64,192,77544,1,0,0:0:0:40:Kick #5.1.wav
192,192,77623,1,0,0:0:0:40:Kick #5.1.wav
448,192,77702,1,0,0:0:0:40:Kick #5.1.wav
192,192,77781,1,0,0:0:0:40:Kick #5.1.wav
64,192,77860,1,0,0:0:0:0:
320,192,77939,1,0,0:0:0:40:Kick #5.1.wav
192,192,78018,1,0,0:0:0:0:
64,192,78097,1,8,0:0:0:0:
448,192,78097,1,0,0:0:0:0:
64,192,78255,1,8,0:0:0:0:
448,192,78255,1,0,0:0:0:0:
320,192,78412,1,0,0:0:0:40:Kick #5.1.wav
192,192,78412,1,4,0:0:0:0:
448,192,78491,1,0,0:0:0:0:
64,192,78570,1,0,0:0:0:40:Kick #5.1.wav
448,192,78649,1,0,0:0:0:40:Kick #5.1.wav
320,192,78728,1,0,0:0:0:40:Kick #5.1.wav
192,192,78807,1,0,0:0:0:40:Kick #5.1.wav
64,192,78886,1,0,0:0:0:40:Kick #5.1.wav
320,192,78965,1,0,0:0:0:40:Kick #5.1.wav
192,192,79044,1,0,0:0:0:40:Kick #5.1.wav
448,192,79123,1,0,0:0:0:40:Kick #5.1.wav
192,192,79202,1,0,0:0:0:40:Kick #5.1.wav
320,192,79281,1,0,0:0:0:40:Kick #5.1.wav
448,192,79360,1,0,0:0:0:40:Kick #5.1.wav
64,192,79439,1,0,0:0:0:40:Kick #5.1.wav
448,192,79518,1,0,0:0:0:40:Kick #5.1.wav
192,192,79597,1,0,0:0:0:40:Kick #5.1.wav
320,192,79676,1,0,0:0:0:40:Kick #5.1.wav
64,192,79676,1,4,0:0:0:0:
448,192,79755,1,0,0:0:0:0:
64,192,79833,1,0,0:0:0:0:
320,192,79912,1,0,0:0:0:40:Kick #5.1.wav
192,192,79991,1,0,0:0:0:40:Kick #5.1.wav
448,192,80070,1,0,0:0:0:0:
320,192,80149,1,0,0:0:0:40:Kick #5.1.wav
448,192,80228,1,0,0:0:0:40:Kick #5.1.wav
192,192,80307,1,0,0:0:0:0:
64,192,80307,1,0,0:0:0:0:
320,192,80465,1,0,0:0:0:40:Kick #5.1.wav
64,192,80465,1,0,0:0:0:0:
320,192,80623,1,0,0:0:0:70:Clap Drum.wav
192,192,80623,1,2,0:0:0:0:
448,192,80623,128,0,80939:0:0:0:0:
192,192,80939,1,0,0:0:0:40:Kick #5.1.wav
64,192,80939,1,4,0:0:0:0:
320,192,81018,1,0,0:0:0:40:Kick #5.1.wav
64,192,81097,1,0,0:0:0:40:Kick #5.1.wav
448,192,81176,1,0,0:0:0:40:Kick #5.1.wav
192,192,81255,1,0,0:0:0:40:Kick #5.1.wav
320,192,81255,1,0,0:0:0:0:
448,192,81333,1,0,0:0:0:40:Kick #5.1.wav
192,192,81412,1,0,0:0:0:40:Kick #5.1.wav
320,192,81491,1,0,0:0:0:40:Kick #5.1.wav
448,192,81570,1,0,0:0:0:40:Kick #5.1.wav
64,192,81570,1,0,0:0:0:0:
192,192,81649,1,0,0:0:0:40:Kick #5.1.wav
64,192,81728,1,0,0:0:0:40:Kick #5.1.wav
448,192,81807,1,0,0:0:0:40:Kick #5.1.wav
192,192,81886,1,0,0:0:0:40:Kick #5.1.wav
320,192,81886,1,0,0:0:0:0:
64,192,81965,1,0,0:0:0:40:Kick #5.1.wav
448,192,82044,1,0,0:0:0:40:Kick #5.1.wav
192,192,82123,1,0,0:0:0:40:Kick #5.1.wav
448,192,82202,1,0,0:0:0:40:Kick #5.1.wav
320,192,82202,1,0,0:0:0:0:
64,192,82281,1,0,0:0:0:0:
320,192,82360,1,0,0:0:0:40:Kick #5.1.wav
64,192,82439,1,0,0:0:0:40:Kick #5.1.wav
448,192,82518,1,0,0:0:0:40:Kick #5.1.wav
320,192,82518,1,0,0:0:0:0:
192,192,82597,1,0,0:0:0:40:Kick #5.1.wav
64,192,82676,1,0,0:0:0:40:Kick #5.1.wav
448,192,82755,1,0,0:0:0:40:Kick #5.1.wav
64,192,82833,1,0,0:0:0:40:Kick #5.1.wav
320,192,82833,1,0,0:0:0:0:
448,192,82991,1,0,0:0:0:40:Kick #5.1.wav
320,192,82991,1,0,0:0:0:0:
192,192,83149,1,8,0:0:0:0:
64,192,83149,1,0,0:0:0:0:
320,192,83307,1,8,0:0:0:0:
64,192,83307,1,0,0:0:0:0:
192,192,83465,1,0,0:0:0:40:Kick #5.1.wav
448,192,83465,1,4,0:0:0:0:
320,192,83544,1,0,0:0:0:0:
64,192,83623,1,0,0:0:0:40:Kick #5.1.wav
448,192,83702,1,0,0:0:0:40:Kick #5.1.wav
64,192,83781,1,0,0:0:0:40:Kick #5.1.wav
320,192,83781,1,0,0:0:0:0:
448,192,83860,1,0,0:0:0:40:Kick #5.1.wav
192,192,83939,1,0,0:0:0:40:Kick #5.1.wav
64,192,84018,1,0,0:0:0:40:Kick #5.1.wav
448,192,84097,1,0,0:0:0:40:Kick #5.1.wav
320,192,84097,1,4,0:0:0:0:
192,192,84176,1,0,0:0:0:40:Kick #5.1.wav
64,192,84255,1,0,0:0:0:40:Kick #5.1.wav
448,192,84333,1,0,0:0:0:40:Kick #5.1.wav
64,192,84412,1,0,0:0:0:40:Kick #5.1.wav
192,192,84412,1,0,0:0:0:0:
448,192,84491,1,0,0:0:0:40:Kick #5.1.wav
64,192,84570,1,0,0:0:0:40:Kick #5.1.wav
320,192,84649,1,0,0:0:0:40:Kick #5.1.wav
192,192,84728,1,0,0:0:0:40:Kick #5.1.wav
448,192,84728,1,4,0:0:0:0:
64,192,84807,1,0,0:0:0:0:
320,192,84886,1,0,0:0:0:0:
192,192,84965,1,0,0:0:0:40:Kick #5.1.wav
448,192,85044,5,0,0:0:0:40:Kick #5.1.wav
64,192,85044,1,4,0:0:0:0:
320,192,85123,1,0,0:0:0:0:
64,192,85202,1,0,0:0:0:40:Kick #5.1.wav
192,192,85281,1,0,0:0:0:0:
448,192,85360,1,0,0:0:0:40:Kick #5.1.wav
320,192,85360,1,4,0:0:0:0:
64,192,85439,1,0,0:0:0:0:
320,192,85518,1,0,0:0:0:40:Kick #5.1.wav
192,192,85597,1,0,0:0:0:40:Kick #5.1.wav
64,192,85676,1,0,0:0:0:70:Clap Drum.wav
448,192,85676,1,6,0:0:0:0:
320,192,85755,1,0,0:0:0:0:
192,192,85833,1,0,0:0:0:35:Kick #5.1.wav
64,192,85912,1,0,0:0:0:35:Kick #5.1.wav
448,192,85991,1,0,0:0:0:0:
448,192,86234,128,0,88523:0:0:0:70:Clap Drum.wav
320,192,86234,128,2,88444:0:0:0:0:
192,192,86234,128,4,88365:0:0:0:0:
64,192,88444,1,0,0:0:0:0:
192,192,88523,1,0,0:0:0:0:
320,192,88602,1,0,0:0:0:0:
448,192,88681,1,0,0:0:0:0:
