osu file format v14

[General]
AudioFilename: audio.mp3
AudioLeadIn: 0
PreviewTime: 49896
Countdown: 0
SampleSet: Soft
StackLeniency: 0.7
Mode: 0
LetterboxInBreaks: 0
WidescreenStoryboard: 1

[Editor]
Bookmarks: 61173,66447,82271
DistanceSpacing: 1
BeatDivisor: 4
GridSize: 8
TimelineZoom: 2

[Metadata]
Title:Kanpeki Gu~no ne (TV Size)
TitleUnicode:完璧ぐ~のね (TV Size)
Artist:Watarirouka Hashiritai
ArtistUnicode:渡り廊下走り隊
Creator:browiec
Version:Taeyang's Perfect Partner!
Source:フェアリーテイル
Tags:fairy tail ending 1 chuuritsutv nyantiaz rvmathew reform kujinn taeyang cami japanese anime idol satelight a-1 pictures bridge
BeatmapID:1988911
BeatmapSetID:952498

[Difficulty]
HPDrainRate:7
CircleSize:4
OverallDifficulty:9.2
ApproachRate:9.4
SliderMultiplier:1.8
SliderTickRate:1

[Events]
//Background and Video events
0,0,"jazda po wroclawiu noca.jpg",0,0
//Break Periods
2,74424,75862
//Storyboard Layer 0 (Background)
//Storyboard Layer 1 (Fail)
//Storyboard Layer 2 (Pass)
//Storyboard Layer 3 (Foreground)
//Storyboard Sound Samples

[TimingPoints]
-740,329.67032967033,4,2,1,60,1,0
413,-100,4,2,1,40,0,0
578,-100,4,2,1,60,0,0
32227,-133.333333333333,4,2,1,40,0,0
42611,-100,4,2,1,60,0,0
50029,-133.333333333333,4,2,1,60,0,0
50688,-100,4,2,1,70,0,1
55963,-100,4,2,1,60,0,1
61238,-100,4,2,1,70,0,1
66512,-100,4,2,1,60,0,1
71787,-133.333333333333,4,2,1,60,0,0
77062,-100,4,2,1,70,0,1
82336,-100,4,2,1,60,0,1
87611,-133.333333333333,4,2,1,60,0,0
90249,-100,4,2,1,60,0,0
95029,-100,4,2,1,40,0,0
95194,-100,4,2,1,30,0,0
95523,-100,4,2,1,60,0,0
99397,-100,4,2,1,20,0,0

[Colours]
Combo1 : 0,255,0
Combo2 : 0,128,255
Combo3 : 255,255,0
Combo4 : 255,0,255

[HitObjects]
132,124,413,5,4,0:3:0:0:
132,124,496,1,4,0:3:0:0:
132,124,578,2,0,L|137:213,1,90,6|0,0:0|0:0,0:0:0:0:
275,303,908,1,8,0:0:0:0:
450,246,1073,2,0,P|405:234|364:244,1,90,2|0,0:0|0:0,0:0:0:0:
192,352,1402,1,0,0:0:0:0:
295,171,1567,1,8,0:0:0:0:
450,245,1732,6,0,P|406:256|363:245,1,90,2|0,0:0|0:0,0:0:0:0:
226,91,2062,1,0,0:0:0:0:
275,303,2227,1,8,0:0:0:0:
103,237,2391,2,0,P|150:245|202:229,1,90,2|0,0:0|0:0,0:0:0:0:
84,109,2721,1,8,0:1:0:0:
41,304,2886,2,0,P|89:332|143:334,1,90,8|0,0:1|0:0,0:0:0:0:
323,184,3216,5,6,0:0:0:0:
198,380,3380,1,0,0:0:0:0:
168,136,3545,1,8,0:0:0:0:
408,154,3710,2,0,P|414:197|396:238,1,90,2|0,0:0|0:0,0:0:0:0:
215,354,4040,1,0,0:0:0:0:
323,184,4205,1,8,0:0:0:0:
474,290,4369,6,0,L|277:272,1,180,2|0,0:0|0:0,0:0:0:0:
127,141,4864,1,8,0:0:0:0:
182,299,5029,1,0,0:0:0:0:
209,100,5194,1,2,0:0:0:0:
99,338,5358,1,8,0:1:0:0:
35,129,5523,2,0,P|74:152|118:150,1,90,8|0,0:1|0:0,0:0:0:0:
321,56,5853,5,6,0:0:0:0:
219,282,6018,1,0,0:0:0:0:
95,68,6183,1,8,0:0:0:0:
315,167,6347,2,0,L|318:77,1,90,2|0,0:0|0:0,0:0:0:0:
154,160,6677,1,0,0:0:0:0:
400,245,6842,1,8,0:0:0:0:
404,49,7007,6,0,L|401:158,1,90,2|0,0:0|0:0,0:0:0:0:
246,295,7336,1,0,0:0:0:0:
210,86,7501,1,8,0:0:0:0:
440,211,7666,2,0,P|392:221|353:203,1,90,2|0,0:0|0:0,0:0:0:0:
192,65,7996,1,8,0:1:0:0:
246,295,8161,2,0,L|250:202,1,90,8|0,0:1|0:0,0:0:0:0:
125,339,8490,5,6,0:0:0:0:
375,279,8655,1,0,0:0:0:0:
99,198,8820,5,10,0:0:0:0:
400,273,8985,1,0,0:0:0:0:
203,102,9150,5,2,0:0:0:0:
218,379,9315,1,0,0:0:0:0:
331,77,9479,5,10,0:0:0:0:
314,371,9644,1,4,0:0:0:0:
334,369,9974,5,14,0:0:0:0:
96,213,10139,2,0,P|82:255|95:297,1,90,14|0,0:0|0:0,0:0:0:0:
403,174,10468,1,14,0:0:0:0:
403,174,11128,5,6,0:0:0:0:
313,150,12281,5,6,0:0:0:0:
223,126,13765,5,6,0:0:0:0:
133,102,14919,6,0,B|97:143|97:143|114:267,1,180,6|0,0:0|0:0,0:0:0:0:
246,376,15413,1,6,0:3:0:0:
246,376,15496,1,4,0:3:0:0:
246,376,15578,1,6,0:3:0:0:
399,211,15743,1,4,0:3:0:0:
207,149,15908,1,2,0:3:0:0:
205,171,15990,1,4,0:3:0:0:
204,193,16072,1,4,0:3:0:0:
203,216,16155,1,4,0:3:0:0:
202,238,16238,2,0,L|197:319,1,45,6|4,0:3|0:3,0:0:0:0:
255,360,16402,6,0,P|299:369|340:352,1,90,6|0,0:0|0:0,0:0:0:0:
459,149,16732,2,0,P|421:126|376:130,1,90,10|0,0:0|0:0,0:0:0:0:
202,238,17062,1,2,0:0:0:0:
278,40,17227,2,0,L|273:131,1,90,2|8,0:0|0:0,0:0:0:0:
150,26,17556,1,2,0:0:0:0:
362,68,17721,6,0,L|357:157,1,90,2|0,0:0|0:0,0:0:0:0:
195,336,18051,2,0,L|188:234,1,90,10|0,0:0|0:0,0:0:0:0:
405,308,18380,1,2,0:0:0:0:
172,251,18545,1,0,0:0:0:0:
355,183,18710,1,10,0:0:0:0:
151,259,18875,1,0,0:0:0:0:
416,327,19040,6,0,P|429:283|427:237,1,90,6|0,0:0|0:0,0:0:0:0:
222,60,19369,2,0,P|216:104|228:147,1,90,10|0,0:0|0:0,0:0:0:0:
427,223,19699,2,0,L|328:214,1,90,2|0,0:0|0:0,0:0:0:0:
104,322,20029,2,0,L|193:311,1,90,10|0,0:0|0:0,0:0:0:0:
310,121,20358,5,6,0:0:0:0:
282,357,20523,1,2,0:0:0:0:
134,191,20688,1,8,0:0:0:0:
385,87,20853,1,6,0:0:0:0:
399,79,21183,5,8,0:0:0:0:
423,286,21347,2,0,L|333:274,1,90,8|0,0:0|0:0,0:0:0:0:
65,240,21677,6,0,P|48:200|55:156,1,90,4|0,0:0|0:0,0:0:0:0:
302,31,22007,2,0,L|294:120,1,90,2|0,0:0|0:0,0:0:0:0:
197,348,22336,2,0,L|192:253,1,90,2|0,0:0|0:0,0:0:0:0:
244,196,22584,1,8,0:0:0:0:
255,188,22666,2,0,P|295:174|354:189,1,90,10|0,0:0|0:0,0:0:0:0:
187,356,22996,6,0,L|182:266,1,90,6|0,0:0|0:0,0:0:0:0:
416,147,23325,2,0,P|423:190|405:231,1,90,0|0,0:0|0:0,0:0:0:0:
231,178,23655,2,0,L|227:88,1,90,2|0,0:0|0:0,0:0:0:0:
279,27,23902,1,8,0:0:0:0:
292,21,23985,2,0,P|335:11|378:23,1,90,8|0,0:0|0:0,0:0:0:0:
396,247,24314,6,0,L|290:239,1,90,4|0,0:0|0:0,0:0:0:0:
424,332,24644,2,0,L|334:325,1,90,2|0,0:0|0:0,0:0:0:0:
123,309,24974,2,0,P|104:261|128:196,1,90,0|2,0:0|0:0,0:0:0:0:
152,158,25221,1,8,0:0:0:0:
164,150,25303,2,0,L|287:142,1,90,8|2,0:0|0:0,0:0:0:0:
121,51,25633,6,0,L|304:60,1,180,6|8,0:0|0:0,0:0:0:0:
425,198,26128,1,2,0:0:0:0:
425,198,26457,6,0,L|414:279,1,45,2|0,0:0|0:0,0:0:0:0:
386,326,26622,2,0,P|318:346|250:318,1,135,8|0,0:0|0:0,0:0:0:0:
249,316,26952,6,0,L|253:226,1,90,6|0,0:0|0:0,0:0:0:0:
121,67,27281,2,0,L|127:183,1,90,10|0,0:0|0:0,0:0:0:0:
309,56,27611,1,2,0:0:0:0:
112,166,27776,2,0,P|103:209|120:250,1,90,2|8,0:0|0:0,0:0:0:0:
365,317,28106,1,2,0:0:0:0:
231,104,28270,6,0,L|224:193,1,90,2|0,0:0|0:0,0:0:0:0:
384,97,28600,2,0,P|399:56|387:13,1,90,10|0,0:0|0:0,0:0:0:0:
213,202,28930,1,0,0:0:0:0:
434,267,29094,1,0,0:0:0:0:
218,95,29260,1,10,0:0:0:0:
254,303,29424,1,0,0:0:0:0:
483,199,29589,6,0,P|441:181|398:191,1,90,6|0,0:0|0:0,0:0:0:0:
158,322,29919,2,0,P|202:331|243:315,1,90,10|0,0:0|0:0,0:0:0:0:
80,141,30249,2,0,B|76:234,1,90,2|0,0:0|0:0,0:0:0:0:
314,159,30578,2,0,B|308:69,1,90,10|0,0:0|0:0,0:0:0:0:
118,42,30908,5,6,0:0:0:0:
169,278,31073,1,2,0:0:0:0:
306,50,31238,1,8,0:0:0:0:
64,131,31402,1,6,0:0:0:0:
64,131,31732,5,8,0:0:0:0:
91,283,31897,2,0,P|133:298|177:290,1,90,8|0,0:0|0:0,0:0:0:0:
377,277,32227,6,0,P|319:246|255:260,1,135.000005149842,6|0,0:0|0:0,0:0:0:0:
79,369,32721,1,0,0:0:0:0:
158,197,32886,1,2,0:0:0:0:
456,309,33216,1,8,0:0:0:0:
104,132,33545,6,0,L|108:266,1,135.000005149842,0|0,0:0|0:0,0:0:0:0:
310,366,34040,1,0,0:0:0:0:
310,366,34205,2,0,L|313:298,1,67.5000025749208,0|0,0:0|0:0,0:0:0:0:
228,161,34534,2,0,L|230:228,1,67.5000025749208,10|0,0:0|0:0,0:0:0:0:
297,90,34864,6,0,B|231:66|231:66|155:93,1,135.000005149842,6|0,0:0|0:0,0:0:0:0:
112,289,35358,1,0,0:0:0:0:
318,227,35523,1,2,0:0:0:0:
12,119,35853,1,8,0:0:0:0:
383,72,36183,6,0,L|380:139,2,67.5000025749208,2|0|0,0:0|0:0|0:0,0:0:0:0:
223,33,36677,1,2,0:0:0:0:
286,187,36842,2,0,L|283:119,1,67.5000025749208,8|0,0:0|0:0,0:0:0:0:
199,263,37172,1,2,0:0:0:0:
371,229,37337,1,8,0:0:0:0:
147,195,37501,6,0,P|114:253|133:316,1,135.000005149842,6|0,0:0|0:0,0:0:0:0:
337,352,37996,1,0,0:0:0:0:
278,203,38161,1,2,0:0:0:0:
15,315,38490,1,8,0:0:0:0:
360,357,38820,6,0,P|384:290|365:217,1,135.000005149842,0|0,0:0|0:0,0:0:0:0:
177,150,39314,1,0,0:0:0:0:
323,60,39479,1,0,0:0:0:0:
259,284,39644,1,8,0:0:0:0:
162,143,39809,1,10,0:0:0:0:
386,237,39974,1,8,0:0:0:0:
203,351,40139,6,0,P|172:293|192:230,1,135.000005149842,6|0,0:0|0:0,0:0:0:0:
345,138,40633,1,0,0:0:0:0:
259,284,40798,1,2,0:0:0:0:
94,40,41128,1,8,0:0:0:0:
422,106,41457,6,0,P|432:137|424:169,1,67.5000025749208,4|0,0:0|0:0,0:0:0:0:
274,275,41787,1,8,0:0:0:0:
345,138,41951,1,0,0:0:0:0:
391,316,42117,1,8,0:0:0:0:
192,247,42281,1,0,0:0:0:0:
342,124,42446,1,0,0:0:0:0:
305,355,42611,6,0,P|262:361|221:342,1,90,6|0,0:0|0:0,0:0:0:0:
130,140,42941,1,0,0:0:0:0:
73,304,43105,1,8,0:0:0:0:
136,127,43270,2,0,L|225:134,1,90,2|0,0:0|0:0,0:0:0:0:
331,276,43600,1,0,0:0:0:0:
106,216,43765,1,8,0:0:0:0:
299,97,43930,6,0,P|309:140|292:180,1,90,6|0,0:0|0:0,0:0:0:0:
110,231,44260,1,0,0:0:0:0:
60,50,44424,1,8,0:0:0:0:
115,250,44589,2,0,L|232:241,1,90,2|0,0:0|0:0,0:0:0:0:
407,96,44919,1,0,0:0:0:0:
295,329,45084,1,8,0:0:0:0:
138,131,45249,6,0,P|181:122|225:133,1,90,6|0,0:0|0:0,0:0:0:0:
404,294,45578,1,0,0:0:0:0:
187,364,45743,1,8,0:0:0:0:
418,291,45908,2,0,L|423:195,1,90,2|0,0:0|0:0,0:0:0:0:
255,60,46238,1,0,0:0:0:0:
330,251,46402,2,0,L|335:160,1,90,8|0,0:0|0:0,0:0:0:0:
121,144,46732,6,0,P|100:184|101:228,1,90,2|0,0:0|0:0,0:0:0:0:
318,353,47062,2,0,P|326:310|314:267,1,90,10|0,0:0|0:0,0:0:0:0:
46,287,47391,2,0,P|85:310|128:303,1,90,2|0,0:0|0:0,0:0:0:0:
349,193,47721,2,0,P|305:183|264:200,1,90,10|0,0:0|0:0,0:0:0:0:
174,377,48051,5,14,0:0:0:0:
229,105,48216,1,12,0:0:0:0:
486,281,48545,5,14,0:0:0:0:
78,316,48874,5,12,0:0:0:0:
253,23,49204,5,14,0:0:0:0:
314,267,49369,1,10,0:0:0:0:
252,325,50029,6,0,P|229:263|257:204,1,135.000005149842,2|0,0:0|0:0,0:0:0:0:
314,267,50523,1,0,0:0:0:0:
108,351,50688,5,14,0:0:0:0:
279,120,50853,1,0,0:0:0:0:
391,328,51018,1,8,0:0:0:0:
86,251,51183,6,0,P|75:193|87:149,1,90,2|8,0:0|0:0,0:0:0:0:
376,199,51512,1,0,0:0:0:0:
100,265,51677,1,8,0:0:0:0:
283,30,51842,6,0,L|278:120,1,90,2|8,0:0|0:0,0:0:0:0:
266,369,52172,1,0,0:0:0:0:
98,117,52336,5,14,0:0:0:0:
433,162,52501,1,0,0:0:0:0:
72,220,52666,5,14,0:0:0:0:
427,239,52831,1,0,0:0:0:0:
90,334,52996,5,14,0:0:0:0:
433,310,53161,1,0,0:0:0:0:
170,51,53325,5,14,0:0:0:0:
258,356,53490,1,0,0:0:0:0:
444,152,53655,1,8,0:0:0:0:
85,125,53820,6,0,L|88:214,1,90,2|8,0:0|0:0,0:0:0:0:
344,323,54150,1,0,0:0:0:0:
214,120,54314,1,8,0:0:0:0:
95,296,54479,1,2,0:0:0:0:
281,168,54644,6,0,P|299:128|289:85,1,90,8|0,0:0|0:0,0:0:0:0:
88,214,54974,2,0,L|177:218,1,90,8|0,0:0|0:0,0:0:0:0:
396,235,55303,1,10,0:0:0:0:
145,114,55468,1,8,0:1:0:0:
217,351,55633,1,8,0:1:0:0:
387,126,55798,1,0,0:0:0:0:
85,45,55963,6,0,B|54:90|54:90|71:214,1,180,6|8,0:0|0:0,0:0:0:0:
203,34,56457,1,2,0:0:0:0:
297,279,56622,1,0,0:0:0:0:
61,231,56787,1,2,0:0:0:0:
303,110,56952,1,8,0:0:0:0:
221,322,57117,6,0,B|195:280|220:235|220:235|241:188|221:149,1,180,2|0,0:0|0:0,0:0:0:0:
104,354,57611,1,10,0:0:0:0:
333,267,57776,1,0,0:0:0:0:
131,94,57941,1,2,0:0:0:0:
227,339,58106,1,8,0:1:0:0:
325,141,58270,2,0,B|282:127|282:127|238:140,1,90,8|0,0:1|0:0,0:0:0:0:
117,344,58600,5,6,0:0:0:0:
393,319,58765,1,0,0:0:0:0:
147,239,58930,1,8,0:0:0:0:
417,326,59095,2,0,P|430:282|417:236,1,90,2|0,0:0|0:0,0:0:0:0:
102,352,59424,5,2,0:0:0:0:
410,225,59589,1,10,0:0:0:0:
165,28,59754,1,2,0:0:0:0:
152,19,60084,5,2,0:0:0:0:
268,355,60249,1,10,0:0:0:0:
397,82,60413,1,2,0:0:0:0:
116,185,60578,6,0,P|157:203|201:193,1,90,2|0,0:0|0:0,0:0:0:0:
288,57,60908,1,4,0:3:0:0:
288,57,60990,1,4,0:3:0:0:
288,57,61073,1,4,0:3:0:0:
356,351,61238,5,14,0:0:0:0:
51,259,61402,1,0,0:0:0:0:
224,111,61567,1,8,0:0:0:0:
240,360,61732,6,0,L|131:352,1,90,2|8,0:0|0:0,0:0:0:0:
96,110,62062,1,0,0:0:0:0:
345,238,62227,1,8,0:0:0:0:
135,351,62391,6,0,B|121:305|121:305|133:263,1,90,2|8,0:0|0:0,0:0:0:0:
422,168,62721,1,0,0:0:0:0:
169,31,62886,5,14,0:0:0:0:
240,360,63051,1,0,0:0:0:0:
256,24,63216,5,14,0:0:0:0:
256,368,63381,1,0,0:0:0:0:
344,16,63545,5,14,0:0:0:0:
272,376,63710,1,0,0:0:0:0:
74,128,63875,5,14,0:0:0:0:
428,176,64040,1,0,0:0:0:0:
131,262,64205,1,10,0:0:0:0:
342,34,64369,6,0,L|337:123,1,90,2|8,0:0|0:0,0:0:0:0:
152,347,64699,1,0,0:0:0:0:
232,116,64864,1,8,0:0:0:0:
369,312,65029,1,2,0:0:0:0:
111,259,65194,6,0,P|93:217|101:172,1,90,8|0,0:0|0:0,0:0:0:0:
383,139,65523,2,0,B|377:228,1,90,8|0,0:0|0:0,0:0:0:0:
171,345,65853,1,10,0:0:0:0:
253,114,66018,1,8,0:1:0:0:
402,307,66183,1,8,0:1:0:0:
152,347,66347,1,0,0:0:0:0:
186,59,66512,6,0,P|266:29|334:88,1,180,6|8,0:0|0:0,0:0:0:0:
246,348,67007,1,0,0:0:0:0:
95,176,67172,1,2,0:0:0:0:
385,214,67336,1,0,0:0:0:0:
122,261,67501,1,8,0:0:0:0:
251,56,67666,6,0,B|245:119|245:119|265:161|265:161|257:230,1,180,6|0,0:0|0:0,0:0:0:0:
31,295,68161,1,8,0:0:0:0:
124,85,68325,1,0,0:0:0:0:
194,293,68490,1,2,0:0:0:0:
17,126,68655,1,8,0:1:0:0:
261,143,68820,2,0,P|269:187|257:229,1,90,8|0,0:1|0:0,0:0:0:0:
116,345,69150,5,6,0:0:0:0:
251,123,69314,1,0,0:0:0:0:
374,311,69479,1,8,0:0:0:0:
104,252,69644,2,0,P|90:210|99:166,1,90,2|0,0:0|0:0,0:0:0:0:
337,83,69974,1,0,0:0:0:0:
223,348,70139,1,8,0:0:0:0:
116,154,70303,6,0,L|298:162,1,180,6|0,0:0|0:0,0:0:0:0:
158,247,70798,2,0,L|247:243,1,90,8|0,0:0|0:0,0:0:0:0:
410,148,71128,2,0,P|368:134|326:148,1,90,0|0,0:0|0:0,0:0:0:0:
375,344,71457,1,12,0:3:0:0:
375,344,71540,1,4,0:3:0:0:
375,344,71622,1,4,0:3:0:0:
432,142,71787,6,0,P|369:120|306:142,1,135.000005149842,6|0,0:0|0:0,0:0:0:0:
236,256,72281,2,0,L|233:330,1,67.5000025749208,2|0,0:0|0:0,0:0:0:0:
169,199,72611,1,0,0:0:0:0:
330,261,72776,1,0,0:0:0:0:
117,300,72941,1,0,0:0:0:0:
232,98,73106,5,14,0:0:0:0:
221,341,73270,1,14,0:0:0:0:
150,139,76402,5,2,0:0:0:0:
140,162,76484,1,2,0:0:0:0:
138,187,76566,1,2,0:0:0:0:
144,212,76649,1,2,0:0:0:0:
156,233,76732,2,0,L|111:228,2,33.7500012874604,2|2|2,0:0|0:0|0:0,0:0:0:0:
233,244,77062,5,14,0:0:0:0:
72,66,77227,1,0,0:0:0:0:
152,335,77391,1,8,0:0:0:0:
325,157,77556,6,0,B|281:142|281:142|239:153,1,90,2|8,0:0|0:0,0:0:0:0:
60,315,77886,1,0,0:0:0:0:
321,241,78051,1,8,0:0:0:0:
172,103,78216,6,0,P|154:146|164:190,1,90,2|8,0:0|0:0,0:0:0:0:
353,328,78545,1,0,0:0:0:0:
289,55,78710,5,14,0:0:0:0:
169,353,78875,1,0,0:0:0:0:
202,32,79040,5,14,0:0:0:0:
261,350,79205,1,0,0:0:0:0:
193,18,79369,5,14,0:0:0:0:
156,363,79534,1,0,0:0:0:0:
412,144,79699,5,14,0:0:0:0:
85,183,79864,1,0,0:0:0:0:
373,267,80029,1,8,0:0:0:0:
179,31,80194,6,0,P|164:72|173:116,1,90,2|8,0:0|0:0,0:0:0:0:
392,278,80523,1,0,0:0:0:0:
251,79,80688,1,8,0:0:0:0:
142,284,80853,1,2,0:0:0:0:
348,159,81018,6,0,L|354:52,1,90,8|0,0:0|0:0,0:0:0:0:
228,232,81347,2,0,L|234:329,1,90,8|0,0:0|0:0,0:0:0:0:
142,151,81677,1,2,0:0:0:0:
355,244,81842,1,8,0:1:0:0:
108,320,82007,2,0,P|92:276|105:233,1,90,8|0,0:1|0:0,0:0:0:0:
344,255,82336,6,0,B|307:289|307:289|177:274,1,180,6|8,0:0|0:0,0:0:0:0:
258,114,82831,1,0,0:0:0:0:
283,366,82996,1,2,0:0:0:0:
165,197,83161,1,0,0:0:0:0:
400,194,83325,1,8,0:0:0:0:
134,119,83490,6,0,P|80:188|117:265,1,180,2|0,0:0|0:0,0:0:0:0:
381,182,83985,1,10,0:0:0:0:
210,81,84150,1,0,0:0:0:0:
190,304,84314,1,2,0:0:0:0:
400,194,84479,1,8,0:1:0:0:
139,34,84644,2,0,P|123:75|133:118,1,90,8|0,0:1|0:0,0:0:0:0:
334,38,84974,5,6,0:0:0:0:
292,293,85139,1,0,0:0:0:0:
144,137,85303,1,8,0:0:0:0:
399,108,85468,2,0,P|412:150|399:193,1,90,2|0,0:0|0:0,0:0:0:0:
175,251,85798,1,0,0:0:0:0:
327,152,85963,1,10,0:0:0:0:
146,29,86128,6,0,B|109:62|109:62|119:191,1,180,4|0,0:0|0:0,0:0:0:0:
320,357,86622,2,0,L|329:267,1,90,8|4,0:0|0:0,0:0:0:0:
104,208,86952,2,0,P|91:251|104:293,1,90,0|0,0:0|0:0,0:0:0:0:
345,262,87281,1,12,0:3:0:0:
345,262,87364,1,4,0:3:0:0:
345,262,87446,1,4,0:3:0:0:
221,70,87611,6,0,L|221:205,1,135.000005149842,6|0,0:0|0:0,0:0:0:0:
304,100,88106,2,0,L|304:180,1,67.5000025749208,2|0,0:0|0:0,0:0:0:0:
195,306,88435,1,0,0:0:0:0:
130,175,88600,1,0,0:0:0:0:
298,255,88765,1,0,0:0:0:0:
92,357,88930,5,14,0:0:0:0:
149,82,89095,1,14,0:0:0:0:
149,82,90249,6,0,B|193:72|193:72|236:84,1,90,6|0,0:0|0:0,0:0:0:0:
279,309,90578,1,8,0:0:0:0:
128,186,90743,2,0,L|134:83,1,90,2|0,0:0|0:0,0:0:0:0:
49,284,91073,1,0,0:0:0:0:
230,220,91238,1,8,0:0:0:0:
123,90,91402,6,0,L|118:196,1,90,2|0,0:0|0:0,0:0:0:0:
200,318,91732,1,0,0:0:0:0:
262,134,91897,1,8,0:0:0:0:
71,244,92062,2,0,P|112:260|155:251,1,90,2|0,0:0|0:0,0:0:0:0:
357,162,92391,1,8,0:1:0:0:
122,92,92556,2,0,B|108:134|108:134|118:179,1,90,8|0,0:1|0:0,0:0:0:0:
331,38,92886,5,6,0:0:0:0:
293,316,93051,1,0,0:0:0:0:
196,52,93216,5,10,0:0:0:0:
219,355,93380,1,0,0:0:0:0:
365,33,93545,5,2,0:0:0:0:
340,376,93710,1,0,0:0:0:0:
59,234,93875,5,10,0:0:0:0:
431,137,94040,1,4,0:0:0:0:
431,137,94369,5,14,0:0:0:0:
135,333,94534,1,14,0:0:0:0:
203,39,94699,1,0,0:0:0:0:
365,236,94864,6,0,P|320:251|277:242,1,90,14|8,0:0|0:3,0:0:0:0:
203,39,95194,1,4,0:3:0:0:
431,137,95358,1,4,0:3:0:0:
252,322,95523,5,6,0:0:0:0:
286,17,95688,1,6,0:0:0:0:
477,333,96018,5,6,0:0:0:0:
60,187,96347,1,6,0:0:0:0:
421,40,96677,1,6,0:0:0:0:
256,192,96760,12,0,99397,0:0:0:0:
