osu file format v14

[General]
AudioFilename: audio.mp3
AudioLeadIn: 0
PreviewTime: 49896
Countdown: 0
SampleSet: Soft
StackLeniency: 0.4
Mode: 0
LetterboxInBreaks: 0
WidescreenStoryboard: 1

[Editor]
Bookmarks: 61173,66447,82271
DistanceSpacing: 1.1
BeatDivisor: 4
GridSize: 4
TimelineZoom: 2

[Metadata]
Title:Kanpeki Gu~no ne (TV Size)
TitleUnicode:完璧ぐ~のね (TV Size)
Artist:Watarirouka Hashiritai
ArtistUnicode:渡り廊下走り隊
Creator:browiec
Version:Mathew's Hard!
Source:フェアリーテイル
Tags:fairy tail ending 1 chuuritsutv nyantiaz rvmathew reform kujinn taeyang cami japanese anime idol satelight a-1 pictures bridge
BeatmapID:1988908
BeatmapSetID:952498

[Difficulty]
HPDrainRate:5
CircleSize:4.5
OverallDifficulty:6
ApproachRate:8
SliderMultiplier:1.3
SliderTickRate:1

[Events]
//Background and Video events
0,0,"jazda po wroclawiu noca.jpg",0,0
//Break Periods
//Storyboard Layer 0 (Background)
//Storyboard Layer 1 (Fail)
//Storyboard Layer 2 (Pass)
//Storyboard Layer 3 (Foreground)
//Storyboard Sound Samples

[TimingPoints]
-740,329.67032967033,4,2,1,60,1,0
10798,-100,4,2,1,60,0,0
11128,-105.263157894737,4,2,1,60,0,0
16402,-100,4,2,1,60,0,0
21677,-105.263157894737,4,2,1,60,0,0
26952,-100,4,2,1,60,0,0
32227,-125,4,2,1,40,0,0
42281,-100,4,2,1,40,0,0
42611,-100,4,2,1,60,0,0
50688,-83.3333333333333,4,2,1,70,0,1
55963,-83.3333333333333,4,2,1,60,0,1
61238,-83.3333333333333,4,2,1,70,0,1
66512,-83.3333333333333,4,2,1,60,0,1
71787,-133.333333333333,4,2,1,60,0,0
74424,-100,4,2,1,60,0,0
76402,-100,4,2,1,60,0,0
77062,-83.3333333333333,4,2,1,70,0,1
82336,-83.3333333333333,4,2,1,60,0,1
87611,-133.333333333333,4,2,1,60,0,0
90249,-100,4,2,1,60,0,0
95029,-100,4,2,1,40,0,0
95194,-100,4,2,1,30,0,0
95523,-100,4,2,1,60,0,0
99397,-100,4,2,1,20,0,0

[Colours]
Combo1 : 0,255,0
Combo2 : 0,128,255
Combo3 : 255,255,0
Combo4 : 255,0,255

[HitObjects]
473,90,578,6,0,P|482:61|467:11,2,65,6|0|8,0:0|0:0|0:0,0:0:0:0:
419,138,1073,2,0,L|430:229,1,65,2|0,0:0|0:0,0:0:0:0:
480,250,1402,1,0,0:0:0:0:
436,307,1567,1,8,0:0:0:0:
436,307,1732,6,0,P|374:327|304:298,1,130,2|0,0:0|0:0,0:0:0:0:
256,265,2227,1,8,0:0:0:0:
320,234,2391,2,0,P|319:201|304:173,1,65,2|0,0:0|0:0,0:0:0:0:
269,110,2720,1,8,0:1:0:0:
269,110,2886,1,8,0:1:0:0:
103,156,3216,6,0,P|110:121|95:82,2,65,6|0|8,0:0|0:0|0:0,0:0:0:0:
49,203,3710,2,0,P|44:239|64:278,1,65,2|0,0:0|0:0,0:0:0:0:
80,332,4040,1,0,0:0:0:0:
125,276,4205,1,8,0:0:0:0:
53,265,4369,6,0,P|116:203|165:215,1,130,2|0,0:0|0:0,0:0:0:0:
219,226,4864,2,0,P|216:190|228:162,1,65,8|0,0:0|0:0,0:0:0:0:
281,116,5194,1,2,0:0:0:0:
294,186,5358,1,8,0:1:0:0:
226,164,5523,1,8,0:1:0:0:
106,85,5853,6,0,P|103:52|88:24,2,65,6|0|8,0:0|0:0|0:0,0:0:0:0:
72,148,6347,2,0,P|38:148|12:166,1,65,2|0,0:0|0:0,0:0:0:0:
62,220,6677,1,0,0:0:0:0:
9,267,6842,1,8,0:0:0:0:
9,267,7007,6,0,B|-14:357|-14:357|22:334,1,130,2|0,0:0|0:0,0:0:0:0:
80,302,7501,1,8,0:0:0:0:
132,350,7666,2,0,P|160:333|207:343,1,65,2|0,0:0|0:0,0:0:0:0:
256,366,7996,1,8,0:1:0:0:
295,306,8161,2,0,P|299:273|281:236,1,65,8|0,0:1|0:0,0:0:0:0:
229,183,8490,6,0,P|268:201|346:165,1,130,6|10,0:0|0:0,0:0:0:0:
394,118,8985,1,0,0:0:0:0:
394,118,9150,2,0,L|470:121,2,65,2|0|10,0:0|0:0|0:0,0:0:0:0:
338,73,9644,6,0,P|299:55|221:91,1,130,4|14,0:0|0:0,0:0:0:0:
175,140,10139,2,0,P|143:134|111:141,1,65,14|0,0:0|0:0,0:0:0:0:
62,193,10468,2,0,P|56:267|97:327,1,130,14|0,0:0|0:0,0:0:0:0:
212,352,11128,5,6,0:0:0:0:
312,260,11457,1,2,0:0:0:0:
358,210,11622,1,0,0:0:0:0:
358,210,11787,2,0,P|345:145|281:107,1,123.499996702194,2|0,0:0|0:0,0:0:0:0:
238,85,12281,1,6,0:0:0:0:
238,85,12446,6,0,P|185:84|138:147,1,123.499996702194,2|0,0:0|0:0,0:0:0:0:
112,201,12941,2,0,P|52:182|-7:209,1,123.499996702194,2|0,0:0|0:0,0:0:0:0:
125,371,13765,5,6,0:0:0:0:
257,336,14095,1,2,0:0:0:0:
322,316,14260,1,0,0:0:0:0:
273,269,14424,1,2,0:0:0:0:
257,336,14589,1,0,0:0:0:0:
212,207,14919,1,6,0:0:0:0:
212,207,15084,6,0,P|250:199|291:213,1,61.7499983510972,2|0,0:0|0:0,0:0:0:0:
350,188,15413,1,6,0:3:0:0:
350,188,15496,1,4,0:3:0:0:
350,188,15578,2,0,P|330:126|369:59,1,123.499996702194,6|2,0:3|0:3,0:0:0:0:
414,139,16073,1,4,0:3:0:0:
414,139,16155,1,4,0:3:0:0:
414,139,16238,1,6,0:3:0:0:
421,220,16402,6,0,L|401:353,1,130,6|10,0:0|0:0,0:0:0:0:
330,356,16897,1,0,0:0:0:0:
330,356,17062,2,0,L|339:291,1,65,2|2,0:0|0:0,0:0:0:0:
269,305,17391,2,0,L|259:240,1,65,8|2,0:0|0:0,0:0:0:0:
218,182,17721,6,0,P|227:149|216:110,1,65,2|0,0:0|0:0,0:0:0:0:
158,85,18051,2,0,P|149:115|154:147,1,65,10|0,0:0|0:0,0:0:0:0:
218,182,18380,1,2,0:0:0:0:
180,244,18545,1,0,0:0:0:0:
280,221,18710,1,10,0:0:0:0:
241,281,18875,1,0,0:0:0:0:
192,350,19040,6,0,P|160:343|129:352,1,65,6|0,0:0|0:0,0:0:0:0:
116,281,19369,2,0,P|85:291|63:315,1,65,10|0,0:0|0:0,0:0:0:0:
23,255,19699,2,0,P|4:228|3:172,1,65,2|0,0:0|0:0,0:0:0:0:
70,199,20029,2,0,P|65:167|89:116,1,65,10|0,0:0|0:0,0:0:0:0:
140,174,20358,5,6,0:0:0:0:
140,174,20523,2,0,P|153:104|102:58,1,130,2|6,0:0|0:0,0:0:0:0:
256,25,21183,1,8,0:0:0:0:
256,25,21347,1,8,0:0:0:0:
395,63,21677,5,4,0:0:0:0:
470,176,22007,1,2,0:0:0:0:
508,232,22172,1,0,0:0:0:0:
480,295,22336,1,2,0:0:0:0:
480,295,22501,2,0,P|440:332|357:322,1,123.499996702194,0|0,0:0|0:0,0:0:0:0:
353,323,22913,1,0,0:0:0:0:
333,312,22996,6,0,P|275:289|215:314,1,123.499996702194,6|0,0:0|0:0,0:0:0:0:
88,369,23655,1,2,0:0:0:0:
88,369,23820,2,0,P|42:331|40:271,1,123.499996702194,0|0,0:0|0:0,0:0:0:0:
48,250,24232,1,0,0:0:0:0:
59,232,24314,5,4,0:0:0:0:
193,272,24644,1,2,0:0:0:0:
230,215,24809,1,0,0:0:0:0:
268,158,24974,1,0,0:0:0:0:
308,103,25139,2,0,L|352:120,2,30.8749991755486,2|8|8,0:0|0:0|0:0,0:0:0:0:
245,78,25468,1,2,0:0:0:0:
245,78,25633,6,0,P|190:50|123:68,1,123.499996702194,6|8,0:0|0:0,0:0:0:0:
73,97,26128,2,0,P|48:153|71:218,1,123.499996702194,2|2,0:0|0:0,0:0:0:0:
78,228,26540,1,0,0:0:0:0:
96,238,26622,1,8,0:0:0:0:
166,260,26787,1,2,0:0:0:0:
218,211,26952,6,0,P|282:223|342:196,1,130,6|10,0:0|0:0,0:0:0:0:
414,69,27611,2,0,P|408:37|413:5,2,65,2|2|8,0:0|0:0|0:0,0:0:0:0:
455,134,28106,1,2,0:0:0:0:
455,134,28270,6,0,L|443:205,1,65,2|0,0:0|0:0,0:0:0:0:
380,165,28600,2,0,L|368:236,1,65,10|0,0:0|0:0,0:0:0:0:
310,270,28930,2,0,P|273:270|240:297,1,65,2|0,0:0|0:0,0:0:0:0:
292,337,29260,1,10,0:0:0:0:
310,270,29424,1,0,0:0:0:0:
382,315,29589,6,0,P|394:284|419:264,1,65,6|0,0:0|0:0,0:0:0:0:
369,214,29919,2,0,P|394:194|427:190,1,65,10|0,0:0|0:0,0:0:0:0:
401,123,30249,2,0,P|389:91|344:59,1,65,2|0,0:0|0:0,0:0:0:0:
328,129,30578,2,0,P|304:106|249:96,1,65,10|0,0:0|0:0,0:0:0:0:
269,171,30908,5,6,0:0:0:0:
269,171,31073,2,0,P|286:266|244:297,1,130,2|6,0:0|0:0,0:0:0:0:
147,356,31732,1,8,0:0:0:0:
147,356,31897,1,8,0:0:0:0:
51,260,32227,6,0,L|42:150,1,104,6|0,0:0|0:0,0:0:0:0:
130,82,32886,1,2,0:0:0:0:
130,82,33051,2,0,P|158:126|148:191,1,104,0|0,0:0|0:0,0:0:0:0:
120,221,33545,6,0,P|195:188|257:230,1,156,0|0,0:0|0:0,0:0:0:0:
292,267,34205,1,0,0:0:0:0:
390,209,34534,2,0,L|395:138,1,52,10|0,0:0|0:0,0:0:0:0:
449,142,34864,6,0,P|481:180|475:238,1,104,6|0,0:0|0:0,0:0:0:0:
429,335,35523,2,0,L|319:331,1,104,2|8,0:0|0:0,0:0:0:0:
287,288,36018,1,0,0:0:0:0:
265,235,36183,6,0,P|253:181|293:142,1,104,2|0,0:0|0:0,0:0:0:0:
341,137,36677,1,2,0:0:0:0:
341,137,36842,1,8,0:0:0:0:
448,177,37172,2,0,L|443:104,1,52,2|8,0:0|0:0,0:0:0:0:
425,71,37501,6,0,P|384:43|327:56,1,104,6|0,0:0|0:0,0:0:0:0:
233,106,38161,1,2,0:0:0:0:
233,106,38325,1,0,0:0:0:0:
137,43,38655,1,0,0:0:0:0:
107,92,38820,6,0,L|126:218,1,104,0|0,0:0|0:0,0:0:0:0:
139,254,39314,1,0,0:0:0:0:
139,254,39479,2,0,L|132:323,1,52,0|8,0:0|0:0,0:0:0:0:
102,354,39809,2,0,P|76:357|41:350,1,52,10|8,0:0|0:0,0:0:0:0:
5,318,40139,6,0,P|-10:269|3:219,1,104,6|0,0:0|0:0,0:0:0:0:
74,129,40798,2,0,P|117:104|165:121,1,104,2|8,0:0|0:0,0:0:0:0:
216,147,41292,1,0,0:0:0:0:
228,91,41457,6,0,P|259:60|318:62,1,104,4|8,0:0|0:0,0:0:0:0:
390,155,42117,1,8,0:0:0:0:
390,155,42281,2,0,P|383:124|395:86,1,65,0|0,0:0|0:0,0:0:0:0:
432,33,42611,1,6,0:0:0:0:
504,156,42941,6,0,P|511:187|499:225,1,65,0|8,0:0|0:0,0:0:0:0:
462,278,43270,1,2,0:0:0:0:
400,243,43435,1,0,0:0:0:0:
328,288,43600,2,0,P|300:272|260:273,1,65,0|8,0:0|0:0,0:0:0:0:
199,294,43930,1,6,0:0:0:0:
96,194,44260,6,0,P|74:171|64:132,1,65,0|8,0:0|0:0,0:0:0:0:
69,68,44589,1,2,0:0:0:0:
131,33,44754,1,0,0:0:0:0:
203,77,44919,2,0,P|227:56|266:49,1,65,0|8,0:0|0:0,0:0:0:0:
330,57,45249,1,6,0:0:0:0:
423,164,45578,6,0,P|398:184|359:191,1,65,0|8,0:0|0:0,0:0:0:0:
296,184,45908,1,2,0:0:0:0:
226,166,46073,2,0,P|226:203|244:236,1,65,0|0,0:0|0:0,0:0:0:0:
296,184,46402,2,0,P|296:147|278:114,1,65,8|0,0:0|0:0,0:0:0:0:
240,65,46732,6,0,P|178:45|113:81,1,130,2|10,0:0|0:0,0:0:0:0:
71,205,47391,2,0,P|133:225|198:189,1,130,2|10,0:0|0:0,0:0:0:0:
305,75,48051,5,14,0:0:0:0:
282,142,48216,1,12,0:0:0:0:
395,228,48545,1,14,0:0:0:0:
509,142,48875,1,12,0:0:0:0:
395,55,49205,1,14,0:0:0:0:
339,10,49369,5,10,0:0:0:0:
148,222,50029,2,0,P|181:223|216:207,1,65,2|0,0:0|0:0,0:0:0:0:
271,173,50358,1,0,0:0:0:0:
207,141,50523,1,0,0:0:0:0:
277,67,50688,6,0,P|318:74|354:52,1,77.999997619629,14|0,0:0|0:0,0:0:0:0:
427,17,51018,1,8,0:0:0:0:
427,17,51183,2,0,P|450:58|439:177,1,155.999995239258,2|0,0:0|0:0,0:0:0:0:
408,241,51677,1,8,0:0:0:0:
355,309,51842,6,0,P|287:366|215:356,1,155.999995239258,2|0,0:0|0:0,0:0:0:0:
164,301,52336,2,0,P|168:262|151:223,1,77.999997619629,14|0,0:0|0:0,0:0:0:0:
119,119,52666,2,0,P|150:142|189:148,1,77.999997619629,14|0,0:0|0:0,0:0:0:0:
303,168,52996,2,0,P|267:183|244:214,1,77.999997619629,14|0,0:0|0:0,0:0:0:0:
164,301,53325,6,0,P|127:289|79:307,2,77.999997619629,14|0|8,0:0|0:0|0:0,0:0:0:0:
236,347,53820,2,0,L|333:341,1,77.999997619629,2|8,0:0|0:0,0:0:0:0:
377,283,54150,1,0,0:0:0:0:
462,312,54314,1,8,0:0:0:0:
462,312,54479,6,0,P|466:275|447:227,1,77.999997619629,2|8,0:0|0:0,0:0:0:0:
384,184,54809,1,0,0:0:0:0:
420,106,54974,2,0,P|384:114|344:98,1,77.999997619629,8|0,0:0|0:0,0:0:0:0:
268,63,55303,2,0,L|277:148,1,77.999997619629,10|8,0:0|0:1,0:0:0:0:
199,101,55633,2,0,L|208:186,1,77.999997619629,8|0,0:1|0:0,0:0:0:0:
134,238,55963,6,0,P|64:229|8:297,1,155.999995239258,6|8,0:0|0:0,0:0:0:0:
91,313,56457,1,2,0:0:0:0:
134,238,56622,2,0,L|121:132,1,77.999997619629,0|2,0:0|0:0,0:0:0:0:
67,103,56952,1,8,0:0:0:0:
67,103,57117,6,0,P|128:78|203:139,1,155.999995239258,2|0,0:0|0:0,0:0:0:0:
256,187,57611,1,10,0:0:0:0:
315,124,57776,1,0,0:0:0:0:
315,124,57941,2,0,P|354:109|412:129,2,77.999997619629,2|8|8,0:0|0:1|0:1,0:0:0:0:
256,187,58435,1,0,0:0:0:0:
328,245,58600,6,0,P|313:280|325:329,1,77.999997619629,6|0,0:0|0:0,0:0:0:0:
402,294,58930,1,8,0:0:0:0:
402,294,59095,2,0,P|413:227|354:162,1,155.999995239258,2|2,0:0|0:0,0:0:0:0:
281,126,59589,1,10,0:0:0:0:
281,126,59754,1,2,0:0:0:0:
410,12,60084,5,2,0:0:0:0:
486,50,60249,1,10,0:0:0:0:
486,50,60413,1,2,0:0:0:0:
437,120,60578,2,0,P|431:161|452:206,1,77.999997619629,2|0,0:0|0:0,0:0:0:0:
509,250,60908,1,4,0:3:0:0:
509,250,60990,1,4,0:3:0:0:
509,250,61073,1,4,0:3:0:0:
475,319,61238,6,0,P|434:312|398:334,1,77.999997619629,14|0,0:0|0:0,0:0:0:0:
326,364,61567,1,8,0:0:0:0:
326,364,61732,2,0,P|303:323|328:210,1,155.999995239258,2|0,0:0|0:0,0:0:0:0:
380,158,62227,1,8,0:0:0:0:
303,122,62391,6,0,P|203:103|137:127,1,155.999995239258,2|0,0:0|0:0,0:0:0:0:
77,160,62886,2,0,P|87:197|77:239,1,77.999997619629,14|0,0:0|0:0,0:0:0:0:
64,347,63216,2,0,P|90:318|127:306,1,77.999997619629,14|0,0:0|0:0,0:0:0:0:
236,267,63545,2,0,P|197:258|169:231,1,77.999997619629,14|0,0:0|0:0,0:0:0:0:
77,160,63875,6,0,P|40:172|-8:154,2,77.999997619629,14|0|10,0:0|0:0|0:0,0:0:0:0:
141,102,64369,2,0,P|187:107|234:85,1,77.999997619629,2|8,0:0|0:0,0:0:0:0:
289,50,64699,1,0,0:0:0:0:
357,109,64864,1,8,0:0:0:0:
357,109,65029,6,0,P|369:144|361:195,1,77.999997619629,2|8,0:0|0:0,0:0:0:0:
301,242,65358,1,0,0:0:0:0:
361,303,65523,2,0,P|397:295|437:311,1,77.999997619629,8|0,0:0|0:0,0:0:0:0:
496,249,65853,2,0,L|505:164,1,77.999997619629,10|8,0:0|0:1,0:0:0:0:
421,195,66183,2,0,L|430:110,1,77.999997619629,8|0,0:1|0:0,0:0:0:0:
365,48,66512,6,0,P|304:32|244:92,1,155.999995239258,6|8,0:0|0:0,0:0:0:0:
204,171,67007,1,0,0:0:0:0:
204,171,67172,2,0,P|220:210|213:253,2,77.999997619629,2|0|8,0:0|0:0|0:0,0:0:0:0:
142,110,67666,6,0,P|84:53|6:79,1,155.999995239258,6|0,0:0|0:0,0:0:0:0:
59,143,68161,1,8,0:0:0:0:
2,207,68325,1,0,0:0:0:0:
2,207,68490,2,0,P|-8:248|13:296,2,77.999997619629,2|8|8,0:0|0:1|0:1,0:0:0:0:
90,246,68985,1,0,0:0:0:0:
90,246,69150,6,0,L|77:324,1,77.999997619629,6|0,0:0|0:0,0:0:0:0:
150,367,69479,1,8,0:0:0:0:
150,367,69644,2,0,P|181:323|155:208,1,155.999995239258,2|0,0:0|0:0,0:0:0:0:
101,182,70139,1,8,0:0:0:0:
101,182,70303,6,0,P|84:107|120:40,1,155.999995239258,6|0,0:0|0:0,0:0:0:0:
204,17,70798,2,0,P|256:30|277:59,1,77.999997619629,8|0,0:0|0:0,0:0:0:0:
324,115,71128,2,0,P|402:93|475:114,1,155.999995239258,0|12,0:0|0:3,0:0:0:0:
494,128,71540,1,4,0:3:0:0:
509,150,71622,1,4,0:3:0:0:
484,230,71787,6,0,B|520:287|504:337|504:337|485:327|451:334,1,146.250005578995,6|2,0:0|0:0,0:0:0:0:
376,269,72611,2,0,P|382:243|369:209,2,48.750001859665,0|0|0,0:0|0:0|0:0,0:0:0:0:
342,296,73106,5,14,0:0:0:0:
342,296,73270,1,14,0:0:0:0:
212,199,73765,2,0,P|167:182|107:199,1,97.50000371933,0|0,0:0|0:0,0:0:0:0:
75,219,74260,1,0,0:0:0:0:
75,219,74424,6,0,L|86:372,1,130,2|0,0:0|0:0,0:0:0:0:
157,372,74919,1,0,0:0:0:0:
157,372,75084,2,0,L|147:242,1,130,2|0,0:0|0:0,0:0:0:0:
198,192,75578,1,0,0:0:0:0:
198,192,75743,6,0,P|200:159|182:112,1,65,2|0,0:0|0:0,0:0:0:0:
125,170,76073,2,0,P|119:138|91:95,1,65,2|0,0:0|0:0,0:0:0:0:
42,167,76402,2,0,L|28:251,1,65,2|2,0:0|0:0,0:0:0:0:
17,302,76732,1,2,0:0:0:0:
85,279,76897,1,2,0:0:0:0:
161,332,77062,6,0,P|202:325|238:347,1,77.999997619629,14|0,0:0|0:0,0:0:0:0:
302,290,77391,1,8,0:0:0:0:
302,290,77556,2,0,P|343:313|456:288,1,155.999995239258,2|0,0:0|0:0,0:0:0:0:
501,229,78051,1,8,0:0:0:0:
435,174,78216,6,0,P|452:103|386:34,1,155.999995239258,2|0,0:0|0:0,0:0:0:0:
320,55,78710,2,0,P|283:65|241:55,1,77.999997619629,14|0,0:0|0:0,0:0:0:0:
133,42,79040,2,0,P|162:68|174:105,1,77.999997619629,14|0,0:0|0:0,0:0:0:0:
213,214,79369,2,0,P|222:175|249:147,1,77.999997619629,14|0,0:0|0:0,0:0:0:0:
320,55,79699,6,0,P|283:65|241:55,2,77.999997619629,14|0|8,0:0|0:0|0:0,0:0:0:0:
401,26,80194,2,0,P|396:72|418:119,1,77.999997619629,2|8,0:0|0:0,0:0:0:0:
468,161,80523,1,0,0:0:0:0:
405,230,80688,1,8,0:0:0:0:
405,230,80853,6,0,P|417:265|409:316,1,77.999997619629,2|8,0:0|0:0,0:0:0:0:
348,362,81183,1,0,0:0:0:0:
277,312,81347,2,0,P|241:304|201:320,1,77.999997619629,8|0,0:0|0:0,0:0:0:0:
123,349,81677,2,0,L|132:264,1,77.999997619629,2|8,0:0|0:1,0:0:0:0:
48,295,82007,2,0,L|57:210,1,77.999997619629,8|0,0:1|0:0,0:0:0:0:
15,134,82336,6,0,P|59:88|141:109,1,155.999995239258,6|8,0:0|0:0,0:0:0:0:
215,154,82831,1,0,0:0:0:0:
215,154,82996,2,0,P|227:115|216:73,2,77.999997619629,2|0|8,0:0|0:0|0:0,0:0:0:0:
181,233,83490,6,0,P|240:287|317:259,1,155.999995239258,2|0,0:0|0:0,0:0:0:0:
378,220,83985,1,10,0:0:0:0:
458,262,84150,1,0,0:0:0:0:
458,262,84314,2,0,P|448:303|469:351,2,77.999997619629,2|8|8,0:0|0:1|0:1,0:0:0:0:
508,186,84809,1,0,0:0:0:0:
508,186,84974,6,0,L|495:108,1,77.999997619629,6|0,0:0|0:0,0:0:0:0:
441,49,85303,1,8,0:0:0:0:
441,49,85468,2,0,P|394:21|282:55,1,155.999995239258,2|0,0:0|0:0,0:0:0:0:
223,81,85963,2,0,P|194:56|156:52,1,77.999997619629,10|4,0:0|0:0,0:0:0:0:
70,94,86292,6,0,P|34:161|51:235,1,155.999995239258,0|8,0:0|0:0,0:0:0:0:
113,303,86787,1,4,0:0:0:0:
113,303,86952,2,0,L|279:285,1,155.999995239258,0|12,0:0|0:3,0:0:0:0:
295,283,87364,1,4,0:3:0:0:
322,280,87446,1,4,0:3:0:0:
398,271,87611,6,0,P|451:225|423:143,1,146.250005578995,6|2,0:0|0:0,0:0:0:0:
382,64,88435,2,0,L|440:74,2,48.750001859665,0|0|0,0:0|0:0|0:0,0:0:0:0:
340,36,88930,5,14,0:0:0:0:
340,36,89095,1,14,0:0:0:0:
191,98,89589,2,0,P|213:149|209:202,1,97.50000371933,0|0,0:0|0:0,0:0:0:0:
184,236,90084,1,0,0:0:0:0:
229,307,90249,6,0,P|220:336|235:386,2,65,6|0|8,0:0|0:0|0:0,0:0:0:0:
293,274,90743,2,0,L|384:285,1,65,2|0,0:0|0:0,0:0:0:0:
405,335,91073,1,0,0:0:0:0:
462,291,91238,1,8,0:0:0:0:
462,291,91402,6,0,P|482:229|453:159,1,130,2|0,0:0|0:0,0:0:0:0:
413,117,91897,1,8,0:0:0:0:
349,148,92062,2,0,P|320:154|276:147,1,65,2|0,0:0|0:0,0:0:0:0:
241,96,92391,1,8,0:1:0:0:
241,96,92556,1,8,0:1:0:0:
389,40,92886,6,0,P|421:31|469:44,1,65,6|0,0:0|0:0,0:0:0:0:
506,83,93216,2,0,P|515:115|502:163,1,65,10|0,0:0|0:0,0:0:0:0:
483,211,93545,1,2,0:0:0:0:
420,177,93710,1,0,0:0:0:0:
422,248,93875,1,10,0:0:0:0:
485,282,94040,1,4,0:0:0:0:
372,368,94369,5,14,0:0:0:0:
372,368,94534,2,0,L|282:350,1,65,14|0,0:0|0:0,0:0:0:0:
245,309,94864,2,0,L|182:321,1,65,14|0,0:0|0:0,0:0:0:0:
117,277,95194,2,0,L|133:210,1,65,0|0,0:0|0:0,0:0:0:0:
92,140,95523,5,6,0:0:0:0:
92,140,95688,1,6,0:0:0:0:
209,57,96018,1,6,0:0:0:0:
256,192,96347,1,6,0:0:0:0:
256,192,96677,5,6,0:0:0:0:
256,192,96760,12,0,99397,0:0:0:0:
