osu file format v14

[General]
AudioFilename: amakoi_op_short.mp3
AudioLeadIn: 0
PreviewTime: 58019
Countdown: 0
SampleSet: Soft
StackLeniency: 0.7
Mode: 0
LetterboxInBreaks: 0
WidescreenStoryboard: 0

[Editor]
DistanceSpacing: 1.2
BeatDivisor: 4
GridSize: 4
TimelineZoom: 1

[Metadata]
Title:Sweet Star Syrups
TitleUnicode:スイート・スター・シロップス
Artist:Watanuki Tsuyuri (CV:Kanau)
ArtistUnicode:綿貫つゆり(CV:奏雨)
Creator:Little
Version:Insane
Source:あま恋シロップス~恥じらう恋心でシたくなる甘神様の恋祭り~
Tags:amakoi syrups iosys mintcube eroge opening CloudSplash16
BeatmapID:622769
BeatmapSetID:274333

[Difficulty]
HPDrainRate:7
CircleSize:4
OverallDifficulty:7.5
ApproachRate:9
SliderMultiplier:1.5
SliderTickRate:1

[Events]
//Background and Video events
0,0,"bg4.jpg",0,0
//Break Periods
//Storyboard Layer 0 (Background)
//Storyboard Layer 1 (Fail)
//Storyboard Layer 2 (Pass)
//Storyboard Layer 3 (Foreground)
//Storyboard Sound Samples

[TimingPoints]
897,348.837209302326,4,2,1,50,1,0
12059,-100,4,2,1,60,0,0
23222,-100,4,2,1,50,0,0
34385,-100,4,2,1,60,0,0
50780,-100,4,2,1,40,0,0
51129,-100,4,2,1,50,0,0
53920,-100,4,2,1,60,0,0
58106,-100,4,2,1,70,0,1
80431,-100,4,2,1,60,0,0
86536,-100,4,2,1,40,0,0
87757,-100,4,2,1,30,0,0
88978,-100,4,2,1,20,0,0

[Colours]
Combo1 : 93,197,236
Combo2 : 208,107,163
Combo3 : 140,227,158
Combo4 : 241,90,99

[HitObjects]
184,204,896,6,0,P|239:157|308:180,1,150,4|2,3:2|0:0,0:0:0:0:
149,348,1594,1,2,0:0:0:0:
149,348,1769,2,0,P|184:337|221:336,1,75,0|2,0:0|0:0,0:0:0:0:
412,344,2117,2,0,P|451:282|426:214,1,150,4|0,3:2|0:0,0:0:0:0:
257,180,2641,1,2,0:0:0:0:
369,276,2815,1,0,0:0:0:0:
437,160,2990,2,0,L|451:86,1,75,2|0,0:0|0:0,0:0:0:0:
257,180,3338,2,0,L|242:253,1,75,2|0,0:0|0:0,0:0:0:0:
101,344,3687,6,0,P|62:282|87:214,1,150,4|2,3:2|0:0,0:0:0:0:
369,276,4385,1,2,0:0:0:0:
369,276,4559,2,0,P|405:284|442:279,1,75,0|2,0:0|0:0,0:0:0:0:
417,128,4908,2,0,B|377:140|377:140|269:132,1,150,4|0,3:2|3:0,0:0:0:0:
149,188,5431,2,0,P|165:228|197:256,1,75,10|0,0:0|0:0,0:0:0:0:
304,212,5780,1,2,3:2:0:0:
224,76,5955,1,0,0:0:0:0:
149,188,6129,1,10,0:0:0:0:
296,124,6303,1,0,3:0:0:0:
120,112,6478,6,0,P|69:163|82:234,1,150,4|2,3:2|3:2,0:0:0:0:
189,324,7001,1,0,0:0:0:0:
189,324,7176,2,0,P|237:312|277:324,1,75,2|0,3:2|0:0,0:0:0:0:
409,356,7524,1,2,3:2:0:0:
488,264,7699,2,0,P|499:228|496:191,1,75,2|2,0:0|3:2,0:0:0:0:
304,76,8048,2,0,P|311:112|333:142,1,75,0|2,0:0|3:2,0:0:0:0:
376,268,8397,2,0,L|336:332,1,75,0|2,0:0|3:2,0:0:0:0:
189,324,8745,1,0,0:0:0:0:
156,180,8920,1,2,3:2:0:0:
296,236,9094,1,0,0:0:0:0:
133,262,9269,6,0,P|77:215|80:142,1,150,2|2,3:2|3:2,0:0:0:0:
220,80,9792,1,0,0:0:0:0:
220,80,9966,1,2,3:2:0:0:
296,236,10141,1,0,0:0:0:0:
156,180,10315,1,14,0:0:0:0:
328,124,10490,2,0,B|384:136|428:92|428:92|448:144,1,150,4|0,3:2|3:0,0:0:0:0:
442,129,10926,1,0,0:0:0:0:
442,129,11013,1,10,0:0:0:0:
244,144,11187,1,0,0:0:0:0:
444,55,11362,2,0,P|449:92|442:129,1,75,2|0,3:2|0:0,0:0:0:0:
392,304,11710,1,2,3:2:0:0:
256,184,11885,1,0,3:0:0:0:
152,352,12059,6,0,P|184:333|205:303,1,75,4|0,3:2|0:0,0:0:0:0:
255,111,12408,2,0,P|247:147|256:184,1,75,10|0,0:0|0:0,0:0:0:0:
415,161,12757,1,2,3:2:0:0:
316,40,12931,1,0,3:0:0:0:
244,264,13106,1,10,0:0:0:0:
72,189,13280,2,0,P|106:176|143:178,1,75,0|0,3:0|0:0,0:0:0:0:
376,249,13629,2,0,P|353:278|320:296,1,75,0|10,3:0|0:0,0:0:0:0:
76,320,13978,1,0,0:0:0:0:
76,320,14152,2,0,P|90:286|118:262,1,75,2|0,3:2|0:0,0:0:0:0:
252,188,14501,1,10,0:0:0:0:
120,120,14676,1,0,0:0:0:0:
224,281,14850,6,0,B|292:297|336:238|336:238|348:256,1,150,4|10,3:2|0:0,0:0:0:0:
348,256,15373,1,10,0:0:0:0:
100,232,15722,1,10,0:0:0:0:
424,152,16071,1,2,3:2:0:0:
24,128,16420,1,2,3:2:0:0:
348,48,16769,1,0,3:0:0:0:
260,164,16943,2,0,P|223:170|186:164,1,75,2|0,3:2|0:0,0:0:0:0:
24,128,17292,2,0,P|60:121|97:127,1,75,10|0,0:0|3:0,0:0:0:0:
143,144,17553,1,0,3:0:0:0:
186,164,17641,6,0,P|223:170|260:164,1,75,4|0,3:2|0:0,0:0:0:0:
348,48,17990,1,2,3:2:0:0:
186,164,18164,2,0,L|175:313,1,150,4|0,3:2|3:0,0:0:0:0:
70,267,18687,1,2,3:2:0:0:
263,192,18862,2,0,P|257:119|196:81,1,150,4|0,3:2|3:0,0:0:0:0:
80,164,19385,1,2,3:2:0:0:
252,280,19559,2,0,B|312:308|368:272|368:272|381:296,1,150,4|0,3:2|3:0,0:0:0:0:
381,296,20083,1,2,0:0:0:0:
252,280,20257,6,0,P|244:226|271:178,1,112.5,2|0,3:2|0:0,0:0:0:0:
300,144,20606,2,0,L|227:124,1,75,2|0,0:0|3:0,0:0:0:0:
64,264,20955,2,0,L|137:244,1,75,0|2,0:0|3:2,0:0:0:0:
300,144,21303,1,0,3:0:0:0:
88,124,21478,1,2,3:2:0:0:
252,280,21652,1,2,3:2:0:0:
252,280,22699,5,0,3:0:0:0:
252,280,22786,1,0,3:0:0:0:
252,280,22873,1,8,0:0:0:0:
408,324,23048,1,0,0:0:0:0:
356,140,23222,6,0,B|336:120|336:120|308:184|338:237,1,150,4|0,3:2|3:0,0:0:0:0:
428,188,23745,2,0,P|441:154|440:117,1,75,0|0,0:0|3:0,0:0:0:0:
252,280,24094,2,0,P|239:245|240:208,1,75,0|0,0:0|3:0,0:0:0:0:
356,140,24443,1,0,0:0:0:0:
164,256,24617,2,0,L|89:263,1,75,2|0,3:2|0:0,0:0:0:0:
24,88,24966,2,0,L|98:95,1,75,0|0,3:0|0:0,0:0:0:0:
260,224,25315,2,0,L|185:231,1,75,0|0,3:0|0:0,0:0:0:0:
120,56,25664,2,0,L|194:63,1,75,0|0,3:0|0:0,0:0:0:0:
356,192,26013,6,0,B|318:195|318:195|280:148|310:90,1,150,2|0,3:2|3:0,0:0:0:0:
436,168,26536,2,0,P|437:205|424:240,1,75,0|0,0:0|3:0,0:0:0:0:
216,248,26885,2,0,P|215:285|228:320,1,75,0|0,0:0|3:0,0:0:0:0:
356,192,27234,1,0,0:0:0:0:
224,144,27408,2,0,P|189:155|152:153,2,75,2|0|0,3:2|0:0|3:0,0:0:0:0:
368,48,27931,2,0,B|360:24|332:12|332:12|312:60|332:107,1,150,0|0,0:0|0:0,0:0:0:0:
432,232,28455,2,0,P|463:251|500:259,1,75,8|0,3:2|0:0,0:0:0:0:
356,192,28803,5,4,3:2:0:0:
356,192,28978,1,0,3:0:0:0:
236,304,29152,2,0,L|156:300,1,75,8|0,0:0|3:0,0:0:0:0:
52,176,29501,1,8,0:0:0:0:
76,276,29676,1,0,3:0:0:0:
204,124,29850,2,0,L|196:208,1,75,8|0,0:0|3:0,0:0:0:0:
112,96,30199,1,8,0:0:0:0:
308,40,30373,2,0,L|300:124,1,75,0|8,3:0|0:0,0:0:0:0:
288,248,30722,1,0,3:0:0:0:
124,148,30897,1,8,0:0:0:0:
192,316,31071,1,0,3:0:0:0:
232,152,31245,1,8,3:0:0:0:
64,220,31420,1,4,3:0:0:0:
288,248,31594,6,0,L|440:236,1,150,4|8,3:2|0:0,0:0:0:0:
437,236,32117,1,4,3:2:0:0:
232,152,32466,1,0,3:0:0:0:
368,52,32641,1,8,0:0:0:0:
288,248,32815,1,4,3:2:0:0:
125,69,33687,5,0,3:0:0:0:
204,112,33862,2,0,P|241:120|277:112,2,75,8|8|8,0:0|0:0|0:0,0:0:0:0:
72,183,34385,6,0,P|65:255|120:301,1,150,4|8,3:2|0:0,0:0:0:0:
288,232,34908,2,0,L|138:225,1,150,0|0,3:0|3:0,0:0:0:0:
204,112,35431,1,8,0:0:0:0:
240,312,35606,1,0,0:0:0:0:
400,188,35780,2,0,P|408:151|401:114,1,75,0|0,3:0|0:0,0:0:0:0:
204,112,36129,1,8,0:0:0:0:
360,257,36303,2,0,P|431:263|477:207,1,150,0|0,3:0|3:0,0:0:0:0:
477,206,36827,1,8,0:0:0:0:
324,152,37001,1,0,0:0:0:0:
176,222,37176,6,0,P|141:231|104:225,1,75,0|0,3:0|0:0,0:0:0:0:
204,112,37524,1,8,0:0:0:0:
268,252,37699,2,0,P|249:284|219:306,1,75,0|0,3:0|0:0,0:0:0:0:
28,276,38048,1,0,3:0:0:0:
108,128,38222,1,8,0:0:0:0:
176,222,38397,1,0,0:0:0:0:
24,160,38571,2,0,P|17:123|27:87,1,75,0|0,3:0|0:0,0:0:0:0:
204,112,38920,2,0,P|248:120|276:112,1,75,8|0,0:0|3:0,0:0:0:0:
392,48,39269,1,0,0:0:0:0:
324,188,39443,1,0,3:0:0:0:
512,124,39617,2,0,P|475:115|439:124,1,75,8|0,0:0|3:0,0:0:0:0:
268,252,39966,5,4,3:2:0:0:
268,252,40141,1,0,3:0:0:0:
128,328,40315,2,0,P|92:335|55:329,1,75,8|0,0:0|3:0,0:0:0:0:
144,184,40664,1,8,0:0:0:0:
144,184,40838,1,0,3:0:0:0:
280,336,41013,2,0,L|364:344,1,75,8|0,0:0|3:0,0:0:0:0:
128,328,41362,1,8,0:0:0:0:
310,235,41537,2,0,L|339:155,1,75,0|8,3:0|0:0,0:0:0:0:
144,184,41885,1,0,3:0:0:0:
280,336,42059,1,8,0:0:0:0:
128,328,42234,1,0,3:0:0:0:
310,235,42408,1,8,3:0:0:0:
128,328,42583,1,4,3:0:0:0:
217,173,42757,6,0,P|173:115|101:122,1,150,4|8,3:2|0:0,0:0:0:0:
53,335,43280,2,0,L|128:328,1,75,4|0,3:2|0:0,0:0:0:0:
280,336,43629,1,0,3:0:0:0:
144,184,43803,1,8,0:0:0:0:
332,164,43978,2,0,P|381:217|362:287,1,150,4|2,3:2|3:2,0:0:0:0:
128,328,44501,1,8,0:0:0:0:
310,235,44676,1,2,3:2:0:0:
144,184,44850,1,8,0:0:0:0:
144,184,45024,1,2,3:2:0:0:
280,336,45198,1,8,0:0:0:0:
432,200,45373,1,0,3:0:0:0:
144,184,45548,5,4,3:2:0:0:
432,200,46420,5,4,3:2:0:0:
144,184,46769,1,4,3:2:0:0:
144,184,47117,5,0,3:0:0:0:
4,304,47292,2,0,P|37:319|74:315,1,75,8|0,0:0|3:0,0:0:0:0:
264,236,47641,1,8,0:0:0:0:
264,236,47815,1,0,3:0:0:0:
51,242,47990,1,8,0:0:0:0:
196,116,48164,1,0,3:0:0:0:
136,364,48338,5,4,3:2:0:0:
196,116,49210,5,4,3:2:0:0:
136,364,49559,1,4,3:2:0:0:
136,364,49908,5,0,3:0:0:0:
276,296,50083,1,8,0:0:0:0:
276,296,50257,1,0,3:0:0:0:
136,200,50431,1,8,0:0:0:0:
136,200,50605,1,0,3:0:0:0:
272,85,50780,2,0,P|277:121|266:157,1,75,8|0,3:0|3:0,0:0:0:0:
92,266,51129,6,0,P|55:203|86:138,1,150,4|0,3:2|0:0,0:0:0:0:
85,138,51652,1,0,3:0:0:0:
210,241,51827,1,8,0:0:0:0:
210,241,52001,2,0,L|284:244,1,75,0|0,3:0|0:0,0:0:0:0:
428,148,52350,1,0,0:0:0:0:
428,148,52524,2,0,L|425:222,1,75,0|0,3:0|0:0,0:0:0:0:
316,336,52873,2,0,L|242:333,1,75,0|0,3:0|0:0,0:0:0:0:
178,149,53222,2,0,L|252:152,1,75,8|0,0:0|0:0,0:0:0:0:
152,300,53571,2,0,P|131:269|127:232,1,75,0|0,3:0|3:0,0:0:0:0:
336,143,53920,6,0,P|331:180|311:211,1,75,4|0,3:2|0:0,0:0:0:0:
152,300,54269,1,8,0:0:0:0:
316,336,54443,1,0,3:0:0:0:
160,215,54617,2,0,P|123:219|92:240,1,75,0|0,0:0|3:0,0:0:0:0:
310,211,54966,2,0,P|331:179|336:143,1,75,8|0,0:0|0:0,0:0:0:0:
176,92,55315,2,0,B|120:116|64:80|64:80|52:110,1,150,0|8,3:0|0:0,0:0:0:0:
52,110,55838,1,0,0:0:0:0:
160,215,56013,1,8,0:0:0:0:
122,359,56187,1,0,0:0:0:0:
15,254,56362,1,8,0:0:0:0:
52,110,56536,1,0,3:0:0:0:
52,110,56885,5,2,3:2:0:0:
160,215,57059,1,2,3:2:0:0:
160,215,57408,5,2,3:2:0:0:
428,144,57757,1,2,3:2:0:0:
428,144,57844,1,0,0:0:0:0:
428,144,57931,1,0,0:0:0:0:
428,144,58019,1,0,0:0:0:0:
428,144,58106,6,0,P|388:203|316:204,1,150,6|10,3:2|0:0,0:0:0:0:
200,144,58629,1,0,0:0:0:0:
339,64,58803,2,0,P|353:98|351:136,1,75,2|0,3:2|3:0,0:0:0:0:
300,304,59152,1,10,0:0:0:0:
200,144,59327,2,0,P|135:110|71:143,1,150,0|0,3:0|3:0,0:0:0:0:
268,172,59850,2,0,P|272:135|260:100,1,75,10|0,0:0|0:0,0:0:0:0:
136,189,60199,2,0,P|129:225|140:261,1,75,2|0,3:2|0:0,0:0:0:0:
300,304,60548,2,0,L|374:300,1,75,10|0,0:0|0:0,0:0:0:0:
464,204,60897,6,0,B|476:136|424:92|424:92|438:72,1,150,2|10,3:2|0:0,0:0:0:0:
438,72,61420,1,0,0:0:0:0:
360,180,61594,2,0,P|326:195|288:196,1,75,2|0,3:2|3:0,0:0:0:0:
136,152,61943,1,10,0:0:0:0:
144,140,62030,1,2,0:0:0:0:
152,128,62117,2,0,L|144:284,1,150,2|0,3:2|3:0,0:0:0:0:
252,348,62641,1,10,0:0:0:0:
332,216,62815,1,0,0:0:0:0:
200,228,62990,1,2,3:2:0:0:
344,352,63164,1,0,0:0:0:0:
444,232,63338,1,10,0:0:0:0:
272,268,63513,1,0,0:0:0:0:
443,148,63687,6,0,P|451:111|443:75,1,75,6|0,3:2|0:0,0:0:0:0:
268,80,64036,2,0,P|220:92|184:84,1,75,10|0,0:0|0:0,0:0:0:0:
60,196,64385,2,0,P|72:240|96:264,1,75,2|0,3:2|3:0,0:0:0:0:
264,204,64734,1,10,0:0:0:0:
120,336,64908,2,0,P|83:341|48:328,1,75,0|2,3:0|0:0,0:0:0:0:
145,195,65257,1,0,3:0:0:0:
310,290,65431,2,0,P|347:291|380:275,1,75,10|0,0:0|0:0,0:0:0:0:
331,99,65780,2,0,P|320:64|323:27,1,75,2|0,3:2|0:0,0:0:0:0:
145,195,66129,2,0,P|156:230|153:267,1,75,10|0,0:0|0:0,0:0:0:0:
55,348,66478,6,0,P|118:310|188:332,1,150,2|10,3:2|0:0,0:0:0:0:
296,320,67001,1,0,0:0:0:0:
296,320,67176,2,0,P|332:328|376:320,1,75,2|0,3:2|3:0,0:0:0:0:
492,256,67524,1,10,0:0:0:0:
492,256,67612,1,2,0:0:0:0:
492,256,67699,2,0,P|492:183|437:137,1,150,6|4,3:2|3:2,0:0:0:0:
276,156,68222,1,4,3:2:0:0:
400,28,68397,1,4,3:2:0:0:
400,28,68745,2,0,L|377:176,1,150,4|0,3:2|0:0,0:0:0:0:
288,320,69269,6,0,P|251:328|215:319,1,75,4|0,3:2|3:0,0:0:0:0:
40,264,69617,2,0,P|76:272|112:263,1,75,10|0,0:0|3:0,0:0:0:0:
276,156,69966,1,10,0:0:0:0:
112,68,70141,1,0,3:0:0:0:
112,263,70315,1,10,0:0:0:0:
208,88,70490,1,0,3:0:0:0:
340,236,70664,2,0,P|376:244|412:236,1,75,10|0,0:0|3:0,0:0:0:0:
376,76,71013,2,0,P|368:112|376:148,1,75,10|0,0:0|3:0,0:0:0:0:
484,372,71362,2,0,P|492:336|484:300,1,75,10|0,0:0|3:0,0:0:0:0:
288,320,71710,2,0,P|251:328|215:319,1,75,10|0,0:0|3:0,0:0:0:0:
212,132,72059,5,10,0:0:0:0:
112,263,72234,1,0,3:0:0:0:
340,236,72408,1,10,0:0:0:0:
144,167,72583,2,0,P|135:130|144:94,1,75,0|10,3:0|0:0,0:0:0:0:
308,208,72931,2,0,P|316:244|307:280,1,75,0|10,3:0|0:0,0:0:0:0:
112,263,73280,1,0,3:0:0:0:
212,132,73455,2,0,B|264:100|320:128|320:128|340:97,1,150,10|10,0:0|0:0,0:0:0:0:
340,97,73978,1,0,3:0:0:0:
152,52,74152,1,10,0:0:0:0:
270,205,74327,1,0,3:0:0:0:
112,263,74501,1,10,0:0:0:0:
212,132,74676,1,0,3:0:0:0:
212,132,74763,1,0,3:0:0:0:
212,132,74850,5,2,3:2:0:0:
296,320,75024,1,2,3:2:0:0:
82,193,75373,1,2,3:2:0:0:
340,97,75722,1,2,3:2:0:0:
112,263,76071,2,0,P|40:257|5:194,1,150,4|0,3:2|3:0,0:0:0:0:
184,72,76594,2,0,L|191:89,7,18.75,10|0|0|0|0|0|0|0,0:0|0:0|0:0|0:0|0:0|0:0|0:0|0:0,0:0:0:0:
212,132,76943,2,0,L|192:242,1,112.5,2|0,3:2|0:0,0:0:0:0:
160,284,77292,2,0,L|175:357,1,75,2|0,3:2|3:0,0:0:0:0:
372,284,77641,6,0,P|342:261|306:254,1,75,2|0,3:2|3:0,0:0:0:0:
160,284,77990,1,2,3:2:0:0:
212,132,78164,1,0,3:0:0:0:
40,172,78338,1,10,0:0:0:0:
196,272,78513,1,8,0:0:0:0:
184,104,78687,1,10,0:0:0:0:
52,280,78862,1,14,0:0:0:0:
256,192,79036,12,8,80083,0:0:0:0:
90,150,80431,6,0,P|157:126|214:170,1,150,4|2,3:2|0:0,0:0:0:0:
244,268,80955,1,0,3:0:0:0:
116,268,81129,2,0,L|146:199,1,75,10|0,0:0|0:0,0:0:0:0:
341,199,81478,2,0,L|371:267,1,75,2|0,3:2|0:0,0:0:0:0:
171,319,81827,6,0,P|103:342|46:298,1,150,2|2,3:2|0:0,0:0:0:0:
90,150,82350,1,0,3:0:0:0:
268,200,82524,2,0,P|304:208|341:199,1,75,10|0,0:0|0:0,0:0:0:0:
127,79,82873,2,0,P|90:70|54:79,1,75,2|0,3:2|0:0,0:0:0:0:
143,238,83222,6,0,P|215:249|268:199,1,150,2|2,3:2|0:0,0:0:0:0:
239,91,83745,2,0,P|231:55|238:18,1,75,0|2,3:0|3:2,0:0:0:0:
384,112,84094,1,0,3:0:0:0:
296,232,84269,2,0,L|288:316,1,75,8|8,3:0|3:0,0:0:0:0:
91,150,84617,5,4,3:2:0:0:
68,132,85315,1,4,3:2:0:0:
416,232,86362,5,2,3:2:0:0:
256,192,86536,12,0,88978,0:0:0:0:
