osu file format v14

[General]
AudioFilename: amakoi_op_short.mp3
AudioLeadIn: 0
PreviewTime: 58019
Countdown: 0
SampleSet: Soft
StackLeniency: 0.7
Mode: 0
LetterboxInBreaks: 0
WidescreenStoryboard: 0

[Editor]
DistanceSpacing: 1
BeatDivisor: 4
GridSize: 4
TimelineZoom: 1

[Metadata]
Title:Sweet Star Syrups
TitleUnicode:スイート・スター・シロップス
Artist:Watanuki Tsuyuri (CV:Kanau)
ArtistUnicode:綿貫つゆり(CV:奏雨)
Creator:Little
Version:Easy
Source:あま恋シロップス~恥じらう恋心でシたくなる甘神様の恋祭り~
Tags:amakoi syrups iosys mintcube eroge opening CloudSplash16
BeatmapID:744965
BeatmapSetID:274333

[Difficulty]
HPDrainRate:2
CircleSize:2.5
OverallDifficulty:2
ApproachRate:3
SliderMultiplier:0.9
SliderTickRate:1

[Events]
//Background and Video events
0,0,"bg1.jpg",0,0
//Break Periods
//Storyboard Layer 0 (Background)
//Storyboard Layer 1 (Fail)
//Storyboard Layer 2 (Pass)
//Storyboard Layer 3 (Foreground)
//Storyboard Sound Samples

[TimingPoints]
897,348.837209302326,4,2,1,50,1,0
12059,-100,4,2,1,60,0,0
23222,-100,4,2,1,50,0,0
34385,-100,4,2,1,60,0,0
50780,-100,4,2,1,40,0,0
51129,-100,4,2,1,50,0,0
53920,-100,4,2,1,60,0,0
58106,-100,4,2,1,70,0,1
80431,-100,4,2,1,60,0,0
86536,-100,4,2,1,40,0,0
87757,-100,4,2,1,30,0,0
88978,-100,4,2,1,20,0,0

[Colours]
Combo1 : 93,197,236
Combo2 : 208,107,163
Combo3 : 140,227,158
Combo4 : 241,90,99

[HitObjects]
248,56,896,6,0,L|255:145,1,90,4|2,3:2|0:0,0:0:0:0:
300,224,1594,2,0,P|361:248|424:226,2,135,2|4|2,0:0|3:2|0:0,0:0:0:0:
210,223,2990,2,0,L|136:274,1,90,2|2,0:0|0:0,0:0:0:0:
64,328,3687,5,4,3:2:0:0:
88,148,4385,2,0,L|81:103,1,45,2|0,0:0|0:0,0:0:0:0:
164,68,4908,2,0,B|172:112|172:112|212:136|258:120,1,135,4|10,3:2|0:0,0:0:0:0:
348,108,5780,2,0,L|340:197,1,90,2|10,3:2|0:0,0:0:0:0:
328,288,6478,5,4,3:2:0:0:
252,336,6827,2,0,B|208:349|208:349|120:340,1,135,2|0,3:2|0:0,0:0:0:0:
49,284,7699,2,0,P|36:219|76:166,1,135,2|2,0:0|3:2,0:0:0:0:
160,140,8571,2,0,L|249:148,1,90,2|2,3:2|3:2,0:0:0:0:
340,152,9269,6,0,B|388:160|428:140|428:140|448:212|396:264,1,225,2|0,3:2|0:0,0:0:0:0:
308,280,10490,2,0,L|173:268,1,135,4|10,3:2|0:0,0:0:0:0:
88,240,11362,2,0,P|72:198|78:154,1,90,2|2,3:2|3:2,0:0:0:0:
116,72,12059,5,4,3:2:0:0:
204,96,12408,2,0,B|308:88|308:88|296:116,1,135,10|0,0:0|3:0,0:0:0:0:
236,184,13280,2,0,L|243:273,2,90,0|0|0,3:0|3:0|0:0,0:0:0:0:
356,244,14501,1,10,0:0:0:0:
440,212,14850,6,0,P|458:148|428:89,1,135,4|10,3:2|0:0,0:0:0:0:
341,71,15722,2,0,L|252:78,2,90,10|2|2,0:0|3:2|3:2,0:0:0:0:
368,157,16769,2,0,L|233:168,1,135,0|10,3:0|0:0,0:0:0:0:
155,123,17641,6,0,B|128:176|163:226|163:226|146:245,1,135,4|4,3:2|3:2,0:0:0:0:
71,294,18513,2,0,P|103:324|147:334,1,90,0|4,3:0|3:2,0:0:0:0:
227,290,19210,2,0,L|316:283,2,90,0|4|0,3:0|3:2|3:0,0:0:0:0:
146,245,20257,6,0,P|152:160|232:131,2,180,2|0|2,3:2|0:0|3:2,0:0:0:0:
420,312,23222,6,0,P|428:267|427:222,1,90,4|0,3:2|3:0,0:0:0:0:
472,144,23920,2,0,P|437:114|398:92,1,90,0|0,3:0|3:0,0:0:0:0:
316,128,24617,2,0,B|268:144|232:112|182:127,2,135,2|0|0,3:2|0:0|3:0,0:0:0:0:
389,179,26013,6,0,P|394:245|352:295,1,135,2|0,3:2|0:0,0:0:0:0:
264,280,26885,1,0,0:0:0:0:
176,300,27234,2,0,B|133:311|108:342|108:342|63:313|64:260,1,180,0|0,0:0|0:0,0:0:0:0:
96,128,28455,1,8,3:2:0:0:
176,168,28803,6,0,L|265:164,1,90,4|8,3:2|0:0,0:0:0:0:
352,140,29501,2,0,L|355:229,1,90,8|8,0:0|0:0,0:0:0:0:
380,316,30199,2,0,L|290:319,1,90,8|8,0:0|0:0,0:0:0:0:
204,344,30897,2,0,L|200:254,2,90,8|8|4,0:0|3:0|3:2,0:0:0:0:
92,268,32117,6,0,P|50:252|6:258,2,90,4|0|4,3:2|3:0|3:2,0:0:0:0:
352,160,34385,6,0,L|217:171,1,135,4|0,3:2|3:0,0:0:0:0:
128,184,35257,1,0,3:0:0:0:
64,117,35606,2,0,P|38:200|92:268,1,180,0|0,0:0|3:0,0:0:0:0:
227,261,36827,1,8,0:0:0:0:
316,260,37176,6,0,P|375:289|397:351,2,135,0|0|8,3:0|3:0|0:0,0:0:0:0:
227,261,38571,2,0,L|92:267,2,135,0|0|8,3:0|3:0|0:0,0:0:0:0:
316,260,39966,6,0,P|346:227|355:184,1,90,4|8,3:2|0:0,0:0:0:0:
417,117,40664,2,0,P|355:92|294:116,1,135,8|0,0:0|3:0,0:0:0:0:
220,168,41536,1,0,3:0:0:0:
130,177,41885,2,0,P|78:135|68:70,1,135,0|8,3:0|3:0,0:0:0:0:
157,90,42757,6,0,B|200:74|200:74|289:74,1,135,4|4,3:2|3:2,0:0:0:0:
372,109,43629,1,0,3:0:0:0:
300,163,43978,2,0,P|292:206|306:249,2,90,4|2|2,3:2|3:2|3:2,0:0:0:0:
381,199,45024,2,0,P|395:264|360:320,1,135,2|4,3:2|3:2,0:0:0:0:
140,356,46420,5,4,3:2:0:0:
140,356,46769,2,0,L|51:339,2,90,4|0|0,3:2|3:0|3:0,0:0:0:0:
231,355,47815,2,0,P|278:307|282:242,1,135,0|4,3:0|3:2,0:0:0:0:
136,72,49210,5,4,3:2:0:0:
136,72,49559,2,0,L|143:206,1,135,4|8,3:2|0:0,0:0:0:0:
172,292,50431,2,0,P|214:306|258:298,1,90,8|8,0:0|3:0,0:0:0:0:
344,268,51129,6,0,B|384:248|432:260|432:260|452:220|438:172,1,180,4|8,3:2|0:0,0:0:0:0:
392,96,52176,1,0,0:0:0:0:
312,136,52524,2,0,P|226:159|140:134,1,180,0|8,3:0|0:0,0:0:0:0:
56,168,53571,1,0,3:0:0:0:
123,228,53920,6,0,P|134:271|131:315,1,90,4|8,3:2|0:0,0:0:0:0:
220,332,54617,2,0,P|254:303|276:264,1,90,0|8,0:0|0:0,0:0:0:0:
340,200,55315,2,0,P|383:188|427:191,1,90,0|8,3:0|0:0,0:0:0:0:
460,276,56013,2,0,P|413:322|347:320,1,135,8|0,0:0|3:0,0:0:0:0:
268,276,56885,6,0,P|222:228|157:227,1,135,2|2,3:2|3:2,0:0:0:0:
76,188,57757,1,2,3:2:0:0:
100,100,58106,6,0,P|138:78|183:75,1,90,6|10,3:2|0:0,0:0:0:0:
272,88,58803,1,2,3:2:0:0:
274,177,59152,2,0,P|265:220|276:264,1,90,10|2,0:0|0:0,0:0:0:0:
344,324,59850,1,10,0:0:0:0:
420,276,60199,2,0,L|436:188,1,90,2|10,3:2|0:0,0:0:0:0:
372,124,60897,6,0,B|332:140|332:140|284:137,1,90,2|10,3:2|0:0,0:0:0:0:
196,132,61594,1,2,3:2:0:0:
108,152,61943,2,0,P|82:188|78:232,1,90,10|2,0:0|0:0,0:0:0:0:
100,320,62641,1,10,0:0:0:0:
184,352,62990,2,0,L|273:348,1,90,2|10,3:2|0:0,0:0:0:0:
364,332,63687,6,0,P|381:291|378:246,1,90,6|10,3:2|0:0,0:0:0:0:
352,160,64385,1,2,3:2:0:0:
232,224,64908,2,0,P|166:222|121:173,1,135,0|10,3:0|0:0,0:0:0:0:
152,88,65780,2,0,L|233:50,1,90,2|10,3:2|0:0,0:0:0:0:
320,76,66478,6,0,B|364:100|424:76|424:76|412:147,1,180,2|2,3:2|3:2,0:0:0:0:
352,268,67699,2,0,L|262:279,2,90,6|4|4,3:2|3:2|3:2,0:0:0:0:
328,180,68745,2,0,L|193:195,1,135,4|4,3:2|3:2,0:0:0:0:
120,248,69617,5,10,0:0:0:0:
51,191,69966,2,0,P|38:148|46:104,1,90,10|10,0:0|0:0,0:0:0:0:
103,35,70664,2,0,P|145:22|189:30,1,90,10|10,0:0|0:0,0:0:0:0:
259,87,71362,2,0,P|271:129|263:173,1,90,10|10,0:0|0:0,0:0:0:0:
207,243,72059,6,0,P|164:255|120:247,2,90,10|10|10,0:0|0:0|0:0,0:0:0:0:
296,256,73106,2,0,P|308:299|300:343,2,90,10|10|10,0:0|0:0|0:0,0:0:0:0:
309,167,74152,2,0,P|352:155|396:163,1,90,10|10,0:0|0:0,0:0:0:0:
480,196,74850,6,0,L|464:248,1,45,2|2,3:2|3:2,0:0:0:0:
420,317,75373,2,0,L|330:328,2,90,2|2|4,3:2|3:2|3:2,0:0:0:0:
480,196,76594,1,10,0:0:0:0:
395,162,76943,2,0,P|351:155|309:167,1,90,2|2,3:2|3:2,0:0:0:0:
226,202,77641,6,0,P|127:125|250:98,2,315,2|14|8,3:2|0:0|0:0,0:0:0:0:
309,167,80431,6,0,B|365:143|429:191|486:167,1,180,4|10,3:2|0:0,0:0:0:0:
412,332,81827,2,0,B|356:356|292:308|235:332,1,180,2|10,3:2|0:0,0:0:0:0:
68,264,83222,6,0,P|48:201|78:142,2,135,2|0|8,3:2|3:0|3:0,0:0:0:0:
148,307,84617,2,0,P|234:287|321:308,1,180,4|4,3:2|3:2,0:0:0:0:
472,88,86362,5,2,3:2:0:0:
256,192,86536,12,0,88978,0:0:0:0:
