osu file format v14

[General]
AudioFilename: audio.mp3
AudioLeadIn: 0
PreviewTime: 40324
Countdown: 0
SampleSet: Soft
StackLeniency: 0.7
Mode: 0
LetterboxInBreaks: 0
WidescreenStoryboard: 1

[Editor]
Bookmarks: 24449,40449
DistanceSpacing: 1
BeatDivisor: 4
GridSize: 8
TimelineZoom: 0.6999993

[Metadata]
Title:Wareta Ringo (TV Size)
TitleUnicode:割れたリンゴ (TV Size)
Artist:Watanabe Saki (CV: Taneda Risa)
ArtistUnicode:渡辺早季 (CV:種田梨沙)
Creator:-Sylvari
Version:Normal
Source:新世界より
Tags:Krfawy ending ed anime Shinsekai Yori from the new world japanese
BeatmapID:2077573
BeatmapSetID:993004

[Difficulty]
HPDrainRate:3
CircleSize:4
OverallDifficulty:4
ApproachRate:5.2
SliderMultiplier:1.3
SliderTickRate:1

[Events]
//Background and Video events
0,0,"9ca99eb88a8dc4e817d2b55ebea03da5.jpg",0,0
//Break Periods
//Storyboard Layer 0 (Background)
//Storyboard Layer 1 (Fail)
//Storyboard Layer 2 (Pass)
//Storyboard Layer 3 (Foreground)
//Storyboard Layer 4 (Overlay)
//Storyboard Sound Samples

[TimingPoints]
-1551,500,4,2,1,40,1,0
2949,576.923076923077,4,2,1,40,1,0
3449,500,4,2,1,40,1,0
4449,500,4,2,1,40,1,0
6949,576.923076923077,4,2,1,40,1,0
7449,500,4,2,1,40,1,0
8449,500,4,2,1,60,1,0
40449,-100,4,2,1,80,0,1
72449,-100,4,2,1,70,0,1
78449,-100,4,2,1,60,0,0

[Colours]
Combo1 : 0,128,192
Combo2 : 128,128,255

[HitObjects]
49,184,199,5,0,3:0:0:0:
77,125,449,2,0,P|142:130|203:197,1,130,2|0,1:2|3:0,0:0:0:0:
206,299,1449,2,0,B|273:297|273:297|299:272,1,97.5,2|2,1:2|1:2,0:0:0:0:
320,115,2449,1,2,1:2:0:0:
320,115,2699,1,0,0:0:0:0:
382,96,2949,2,0,P|413:91|445:98,1,65,0|0,3:0|0:0,0:0:0:0:
503,128,3449,2,0,P|524:170|518:218,1,97.5,2|2,1:2|1:2,0:0:0:0:
410,339,4449,6,0,L|271:328,1,130,2|0,1:2|3:0,0:0:0:0:
210,219,5449,2,0,B|146:240|146:240|121:262,1,97.5,2|2,1:2|1:2,0:0:0:0:
11,377,6449,1,2,1:2:0:0:
11,377,6699,1,0,0:0:0:0:
33,315,6949,2,0,P|43:283|41:243,1,65,0|0,3:0|0:0,0:0:0:0:
24,189,7449,2,0,P|25:145|79:98,1,97.5,2|2,1:2|1:2,0:0:0:0:
183,1,8449,6,0,P|215:-2|249:6,1,65,2|0,1:2|0:0,0:0:0:0:
306,30,8949,1,2,3:2:0:0:
254,149,9449,2,0,B|254:217|254:217|263:252,1,97.5,2|2,1:2|1:2,0:0:0:0:
357,376,10449,1,2,1:2:0:0:
357,376,10699,1,0,0:0:0:0:
292,379,10949,2,0,P|228:379|171:341,1,130,0|2,3:0|1:2,0:0:0:0:
128,258,11824,1,2,1:2:0:0:
26,130,12449,6,0,P|46:103|71:84,1,65,2|0,1:2|0:0,0:0:0:0:
118,39,12949,1,0,3:0:0:0:
248,43,13449,2,0,P|314:56|350:40,1,97.5,2|2,1:2|1:2,0:0:0:0:
496,1,14449,2,0,P|485:37|490:71,1,65,2|0,1:2|0:0,0:0:0:0:
510,124,14949,1,0,3:0:0:0:
489,248,15449,2,0,P|443:234|395:241,1,97.5,2|2,1:2|1:2,0:0:0:0:
315,296,16199,1,0,3:0:0:0:
264,255,16449,6,0,P|230:244|194:246,1,65,2|0,1:2|0:0,0:0:0:0:
136,252,16949,1,0,3:0:0:0:
71,139,17449,2,0,L|0:60,2,97.5,2|2|0,1:2|1:2|3:0,0:0:0:0:
135,129,18449,1,2,1:2:0:0:
264,116,18949,2,0,P|327:121|385:152,1,130,0|2,3:0|1:2,0:0:0:0:
458,259,19949,1,2,3:2:0:0:
361,345,20449,5,2,1:2:0:0:
287,246,20949,2,0,P|254:208|229:199,1,65,0|2,3:0|0:0,0:0:0:0:
175,193,21449,2,0,P|128:201|83:184,1,97.5,2|2,1:2|1:2,0:0:0:0:
37,98,22199,1,0,0:0:0:0:
86,56,22449,2,0,P|117:51|151:55,1,65,2|0,1:2|0:0,0:0:0:0:
211,78,22949,2,0,P|264:81|296:72,1,65,0|2,3:0|0:0,0:0:0:0:
334,50,23449,2,0,P|382:41|428:55,1,97.5,2|2,1:2|1:2,0:0:0:0:
512,196,24449,6,0,L|525:298,2,97.5,2|0|2,1:2|0:0|0:0,0:0:0:0:
384,171,25699,2,0,P|311:162|253:186,1,130,0|4,0:0|1:2,0:0:0:0:
206,219,26449,2,0,B|138:219|138:219|115:190,1,97.5,2|0,1:2|3:0,0:0:0:0:
123,98,27199,1,2,0:0:0:0:
13,167,27699,2,0,P|-2:243|10:300,1,130,2|2,3:2|3:2,0:0:0:0:
43,348,28449,6,0,P|86:377|142:377,2,97.5,2|0|2,1:2|3:0|3:2,0:0:0:0:
124,246,29699,1,2,3:2:0:0:
229,322,30199,1,4,1:2:0:0:
282,358,30449,2,0,P|353:364|401:349,1,97.5,2|0,1:2|3:0,0:0:0:0:
454,297,31199,2,0,P|481:229|467:167,1,130,2|2,0:0|3:2,0:0:0:0:
276,192,32449,6,0,P|206:205|174:199,2,97.5,2|0|0,1:2|0:0|3:0,0:0:0:0:
346,82,33699,2,0,P|296:43|213:33,1,130,2|4,0:0|1:2,0:0:0:0:
170,53,34449,1,2,1:2:0:0:
76,24,34824,1,0,3:0:0:0:
16,101,35199,2,0,P|46:166|38:236,1,130,2|2,0:0|3:2,0:0:0:0:
30,287,35949,2,0,P|55:317|84:329,1,65,0|2,0:0|0:0,0:0:0:0:
140,346,36449,5,4,1:2:0:0:
256,192,36699,12,4,38449,1:2:0:0:
150,175,40449,6,0,P|197:168|243:183,1,97.5,6|0,1:0|3:0,0:0:0:0:
300,214,41074,2,0,P|359:225|388:220,1,65,2|2,0:0|1:2,0:0:0:0:
455,192,41699,1,2,1:2:0:0:
475,253,41949,2,0,P|472:295|450:328,1,65,12|2,1:2|3:2,0:0:0:0:
415,361,42449,2,0,P|348:366|286:340,1,130,2|10,1:0|1:2,0:0:0:0:
162,313,43449,2,0,P|130:312|98:318,1,65,2|2,1:2|0:2,0:0:0:0:
41,350,43949,1,10,1:2:0:0:
1,226,44449,6,0,B|22:130|22:130|87:156,1,162.5,6|0,1:0|3:0,0:0:0:0:
144,171,45324,2,0,P|190:182|236:166,1,97.5,2|2,1:2|0:2,0:0:0:0:
298,146,45949,1,10,1:2:0:0:
425,161,46449,2,0,P|449:201|454:234,1,65,2|2,1:0|3:2,0:0:0:0:
453,283,46949,1,10,1:2:0:0:
394,309,47199,1,2,3:2:0:0:
354,360,47449,2,0,P|319:365|279:356,2,65,2|2|10,1:0|0:2|1:2,0:0:0:0:
323,230,48449,6,0,P|305:166|275:144,1,97.5,6|2,1:0|1:0,0:0:0:0:
227,113,49074,2,0,P|185:127|155:121,1,65,2|0,0:0|1:0,0:0:0:0:
87,64,49699,2,0,P|72:93|67:125,1,65,2|12,1:2|1:2,0:0:0:0:
73,190,50199,1,2,3:2:0:0:
94,251,50449,2,0,P|136:290|215:305,1,130,2|10,1:0|1:2,0:0:0:0:
335,301,51449,2,0,P|340:269|336:237,1,65,2|2,1:1|0:0,0:0:0:0:
307,178,51949,1,10,1:2:0:0:
333,50,52449,6,0,P|292:20|241:12,1,97.5,6|2,1:0|0:0,0:0:0:0:
181,6,53074,2,0,P|152:19|131:44,1,65,0|2,3:0|1:0,0:0:0:0:
91,133,53699,1,2,3:1:0:0:
82,197,53949,2,0,P|84:229|94:260,1,65,10|2,1:2|0:2,0:0:0:0:
119,319,54449,2,0,P|186:304|249:321,1,130,2|10,1:0|1:2,0:0:0:0:
365,367,55449,1,2,1:0:0:0:
427,348,55699,1,2,0:2:0:0:
490,361,55949,2,0,P|496:330|489:298,1,65,10|4,1:2|3:1,0:0:0:0:
459,240,56449,5,6,1:0:0:0:
379,183,56824,2,0,P|369:151|368:119,1,65,2|2,3:2|0:0,0:0:0:0:
373,54,57324,2,0,P|329:76|259:76,1,97.5,2|2,1:2|1:2,0:0:0:0:
218,63,57949,1,10,1:2:0:0:
92,96,58449,1,2,1:0:0:0:
68,156,58699,1,2,3:2:0:0:
53,219,58949,2,0,P|71:259|92:275,1,65,10|2,1:2|3:2,0:0:0:0:
144,300,59449,2,0,P|206:283|267:302,1,130,2|10,1:1|1:2,0:0:0:0:
378,370,60449,5,6,1:0:0:0:
464,324,60824,2,0,B|472:259|472:259|431:200,1,130,2|2,3:2|1:0,0:0:0:0:
417,110,61699,2,0,L|456:55,2,65,2|10|0,0:0|1:2|3:0,0:0:0:0:
361,145,62449,2,0,P|317:147|283:131,1,65,2|2,1:0|3:2,0:0:0:0:
245,101,62949,1,10,1:2:0:0:
123,55,63449,2,0,P|88:82|72:110,1,65,2|2,1:0|0:2,0:0:0:0:
48,157,63949,1,10,1:2:0:0:
89,280,64449,6,0,P|131:299|186:299,1,97.5,6|0,1:0|3:0,0:0:0:0:
244,282,65074,1,2,0:0:0:0:
303,256,65324,2,0,P|353:253|398:268,1,97.5,2|2,1:2|3:2,0:0:0:0:
454,300,65949,1,12,1:2:0:0:
466,170,66449,1,2,1:0:0:0:
394,69,66949,1,10,1:2:0:0:
329,58,67199,1,0,3:0:0:0:
264,42,67449,2,0,P|232:40|201:48,2,65,2|2|10,1:0|0:0|1:2,0:0:0:0:
221,165,68449,5,6,1:0:0:0:
125,147,68824,2,0,P|118:116|127:85,1,65,2|0,0:0|3:0,0:0:0:0:
159,28,69324,2,0,P|211:20|267:43,1,97.5,2|2,1:0|0:0,0:0:0:0:
302,75,69949,1,10,1:2:0:0:
429,51,70449,2,0,P|443:113|427:176,1,130,2|10,1:0|1:2,0:0:0:0:
347,279,71449,2,0,P|301:289|267:281,1,65,2|2,1:0|0:2,0:0:0:0:
227,253,71949,2,0,P|186:246|148:252,1,65,10|4,1:2|3:1,0:0:0:0:
101,271,72449,6,0,P|107:224|86:171,1,97.5,4|2,1:2|0:0,0:0:0:0:
49,89,73199,2,0,P|102:79|173:120,1,130,2|2,0:0|3:2,0:0:0:0:
219,151,73949,1,10,1:2:0:0:
282,135,74199,1,2,3:2:0:0:
337,168,74449,2,0,P|366:155|395:134,1,65,2|0,1:2|3:0,0:0:0:0:
427,80,74949,2,0,P|359:38|296:38,1,130,10|0,1:2|3:0,0:0:0:0:
187,80,75949,1,8,1:2:0:0:
148,132,76199,1,2,3:2:0:0:
111,185,76449,6,0,P|125:226|173:268,1,97.5,4|4,1:0|3:2,0:0:0:0:
222,341,77199,2,0,P|305:334|411:395,1,195,4|10,3:2|1:2,0:0:0:0:
465,371,78199,1,2,3:2:0:0:
509,323,78449,5,6,1:0:0:0:
256,192,78699,12,2,80449,0:0:0:0:
