osu file format v14

[General]
AudioFilename: audio.mp3
AudioLeadIn: 0
PreviewTime: 40324
Countdown: 0
SampleSet: Soft
StackLeniency: 0.7
Mode: 0
LetterboxInBreaks: 0
WidescreenStoryboard: 1

[Editor]
Bookmarks: 40449
DistanceSpacing: 1
BeatDivisor: 4
GridSize: 8
TimelineZoom: 4.199997

[Metadata]
Title:Wareta Ringo (TV Size)
TitleUnicode:割れたリンゴ (TV Size)
Artist:Watanabe Saki (CV: Taneda Risa)
ArtistUnicode:渡辺早季 (CV:種田梨沙)
Creator:-Sylvari
Version:New World
Source:新世界より
Tags:Krfawy ending ed anime Shinsekai Yori from the new world japanese
BeatmapID:2076573
BeatmapSetID:993004

[Difficulty]
HPDrainRate:5
CircleSize:5
OverallDifficulty:8
ApproachRate:8.8
SliderMultiplier:2.5
SliderTickRate:1

[Events]
//Background and Video events
0,0,"9ca99eb88a8dc4e817d2b55ebea03da5.jpg",0,0
//Break Periods
2,38649,39820
//Storyboard Layer 0 (Background)
//Storyboard Layer 1 (Fail)
//Storyboard Layer 2 (Pass)
//Storyboard Layer 3 (Foreground)
//Storyboard Layer 4 (Overlay)
//Storyboard Sound Samples

[TimingPoints]
-1551,500,4,2,1,40,1,0
199,-133.333333333333,4,2,1,40,0,0
2949,576.923076923077,4,2,1,40,1,0
3449,500,4,2,1,40,1,0
3449,-133.333333333333,4,2,1,40,0,0
4449,500,4,2,1,40,1,0
6949,576.923076923077,4,2,1,40,1,0
7449,500,4,2,1,40,1,0
7449,-133.333333333333,4,2,1,40,0,0
8449,500,4,2,1,60,1,0
8449,-120.481927710843,4,2,1,60,0,0
10074,-120.481927710843,4,2,1,60,0,0
10199,-120.481927710843,4,2,1,60,0,0
10324,-120.481927710843,4,2,1,60,0,0
10449,-120.481927710843,4,2,1,60,0,0
12074,-120.481927710843,4,2,1,60,0,0
12199,-120.481927710843,4,2,1,60,0,0
12324,-120.481927710843,4,2,1,60,0,0
12449,-120.481927710843,4,2,1,60,0,0
14199,-120.481927710843,4,2,1,60,0,0
14324,-120.481927710843,4,2,1,60,0,0
14449,-120.481927710843,4,2,1,60,0,0
18949,-158.730158730158,4,2,1,60,0,0
19449,-232.558139534882,4,2,1,60,0,0
19949,-434.782608695647,4,2,1,60,0,0
20324,-120.481927710843,4,2,1,60,0,0
24074,-120.481927710843,4,2,1,60,0,0
24199,-120.481927710843,4,2,1,60,0,0
24324,-120.481927710843,4,2,1,60,0,0
24449,-200,4,2,1,60,0,0
40449,-100,4,2,1,80,0,1
43449,-90.9090909090909,4,2,1,80,0,1
43949,-83.3333333333333,4,2,1,80,0,1
44449,-100,4,2,1,80,0,1
46949,-90.9090909090909,4,2,1,80,0,1
47449,-83.3333333333333,4,2,1,80,0,1
47949,-76.9230769230769,4,2,1,80,0,1
48449,-100,4,2,1,80,0,1
50949,-90.9090909090909,4,2,1,80,0,1
51449,-83.3333333333333,4,2,1,80,0,1
51949,-76.9230769230769,4,2,1,80,0,1
52449,-100,4,2,1,80,0,1
54949,-111.111111111111,4,2,1,80,0,1
55449,-125,4,2,1,80,0,1
55949,-142.857142857143,4,2,1,80,0,1
56449,-100,4,2,1,80,0,1
58949,-90.9090909090909,4,2,1,80,0,1
59449,-83.3333333333333,4,2,1,80,0,1
59949,-76.9230769230769,4,2,1,80,0,1
60449,-100,4,2,1,80,0,1
62949,-90.9090909090909,4,2,1,80,0,1
63449,-83.3333333333333,4,2,1,80,0,1
63949,-76.9230769230769,4,2,1,80,0,1
64449,-100,4,2,1,80,0,1
66949,-90.9090909090909,4,2,1,80,0,1
67449,-83.3333333333333,4,2,1,80,0,1
67949,-76.9230769230769,4,2,1,80,0,1
68449,-100,4,2,1,80,0,1
70949,-111.111111111111,4,2,1,80,0,1
71449,-125,4,2,1,80,0,1
71949,-142.857142857143,4,2,1,80,0,1
72449,-120.481927710843,4,2,1,70,0,1
78449,-133.333333333333,4,2,1,60,0,0

[Colours]
Combo1 : 0,128,192
Combo2 : 128,128,255

[HitObjects]
286,127,199,6,0,L|274:96,3,23.4375008940697,0|0|0|0,3:0|0:0|3:0|0:0,0:0:0:0:
318,150,449,2,0,B|334:195|334:195|324:249,1,93.7500035762788,2|0,1:2|0:0,0:0:0:0:
245,313,949,2,0,L|188:303,1,58.5937522351743,0|2,3:0|0:0,0:0:0:0:
134,371,1199,1,0,0:0:0:0:
57,264,1449,2,0,L|43:207,1,46.8750017881394,2|0,1:2|0:0,0:0:0:0:
130,216,1699,2,0,L|142:160,1,46.8750017881394,0|2,0:0|1:2,0:0:0:0:
309,192,2449,5,2,1:2:0:0:
327,100,2699,1,0,0:0:0:0:
236,77,2949,1,0,3:0:0:0:
208,71,3093,1,2,0:0:0:0:
180,74,3237,1,0,0:0:0:0:
146,192,3449,2,0,L|135:240,1,46.8750017881394,2|0,1:2|0:0,0:0:0:0:
53,192,3699,2,0,L|42:146,1,46.8750017881394,0|2,0:0|1:2,0:0:0:0:
46,338,4324,6,0,L|29:352,3,11.7187504470349,0|0|0|0,3:0|3:0|3:0|3:0,0:0:0:0:
74,339,4449,2,0,B|168:324|168:324|186:293,1,125,2|0,1:2|0:0,0:0:0:0:
150,197,4949,2,0,P|168:173|215:162,1,78.125,0|2,3:0|0:0,0:0:0:0:
250,188,5199,1,0,0:0:0:0:
259,310,5449,2,0,L|244:374,1,62.5,2|0,1:2|0:0,0:0:0:0:
325,282,5699,2,0,L|340:345,1,62.5,0|2,0:0|1:2,0:0:0:0:
492,358,6324,6,0,L|512:389,1,31.25,0|0,3:0|0:0,0:0:0:0:
474,380,6449,2,0,L|414:364,1,62.5,2|0,1:2|0:0,0:0:0:0:
432,279,6699,1,0,0:0:0:0:
489,185,6949,1,0,3:0:0:0:
486,152,7093,1,2,0:0:0:0:
472,122,7237,1,0,0:0:0:0:
398,58,7449,2,0,L|386:4,1,46.8750017881394,2|0,1:2|0:0,0:0:0:0:
308,110,7699,2,0,L|321:65,1,46.8750017881394,0|2,0:0|1:2,0:0:0:0:
131,241,8449,6,0,B|171:273|171:273|240:272,1,103.750001503944,2|0,1:2|0:0,0:0:0:0:
295,330,8949,2,0,P|322:331|351:314,1,51.8750007519722,2|2,3:2|0:0,0:0:0:0:
370,228,9199,2,0,P|392:243|417:248,1,51.8750007519722,0|0,0:0|0:0,0:0:0:0:
494,239,9449,2,0,P|511:190|499:140,1,103.750001503944,2|0,1:2|0:0,0:0:0:0:
479,112,9824,1,2,1:2:0:0:
391,44,10074,2,0,L|367:-1,2,51.8750007519722,0|0|0,0:0|0:0|0:0,3:0:0:0:
375,73,10449,5,2,1:2:0:0:
302,148,10699,1,0,0:0:0:0:
219,84,10949,2,0,P|167:86|127:117,1,103.750001503944,0|2,3:0|0:0,0:0:0:0:
38,233,11449,2,0,L|14:292,1,51.8750007519722,2|0,1:2|0:0,0:0:0:0:
112,206,11699,2,0,L|136:265,1,51.8750007519722,0|2,0:0|1:2,0:0:0:0:
163,384,12074,2,0,L|219:374,1,51.8750007519722,0|0,3:0|3:0,0:0:0:0:
235,300,12324,1,2,3:2:0:0:
241,253,12449,6,0,L|342:273,1,103.750001503944,2|0,1:2|0:0,0:0:0:0:
443,247,12949,2,0,B|458:196|458:196|438:149,1,103.750001503944,0|2,3:0|0:0,0:0:0:0:
358,82,13449,2,0,P|303:79|253:102,1,103.750001503944,2|0,1:2|0:0,0:0:0:0:
220,132,13824,2,0,P|168:136|120:116,1,103.750001503944,2|0,1:2|3:0,0:0:0:0:
94,91,14199,1,0,3:0:0:0:
88,65,14324,1,0,3:0:0:0:
101,56,14449,5,2,1:2:0:0:
14,112,14699,1,0,0:0:0:0:
0,215,14949,2,0,P|9:265|54:293,1,103.750001503944,0|2,3:0|0:0,0:0:0:0:
154,278,15449,1,2,1:2:0:0:
186,262,15574,1,0,0:0:0:0:
222,260,15699,1,0,0:0:0:0:
256,270,15824,2,0,P|295:305|309:353,1,103.750001503944,2|0,1:2|0:0,0:0:0:0:
382,365,16199,2,0,L|413:352,3,25.9375003759861,0|0|0|0,3:0|3:0|3:0|3:0,0:0:0:0:
440,334,16449,6,0,P|475:289|482:234,1,103.750001503944,2|0,1:2|0:0,0:0:0:0:
379,239,16949,2,0,P|383:187|398:137,1,103.750001503944,0|2,3:0|0:0,0:0:0:0:
439,42,17449,1,2,1:2:0:0:
330,0,17699,1,0,0:0:0:0:
293,1,17824,2,0,P|219:24|172:86,1,155.625002255917,2|0,1:2|3:0,0:0:0:0:
170,176,18324,1,0,3:0:0:0:
186,225,18449,6,0,P|235:224|294:183,1,103.750001503944,2|0,1:2|0:0,0:0:0:0:
345,124,18949,2,0,P|385:122|421:136,1,78.7499975967408,0|0,3:0|0:0,0:0:0:0:
478,193,19449,2,0,P|494:214|504:238,1,53.7500008201599,2|0,1:2|0:0,0:0:0:0:
506,318,19949,2,0,P|500:335|491:349,1,28.7499990348816,2|0,3:2|0:0,0:0:0:0:
407,379,20324,1,0,3:0:0:0:
381,333,20449,6,0,P|331:319|280:328,1,103.750001503944,2|0,1:2|0:0,0:0:0:0:
190,378,20949,1,0,3:0:0:0:
125,296,21199,1,2,0:0:0:0:
225,239,21449,2,0,P|252:186|257:131,1,103.750001503944,2|0,1:2|0:0,0:0:0:0:
250,104,21824,2,0,P|175:96|113:140,1,155.625002255917,2|0,1:2|0:0,0:0:0:0:
59,247,22449,5,2,1:2:0:0:
96,365,22699,1,0,0:0:0:0:
263,328,22949,2,0,P|246:347|223:358,1,51.8750007519722,0|2,3:0|0:0,0:0:0:0:
261,245,23199,2,0,P|286:244|311:251,1,51.8750007519722,2|0,0:0|0:0,0:0:0:0:
384,286,23449,2,0,P|434:295|482:277,1,103.750001503944,2|0,1:2|0:0,0:0:0:0:
509,214,23824,1,2,1:2:0:0:
458,88,24074,1,0,3:0:0:0:
427,81,24199,1,0,3:0:0:0:
401,75,24324,1,0,3:0:0:0:
375,70,24449,6,0,B|351:67|332:79|332:79|314:92|285:90,1,93.75,2|0,1:2|0:0,0:0:0:0:
180,39,25199,2,0,P|170:68|176:98,1,62.5,2|0,0:0|3:0,0:0:0:0:
242,211,25699,2,0,P|243:180|232:151,1,62.5,0|0,0:0|3:0,0:0:0:0:
223,271,26074,1,0,3:0:0:0:
177,318,26199,1,4,1:2:0:0:
108,327,26324,1,4,3:1:0:0:
41,300,26449,5,2,1:2:0:0:
135,226,26824,1,0,3:0:0:0:
99,124,27199,2,0,P|161:120|220:138,1,125,2|2,0:0|3:2,0:0:0:0:
291,244,28074,1,0,0:0:0:0:
291,244,28199,1,2,3:2:0:0:
334,129,28449,6,0,P|389:121|425:134,2,93.75,2|0|2,1:2|3:0|3:2,0:0:0:0:
327,324,29699,2,0,P|350:302|365:275,1,62.5,2|0,3:2|3:0,0:0:0:0:
262,335,30074,1,0,3:0:0:0:
200,322,30199,1,4,1:2:0:0:
158,280,30324,1,4,3:1:0:0:
152,224,30449,5,2,1:2:0:0:
257,138,30824,2,0,P|304:132|346:150,1,93.75,0|2,3:0|0:0,0:0:0:0:
388,332,31699,2,0,B|467:279|467:279|469:243,1,125,2|0,3:2|3:0,0:0:0:0:
467,167,32449,6,0,P|455:121|422:88,1,93.75,2|0,1:2|0:0,0:0:0:0:
327,27,33199,2,0,P|295:33|269:51,1,62.5,0|2,3:0|0:0,0:0:0:0:
221,128,33699,2,0,P|249:140|281:142,1,62.5,2|0,0:0|3:0,0:0:0:0:
165,88,34074,1,0,3:0:0:0:
93,81,34199,1,4,1:2:0:0:
28,118,34324,1,4,3:1:0:0:
6,193,34449,5,2,1:2:0:0:
134,249,34824,1,0,3:0:0:0:
260,188,35199,2,0,L|300:306,1,125,2|2,0:0|3:2,0:0:0:0:
356,381,35949,1,0,0:0:0:0:
395,295,36199,1,2,0:0:0:0:
488,345,36449,6,0,P|509:286|503:224,1,125,4|0,1:2|3:0,0:0:0:0:
508,130,37199,2,0,P|425:165|341:128,1,187.5,2|0,0:0|3:0,0:0:0:0:
290,1,38074,1,0,3:0:0:0:
298,70,38199,1,4,1:2:0:0:
269,128,38324,1,4,3:1:0:0:
212,152,38449,5,4,1:2:0:0:
300,337,40449,6,0,P|239:328|185:357,1,125,6|2,1:0|3:2,0:0:0:0:
97,371,40824,2,0,P|61:372|34:358,1,62.5,2|10,0:0|1:2,0:0:0:0:
83,260,41074,2,0,P|64:229|62:198,1,62.5,2|2,0:0|0:0,0:0:0:0:
175,196,41324,2,0,P|236:191|293:215,1,125,2|0,1:2|0:0,0:0:0:0:
394,251,41699,2,0,P|426:245|453:218,1,62.5,2|2,1:2|1:2,0:0:0:0:
495,108,41949,2,0,P|433:98|373:114,1,125,12|2,1:2|3:2,0:0:0:0:
245,165,42449,6,0,P|185:181|123:175,1,125,2|2,1:0|3:2,0:0:0:0:
73,75,42824,1,2,0:0:0:0:
135,23,42949,2,0,P|197:12|266:29,1,125,10|2,1:2|3:2,0:0:0:0:
474,118,43449,2,0,P|417:97|342:119,1,137.500004196167,2|2,1:2|0:2,0:0:0:0:
348,257,43949,2,0,P|422:261|473:313,1,149.999995422363,10|2,1:2|3:2,0:0:0:0:
234,223,44449,6,0,P|171:228|112:246,1,125,6|2,1:0|3:2,0:0:0:0:
93,376,44824,2,0,P|116:357|127:328,1,62.5,2|10,0:0|1:2,0:0:0:0:
31,255,45074,2,0,P|29:223|49:193,1,62.5,2|4,0:0|1:0,0:0:0:0:
128,120,45324,2,0,P|190:113|247:138,1,125,2|2,1:2|0:0,0:0:0:0:
294,247,45699,2,0,P|325:269|362:270,1,62.5,2|0,0:2|0:0,0:0:0:0:
449,215,45949,2,0,P|463:275|448:335,1,125,10|2,1:2|0:0,0:0:0:0:
356,168,46449,6,0,P|337:109|359:52,1,125,2|2,1:0|3:2,0:0:0:0:
471,39,46824,1,2,0:0:0:0:
433,111,46949,2,0,P|367:123|302:103,1,137.500004196167,10|2,1:2|3:2,0:0:0:0:
157,62,47449,2,0,P|97:48|11:78,1,149.999995422363,2|2,1:0|0:2,0:0:0:0:
23,177,47824,1,2,3:2:0:0:
47,254,47949,2,0,P|114:265|209:220,1,162.499992561341,10|4,1:2|3:1,0:0:0:0:
293,95,48449,6,0,P|354:83|410:109,1,125,6|2,1:0|3:2,0:0:0:0:
464,194,48824,2,0,B|476:255|476:255|423:321,1,125,2|2,1:0|0:0,0:0:0:0:
374,348,49199,1,2,0:0:0:0:
353,258,49324,2,0,P|355:228|368:192,1,62.5,2|0,1:0|0:0,0:0:0:0:
280,316,49574,2,0,P|282:348|298:384,2,62.5,2|2|0,0:0|1:2|1:2,0:0:0:0:
217,250,49949,2,0,P|160:272|98:265,1,125,12|2,1:2|3:2,0:0:0:0:
39,127,50449,6,0,P|76:80|142:54,1,125,2|2,1:0|3:2,0:0:0:0:
248,54,50824,1,2,0:0:0:0:
305,102,50949,2,0,P|363:127|436:107,1,137.500004196167,10|2,1:2|3:2,0:0:0:0:
491,18,51324,1,2,0:0:0:0:
412,0,51449,2,0,L|260:-9,1,149.999995422363,2|2,1:1|0:0,0:0:0:0:
264,99,51824,1,2,0:0:0:0:
229,179,51949,2,0,L|65:190,1,162.499992561341,10|2,1:2|3:2,0:0:0:0:
9,368,52449,6,0,P|68:386|133:381,1,125,6|2,1:0|3:2,0:0:0:0:
182,302,52824,2,0,P|216:295|248:303,1,62.5,2|10,0:0|1:2,0:0:0:0:
312,372,53074,2,0,P|343:371|370:357,1,62.5,2|4,0:0|1:0,0:0:0:0:
475,372,53324,2,0,P|528:298|496:191,1,187.5,2|2,1:0|3:1,0:0:0:0:
319,177,53949,2,0,P|380:183|430:148,1,125,10|2,1:2|0:2,0:0:0:0:
399,4,54449,6,0,P|355:45|357:106,1,125,2|2,1:0|3:2,0:0:0:0:
400,209,54824,1,2,0:0:0:0:
386,289,54949,2,0,P|356:335|304:355,1,112.499996566773,10|2,1:2|3:2,0:0:0:0:
94,253,55449,2,0,P|144:251|188:273,1,100,2|2,1:0|0:2,0:0:0:0:
353,135,55949,2,0,P|329:172|293:195,1,87.499997329712,10|4,1:2|3:1,0:0:0:0:
61,105,56449,6,0,P|107:66|178:57,1,125,6|2,1:0|3:2,0:0:0:0:
225,131,56824,2,0,P|262:138|305:127,1,62.5,2|10,0:0|1:2,0:0:0:0:
322,40,57074,2,0,P|357:32|386:39,1,62.5,2|2,0:0|0:0,0:0:0:0:
463,116,57324,2,0,P|469:177|440:231,1,125,2|0,1:2|0:0,0:0:0:0:
342,250,57699,2,0,P|332:221|342:192,1,62.5,2|2,1:2|1:2,0:0:0:0:
484,312,57949,2,0,L|382:385,1,125,10|2,1:2|3:2,0:0:0:0:
320,271,58449,6,0,P|258:272|197:286,1,125,2|2,1:0|3:2,0:0:0:0:
102,347,58824,1,2,0:0:0:0:
16,356,58949,2,0,P|26:294|77:240,1,137.500004196167,10|2,1:2|3:2,0:0:0:0:
162,144,59324,1,2,0:0:0:0:
237,175,59449,2,0,P|287:122|302:42,1,149.999995422363,2|2,1:1|0:0,0:0:0:0:
129,2,59949,2,0,P|62:15|1:86,1,162.499992561341,10|2,1:2|3:2,0:0:0:0:
133,211,60449,6,0,P|184:246|256:251,1,125,6|2,1:0|3:2,0:0:0:0:
364,248,60824,2,0,P|392:234|412:211,1,62.5,2|10,0:0|1:2,0:0:0:0:
325,138,61074,2,0,P|327:107|314:71,1,62.5,2|4,0:0|1:0,0:0:0:0:
203,124,61324,2,0,P|147:97|86:110,1,125,2|2,1:0|0:0,0:0:0:0:
11,234,61699,2,0,P|36:216|46:186,1,62.5,2|0,0:0|0:1,0:0:0:0:
0,111,61949,1,10,1:2:0:0:
34,320,62199,2,0,P|64:333|99:331,1,62.5,2|0,3:2|3:0,0:0:0:0:
157,293,62449,6,0,P|214:269|276:275,1,125,2|2,1:0|3:2,0:0:0:0:
378,321,62824,1,2,0:0:0:0:
442,368,62949,2,0,P|464:310|445:235,1,137.500004196167,10|2,1:2|3:2,0:0:0:0:
315,102,63449,2,0,P|254:107|197:173,1,149.999995422363,2|2,1:0|0:2,0:0:0:0:
72,366,63949,2,0,P|79:304|155:231,1,162.499992561341,10|4,1:2|3:1,0:0:0:0:
66,91,64449,6,0,P|126:71|188:71,1,125,6|2,1:0|3:2,0:0:0:0:
233,154,64824,2,0,P|264:153|301:130,1,62.5,2|10,0:0|1:2,0:0:0:0:
319,42,65074,2,0,P|359:44|382:60,1,62.5,2|2,0:0|0:0,0:0:0:0:
447,137,65324,2,0,P|447:221|391:326,1,187.5,2|2,1:2|3:2,0:0:0:0:
255,282,65949,1,12,1:2:0:0:
132,378,66199,1,2,3:2:0:0:
255,282,66449,6,0,P|283:226|279:165,1,125,2|2,1:0|3:2,0:0:0:0:
207,77,66824,1,2,0:0:0:0:
137,48,66949,2,0,P|82:58|16:115,1,137.500004196167,10|0,1:2|3:0,0:0:0:0:
71,308,67449,2,0,P|114:349|210:367,1,149.999995422363,2|2,1:1|0:0,0:0:0:0:
329,317,67824,1,2,0:0:0:0:
405,276,67949,2,0,P|415:196|380:124,1,162.499992561341,10|2,1:2|3:2,0:0:0:0:
242,17,68449,6,0,P|180:10|123:34,1,125,6|2,1:0|3:2,0:0:0:0:
129,128,68824,2,0,P|122:158|133:186,1,62.5,2|10,0:0|1:2,0:0:0:0:
226,147,69074,2,0,P|243:167|274:183,1,62.5,2|4,0:0|1:0,0:0:0:0:
336,95,69324,2,0,P|406:92|459:186,1,187.5,2|2,1:0|0:0,0:0:0:0:
489,344,69949,2,0,P|468:367|439:376,1,62.5,10|0,1:2|0:0,0:0:0:0:
371,258,70199,2,0,P|401:267|422:293,1,62.5,2|0,0:0|0:0,0:0:0:0:
313,358,70449,6,0,P|251:351|198:301,1,125,2|2,1:0|3:2,0:0:0:0:
196,199,70824,1,2,0:0:0:0:
245,134,70949,2,0,P|193:116|137:121,1,112.499996566773,10|2,1:2|3:2,0:0:0:0:
90,299,71449,2,0,P|140:301|188:287,1,100,2|2,1:0|0:2,0:0:0:0:
293,200,71824,1,2,3:2:0:0:
341,152,71949,2,0,P|385:153|426:167,1,87.499997329712,10|4,1:2|3:1,0:0:0:0:
487,341,72449,6,0,P|436:347|385:336,1,103.750001503944,4|0,1:2|0:0,0:0:0:0:
302,288,72824,2,0,P|257:312|237:359,1,103.750001503944,2|0,3:2|0:0,0:0:0:0:
124,300,73199,2,0,B|112:249|148:201|148:201|202:205|251:166,1,207.500003007889,2|2,0:0|3:2,0:0:0:0:
156,55,73949,1,10,1:2:0:0:
316,79,74199,1,2,3:2:0:0:
340,252,74449,6,0,P|392:254|429:220,1,103.750001503944,2|0,1:2|3:0,0:0:0:0:
437,190,74824,1,0,3:0:0:0:
428,153,74949,1,10,1:2:0:0:
275,146,75199,2,0,P|251:135|226:131,1,51.8750007519722,0|2,3:0|3:2,0:0:0:0:
184,133,75449,1,0,3:0:0:0:
146,151,75574,1,0,3:0:0:0:
123,185,75699,1,2,1:2:0:0:
122,226,75824,1,0,3:0:0:0:
135,265,75949,6,0,P|150:282|184:294,1,51.8750007519722,10|0,1:2|0:0,0:0:0:0:
263,242,76199,2,0,P|244:225|220:219,1,51.8750007519722,2|0,3:2|3:0,0:0:0:0:
302,334,76449,2,0,P|362:356|409:337,1,103.750001503944,4|2,1:0|0:0,0:0:0:0:
458,260,76824,2,0,P|477:209|465:157,1,103.750001503944,4|2,3:2|3:2,0:0:0:0:
401,85,77199,2,0,P|336:72|293:86,1,103.750001503944,4|0,3:2|3:0,0:0:0:0:
228,156,77574,2,0,P|202:159|177:153,1,51.8750007519722,2|0,3:2|0:0,0:0:0:0:
70,87,77949,1,10,1:2:0:0:
15,235,78199,1,2,3:2:0:0:
165,59,78449,5,6,1:0:0:0:
256,192,78574,12,2,80449,0:0:0:0:
