osu file format v14

[General]
AudioFilename: audio.mp3
AudioLeadIn: 0
PreviewTime: 40324
Countdown: 0
SampleSet: Soft
StackLeniency: 0.7
Mode: 0
LetterboxInBreaks: 0
WidescreenStoryboard: 1

[Editor]
Bookmarks: 24449,40449
DistanceSpacing: 1
BeatDivisor: 4
GridSize: 8
TimelineZoom: 1.6

[Metadata]
Title:Wareta Ringo (TV Size)
TitleUnicode:割れたリンゴ (TV Size)
Artist:Watanabe Saki (CV: Taneda Risa)
ArtistUnicode:渡辺早季 (CV:種田梨沙)
Creator:-Sylvari
Version:Hard
Source:新世界より
Tags:Krfawy ending ed anime Shinsekai Yori from the new world japanese
BeatmapID:2077585
BeatmapSetID:993004

[Difficulty]
HPDrainRate:4
CircleSize:4.5
OverallDifficulty:6
ApproachRate:7.5
SliderMultiplier:1.6
SliderTickRate:1

[Events]
//Background and Video events
0,0,"9ca99eb88a8dc4e817d2b55ebea03da5.jpg",0,0
//Break Periods
2,38649,39624
//Storyboard Layer 0 (Background)
//Storyboard Layer 1 (Fail)
//Storyboard Layer 2 (Pass)
//Storyboard Layer 3 (Foreground)
//Storyboard Layer 4 (Overlay)
//Storyboard Sound Samples

[TimingPoints]
-1551,500,4,2,1,40,1,0
2949,576.923076923077,4,2,1,40,1,0
3449,500,4,2,1,40,1,0
4449,500,4,2,1,40,1,0
6949,576.923076923077,4,2,1,40,1,0
7449,500,4,2,1,40,1,0
8449,500,4,2,1,60,1,0
8449,-100,4,2,1,60,0,0
24449,-125,4,2,1,60,0,0
40449,-83.3333333333333,4,2,1,80,0,1
72449,-100,4,2,1,70,0,1
78449,-125,4,2,1,60,0,0

[Colours]
Combo1 : 0,128,192
Combo2 : 128,128,255

[HitObjects]
203,309,199,5,0,3:0:0:0:
179,289,324,1,0,3:0:0:0:
158,256,449,6,0,P|155:197|168:162,1,80,2|0,1:2|0:0,0:0:0:0:
224,128,949,2,0,L|248:79,2,40,0|2|0,3:0|0:0|0:0,0:0:0:0:
285,181,1449,2,0,L|295:220,3,40,2|0|0|2,1:2|0:0|0:0|1:2,0:0:0:0:
384,41,2449,6,0,P|425:49|456:80,1,80,2|0,1:2|0:0,0:0:0:0:
423,148,2949,2,0,L|368:147,2,40,0|2|0,3:0|0:0|0:0,0:0:0:0:
480,204,3449,1,2,1:2:0:0:
484,235,3574,1,0,0:0:0:0:
489,274,3699,2,0,L|484:316,1,40,0|2,0:0|1:2,0:0:0:0:
339,382,4324,5,0,3:0:0:0:
305,359,4449,2,0,L|208:338,1,80,2|0,1:2|0:0,0:0:0:0:
160,298,4949,2,0,L|119:310,2,40,0|2|0,3:0|0:0|0:0,0:0:0:0:
209,235,5449,2,0,L|250:247,3,40,2|0|0|2,1:2|0:0|0:0|1:2,0:0:0:0:
149,119,6324,5,0,3:0:0:0:
141,78,6449,2,0,P|114:50|77:37,1,80,2|0,1:2|0:0,0:0:0:0:
21,95,6949,2,0,L|-13:123,2,40,0|2|0,3:0|0:0|0:0,0:0:0:0:
65,161,7449,1,2,1:2:0:0:
69,192,7574,1,0,0:0:0:0:
73,223,7699,2,0,L|78:270,1,40,0|2,0:0|1:2,0:0:0:0:
210,351,8449,6,0,P|264:331|308:341,1,80,2|0,1:2|0:0,0:0:0:0:
362,355,8949,1,2,3:2:0:0:
380,277,9199,1,0,0:0:0:0:
473,299,9449,2,0,L|486:257,3,40,2|0|0|2,1:2|0:0|0:0|1:2,0:0:0:0:
422,157,10199,1,0,3:0:0:0:
411,126,10324,1,0,3:0:0:0:
399,96,10449,6,0,P|348:84|318:99,1,80,2|0,1:2|0:0,0:0:0:0:
258,140,10949,2,0,L|248:184,2,40,0|0|2,3:0|0:0|0:0,0:0:0:0:
248,44,11449,2,0,L|236:2,3,40,2|0|0|2,1:2|0:0|0:0|1:2,0:0:0:0:
90,88,12324,1,2,3:2:0:0:
67,120,12449,6,0,P|61:174|68:207,1,80,2|0,1:2|0:0,0:0:0:0:
117,260,12949,1,0,3:0:0:0:
85,333,13199,1,2,0:0:0:0:
172,372,13449,2,0,P|199:338|236:324,1,80,2|0,1:2|0:0,0:0:0:0:
263,323,13824,1,2,1:2:0:0:
296,334,13949,2,0,P|324:300|327:260,1,80,0|0,0:0|3:0,0:0:0:0:
314,184,14449,5,2,1:2:0:0:
262,122,14699,1,0,0:0:0:0:
306,55,14949,2,0,L|316:13,2,40,0|0|2,3:0|0:0|0:0,0:0:0:0:
396,21,15449,2,0,P|432:37|463:71,1,80,2|0,1:2|0:0,0:0:0:0:
468,105,15824,2,0,P|441:145|447:183,1,80,2|0,1:2|0:0,0:0:0:0:
464,210,16199,1,0,3:0:0:0:
482,245,16324,1,0,3:0:0:0:
486,284,16449,6,0,P|478:335|462:366,1,80,2|0,1:2|0:0,0:0:0:0:
389,331,16949,2,0,P|351:321|313:331,1,80,0|2,3:0|0:0,0:0:0:0:
227,375,17449,1,2,1:2:0:0:
160,330,17699,1,0,3:0:0:0:
148,250,17949,2,0,P|151:210|174:169,1,80,2|0,2:0|3:0,0:0:0:0:
201,150,18324,1,0,3:0:0:0:
226,125,18449,6,0,P|230:86|214:50,1,80,2|0,1:2|0:0,0:0:0:0:
147,4,18949,1,0,3:0:0:0:
2,130,19449,2,0,P|-4:179|5:214,1,80,2|0,1:2|0:0,0:0:0:0:
39,279,19949,1,2,3:2:0:0:
151,235,20324,1,0,3:0:0:0:
189,225,20449,6,0,P|220:239|260:271,1,80,2|0,1:2|0:0,0:0:0:0:
317,317,20949,2,0,P|355:327|394:323,1,80,0|2,3:0|0:0,0:0:0:0:
478,274,21449,2,0,L|514:253,3,40,2|0|0|2,1:2|0:0|0:0|1:2,0:0:0:0:
412,187,22199,1,0,3:0:0:0:
380,181,22324,1,0,3:0:0:0:
347,181,22449,6,0,P|308:188|274:209,1,80,2|0,1:2|0:0,0:0:0:0:
218,266,22949,1,0,3:0:0:0:
138,264,23199,1,2,0:0:0:0:
60,320,23449,2,0,L|35:350,3,40,2|0|0|2,1:2|0:0|0:0|1:2,0:0:0:0:
19,159,24449,5,2,1:2:0:0:
99,106,24824,1,0,0:0:0:0:
180,156,25199,2,0,P|242:166|302:146,1,128,2|0,0:0|0:0,0:0:0:0:
375,57,26074,2,0,L|385:17,3,32,0|4|4|2,3:0|1:2|3:1|1:2,0:0:0:0:
432,157,26824,6,0,P|444:197|436:258,1,96,0|2,3:0|0:0,0:0:0:0:
333,323,27699,1,2,3:2:0:0:
308,382,27949,1,0,0:0:0:0:
202,309,28449,5,2,1:2:0:0:
256,229,28824,1,0,3:0:0:0:
179,171,29199,2,0,P|156:113|171:49,1,128,2|2,3:2|3:2,0:0:0:0:
259,15,30074,2,0,L|291:-5,3,32,0|4|4|2,3:0|1:2|3:1|1:2,0:0:0:0:
323,86,30824,5,0,3:0:0:0:
299,179,31199,2,0,P|361:174|409:133,1,128,2|2,0:0|3:2,0:0:0:0:
434,74,31949,1,2,0:0:0:0:
510,175,32449,6,0,P|493:219|495:266,1,96,2|0,1:2|0:0,0:0:0:0:
503,361,33199,2,0,P|443:344|374:346,1,128,0|2,3:0|0:0,0:0:0:0:
287,372,34074,2,0,L|254:384,3,32,0|4|4|2,3:0|1:2|3:1|1:2,0:0:0:0:
313,272,34824,6,0,P|271:251|224:242,1,96,0|2,3:0|0:0,0:0:0:0:
81,299,35699,2,0,L|41:363,2,64,2|0|2,3:2|0:0|0:0,0:0:0:0:
63,222,36449,6,0,P|81:130|158:77,1,192,4|2,1:2|0:0,0:0:0:0:
253,272,38074,2,0,L|248:326,3,32,0|4|4|4,3:0|1:2|3:1|1:2,0:0:0:0:
255,193,40449,6,0,P|207:169|118:194,1,143.999995605469,6|0,1:0|3:0,0:0:0:0:
42,243,41074,1,2,0:0:0:0:
40,147,41324,2,0,P|70:96|160:54,1,143.999995605469,2|2,1:2|1:2,0:0:0:0:
234,84,41949,2,0,P|281:92|328:74,1,95.9999970703126,12|2,1:2|3:2,0:0:0:0:
399,13,42449,6,0,P|429:59|430:105,1,95.9999970703126,2|2,1:0|3:2,0:0:0:0:
393,187,42949,1,10,1:2:0:0:
423,277,43199,1,2,3:2:0:0:
423,277,43324,1,0,3:0:0:0:
423,277,43449,2,0,L|326:303,1,95.9999970703126,2|2,1:2|0:2,0:0:0:0:
234,294,43949,2,0,P|187:282|141:292,1,95.9999970703126,10|2,1:2|3:2,0:0:0:0:
63,376,44449,6,0,P|29:330|36:230,1,143.999995605469,6|2,1:0|0:0,0:0:0:0:
92,173,45074,1,2,3:2:0:0:
105,78,45324,2,0,P|157:32|227:32,1,143.999995605469,2|2,1:2|0:2,0:0:0:0:
301,94,45949,1,10,1:2:0:0:
371,29,46199,1,2,0:0:0:0:
403,49,46324,1,0,3:0:0:0:
428,78,46449,6,0,P|447:121|448:169,1,95.9999970703126,2|2,1:0|3:2,0:0:0:0:
439,265,46949,1,10,1:2:0:0:
366,327,47199,1,2,3:2:0:0:
327,326,47324,1,0,3:0:0:0:
290,314,47449,2,0,P|309:270|310:222,1,95.9999970703126,2|2,1:0|0:2,0:0:0:0:
260,141,47949,2,0,P|216:160|168:161,1,95.9999970703126,10|4,1:2|3:1,0:0:0:0:
65,108,48449,6,0,P|48:176|79:239,1,143.999995605469,6|2,1:0|1:0,0:0:0:0:
171,266,49074,2,0,P|182:311|163:355,1,95.9999970703126,2|2,0:0|1:0,0:0:0:0:
256,208,49699,1,2,1:2:0:0:
331,266,49949,2,0,P|320:311|339:355,1,95.9999970703126,12|2,1:2|3:2,0:0:0:0:
469,372,50449,6,0,P|489:321|481:268,1,95.9999970703126,2|2,1:0|3:2,0:0:0:0:
456,188,50949,2,0,P|443:133|452:84,1,95.9999970703126,10|2,1:2|3:2,0:0:0:0:
465,49,51324,1,0,3:0:0:0:
486,6,51449,2,0,P|440:-1|392:5,1,95.9999970703126,2|2,1:0|0:0,0:0:0:0:
299,34,51949,2,0,P|251:40|204:31,1,95.9999970703126,10|2,1:2|3:2,0:0:0:0:
121,111,52449,5,6,1:0:0:0:
258,157,52824,2,0,P|247:213|218:241,1,95.9999970703126,2|0,0:0|3:0,0:0:0:0:
151,306,53324,2,0,P|163:351|252:384,1,143.999995605469,2|2,1:0|3:1,0:0:0:0:
325,329,53949,1,10,1:2:0:0:
420,338,54199,1,2,0:2:0:0:
452,358,54324,1,0,3:0:0:0:
487,372,54449,6,0,P|475:325|478:277,1,95.9999970703126,2|2,1:0|3:2,0:0:0:0:
510,188,54949,2,0,P|518:132|505:88,1,95.9999970703126,10|2,1:2|3:2,0:0:0:0:
469,66,55324,1,0,3:0:0:0:
426,44,55449,2,0,P|381:61|330:52,1,95.9999970703126,2|2,1:0|0:2,0:0:0:0:
242,26,55949,2,0,P|252:72|244:119,1,95.9999970703126,10|4,1:2|3:1,0:0:0:0:
219,232,56449,6,0,P|244:273|336:288,1,143.999995605469,6|2,1:0|3:2,0:0:0:0:
405,225,57074,1,2,0:0:0:0:
454,307,57324,2,0,P|426:355|338:386,1,143.999995605469,2|2,1:2|1:2,0:0:0:0:
261,342,57949,2,0,P|201:329|159:345,1,95.9999970703126,10|2,1:2|3:2,0:0:0:0:
78,372,58449,6,0,L|61:253,1,95.9999970703126,2|2,1:0|3:2,0:0:0:0:
113,194,58949,1,10,1:2:0:0:
97,108,59199,1,2,3:2:0:0:
97,108,59324,1,0,3:0:0:0:
97,108,59449,2,0,L|216:91,1,95.9999970703126,2|2,1:1|0:0,0:0:0:0:
285,72,59949,2,0,L|404:55,1,95.9999970703126,10|2,1:2|3:2,0:0:0:0:
487,100,60449,5,6,1:0:0:0:
414,225,60824,2,0,L|446:321,2,95.9999970703126,2|0|2,0:0|3:0|1:0,0:0:0:0:
274,189,61699,1,2,0:0:0:0:
225,271,61949,1,10,1:2:0:0:
130,252,62199,1,2,3:2:0:0:
91,250,62324,1,0,3:0:0:0:
53,239,62449,6,0,P|45:193|60:148,1,95.9999970703126,2|2,1:0|3:2,0:0:0:0:
122,74,62949,1,10,1:2:0:0:
215,93,63199,1,2,3:2:0:0:
253,93,63324,1,0,3:0:0:0:
284,71,63449,2,0,P|335:61|389:71,1,95.9999970703126,2|2,1:0|0:2,0:0:0:0:
468,99,63949,2,0,P|476:145|461:190,1,95.9999970703126,10|4,1:2|3:1,0:0:0:0:
433,303,64449,6,0,P|353:286|291:318,1,143.999995605469,6|2,1:0|3:2,0:0:0:0:
214,356,65074,1,2,0:0:0:0:
159,277,65324,2,0,P|87:345|33:343,1,143.999995605469,2|2,1:2|3:2,0:0:0:0:
56,239,65949,2,0,P|63:189|54:137,1,95.9999970703126,12|2,1:2|3:2,0:0:0:0:
30,50,66449,6,0,P|77:48|119:70,1,95.9999970703126,2|2,1:0|3:2,0:0:0:0:
187,139,66949,2,0,P|229:160|276:158,1,95.9999970703126,10|2,1:2|3:2,0:0:0:0:
318,132,67324,1,0,3:0:0:0:
357,105,67449,2,0,P|389:157|386:204,1,95.9999970703126,2|2,1:1|0:0,0:0:0:0:
317,253,67949,2,0,P|310:299|328:343,1,95.9999970703126,10|2,1:2|3:2,0:0:0:0:
439,377,68449,6,0,P|493:321|499:246,1,143.999995605469,6|2,1:0|3:2,0:0:0:0:
468,167,69074,1,2,3:2:0:0:
444,54,69324,2,0,P|397:70|352:155,1,143.999995605469,2|2,1:0|0:0,0:0:0:0:
289,220,69949,1,10,1:2:0:0:
225,148,70199,1,2,0:0:0:0:
187,139,70324,1,0,3:0:0:0:
149,129,70449,6,0,L|52:106,1,95.9999970703126,2|2,1:0|3:2,0:0:0:0:
31,200,70949,2,0,L|137:227,1,95.9999970703126,10|2,1:2|3:2,0:0:0:0:
165,248,71324,1,0,0:0:0:0:
206,272,71449,2,0,L|299:248,1,95.9999970703126,2|2,1:0|0:2,0:0:0:0:
328,339,71949,2,0,L|234:362,1,95.9999970703126,10|4,1:2|3:1,0:0:0:0:
138,362,72449,6,0,P|77:374|13:370,2,120,4|2|2,1:2|0:0|0:0,0:0:0:0:
134,281,73449,2,0,L|90:255,2,40,2|0|2,0:2|0:0|3:2,0:0:0:0:
183,198,73949,1,10,1:2:0:0:
138,131,74199,2,0,P|141:80|170:48,1,80,2|2,3:2|1:2,0:0:0:0:
238,6,74699,6,0,P|255:41|249:80,1,80,0|10,3:0|1:2,0:0:0:0:
237,159,75199,1,0,3:0:0:0:
247,189,75324,1,2,1:2:0:0:
263,216,75449,2,0,P|296:248|337:256,1,80,0|2,3:0|1:2,0:0:0:0:
397,216,75949,1,8,1:2:0:0:
446,279,76199,1,2,3:2:0:0:
373,342,76449,6,0,P|307:356|252:337,2,120,4|4|4,1:0|3:2|3:2,0:0:0:0:
447,369,77449,1,2,3:2:0:0:
476,355,77574,1,2,3:2:0:0:
498,331,77699,2,0,P|509:293|498:251,1,80,2|10,3:2|1:2,0:0:0:0:
439,202,78199,1,2,3:2:0:0:
367,228,78449,5,6,1:0:0:0:
256,192,78574,12,2,80449,0:0:0:0:
