osu file format v14

[General]
AudioFilename: audio.mp3
AudioLeadIn: 0
PreviewTime: 14224
Countdown: 0
SampleSet: Normal
StackLeniency: 0.7
Mode: 1
LetterboxInBreaks: 0
WidescreenStoryboard: 0

[Editor]
Bookmarks: 891,14224,27557,40891,54224,67557,80891,94224,107557,120891,134224
DistanceSpacing: 0.6
BeatDivisor: 4
GridSize: 8
TimelineZoom: 1

[Metadata]
Title:Raiko Taiko Disco
TitleUnicode:ライコタイコディスコ
Artist:Watanabe Ryou
ArtistUnicode:渡部量
Creator:yuki_momoiro722
Version:Kantan
Source:太鼓の達人 ムラサキVer.
Tags:kyourekii87 taiko no tatsujin murasaki purple version 輝針城 ~ Double Dealing Character touhou 東方Project NAMCO SOUNDS 堀川雷鼓 horikawa raiko th14 zun 上海アリス幻樂団 team shanghai alice 始原のビート pristine beat tnt
BeatmapID:1944863
BeatmapSetID:931434

[Difficulty]
HPDrainRate:8
CircleSize:5
OverallDifficulty:3
ApproachRate:5
SliderMultiplier:1.4
SliderTickRate:1

[Events]
//Background and Video events
0,0,"bg.jpg",0,50
//Break Periods
//Storyboard Layer 0 (Background)
//Storyboard Layer 1 (Fail)
//Storyboard Layer 2 (Pass)
//Storyboard Layer 3 (Foreground)
//Storyboard Sound Samples

[TimingPoints]
891,416.666666666667,4,1,0,90,1,0
27557,-100,4,1,0,90,0,1
54224,-100,4,1,0,90,0,0
94224,-100,4,1,0,90,0,1
115891,-100,4,1,0,90,0,0
117557,-100,4,1,0,90,0,1
120891,-100,4,1,0,90,0,0
134224,-100,4,1,0,90,0,0
134641,-100,4,1,0,81,0,0
135057,-100,4,1,0,72,0,0
135474,-100,4,1,0,64,0,0
135891,-100,4,1,0,55,0,0
136307,-100,4,1,0,46,0,0
136724,-100,4,1,0,38,0,0
137141,-100,4,1,0,29,0,0
137557,-100,4,1,0,20,0,0

[HitObjects]
256,192,891,5,0,0:0:0:0:
256,192,2557,1,0,0:0:0:0:
256,192,4224,1,0,0:0:0:0:
256,192,5891,1,0,0:0:0:0:
256,192,7557,1,0,0:0:0:0:
256,192,8391,1,8,0:0:0:0:
256,192,9224,1,0,0:0:0:0:
256,192,10891,1,0,0:0:0:0:
256,192,11724,1,8,0:0:0:0:
256,192,12557,1,8,0:0:0:0:
256,192,13391,1,0,0:0:0:0:
256,192,14224,1,12,0:0:0:0:
256,192,15057,1,0,0:0:0:0:
256,192,15474,1,8,0:0:0:0:
256,192,15891,1,0,0:0:0:0:
256,192,16724,1,8,0:0:0:0:
256,192,17557,1,0,0:0:0:0:
256,192,18391,1,8,0:0:0:0:
256,192,18807,1,0,0:0:0:0:
256,192,19224,1,8,0:0:0:0:
256,192,20891,1,0,0:0:0:0:
256,192,21724,1,0,0:0:0:0:
256,192,22141,1,8,0:0:0:0:
256,192,22557,1,0,0:0:0:0:
256,192,23391,1,8,0:0:0:0:
256,192,24224,1,0,0:0:0:0:
256,192,25057,1,0,0:0:0:0:
256,192,25474,1,0,0:0:0:0:
256,192,25891,1,8,0:0:0:0:
256,192,26724,1,8,0:0:0:0:
256,192,27557,1,4,0:0:0:0:
256,192,28807,1,8,0:0:0:0:
256,192,29224,1,0,0:0:0:0:
256,192,30057,1,0,0:0:0:0:
256,192,30891,1,8,0:0:0:0:
256,192,32141,1,8,0:0:0:0:
256,192,32557,1,0,0:0:0:0:
256,192,33391,1,0,0:0:0:0:
256,192,33807,1,8,0:0:0:0:
256,192,34224,1,0,0:0:0:0:
256,192,35891,1,8,0:0:0:0:
256,192,36724,1,0,0:0:0:0:
256,192,37557,1,0,0:0:0:0:
256,192,39224,1,0,0:0:0:0:
256,192,40891,1,4,0:0:0:0:
256,192,42141,1,8,0:0:0:0:
256,192,42558,1,0,0:0:0:0:
256,192,43391,1,0,0:0:0:0:
256,192,44225,1,8,0:0:0:0:
256,192,45475,1,8,0:0:0:0:
256,192,45891,1,0,0:0:0:0:
256,192,46725,1,0,0:0:0:0:
256,192,47141,1,8,0:0:0:0:
256,192,47558,1,0,0:0:0:0:
256,192,49225,1,8,0:0:0:0:
256,192,50058,1,0,0:0:0:0:
256,192,50891,1,0,0:0:0:0:
256,192,52558,1,0,0:0:0:0:
256,192,53391,1,0,0:0:0:0:
256,192,54224,1,12,0:0:0:0:
256,192,55057,1,0,0:0:0:0:
256,192,55474,1,8,0:0:0:0:
256,192,55891,1,0,0:0:0:0:
256,192,56724,1,8,0:0:0:0:
256,192,57557,1,0,0:0:0:0:
256,192,58391,1,8,0:0:0:0:
256,192,58807,1,0,0:0:0:0:
256,192,59224,1,8,0:0:0:0:
256,192,60891,1,0,0:0:0:0:
256,192,61724,1,0,0:0:0:0:
256,192,62141,1,8,0:0:0:0:
256,192,62557,1,0,0:0:0:0:
256,192,63391,1,8,0:0:0:0:
256,192,64224,1,0,0:0:0:0:
256,192,65057,1,8,0:0:0:0:
256,192,65474,1,8,0:0:0:0:
256,192,65891,1,0,0:0:0:0:
256,192,66724,5,8,0:0:0:0:
256,192,67557,5,4,0:0:0:0:
256,192,68391,1,0,0:0:0:0:
256,192,69224,1,8,0:0:0:0:
256,192,70057,1,0,0:0:0:0:
256,192,70474,1,8,0:0:0:0:
256,192,70891,1,8,0:0:0:0:
256,192,71724,1,0,0:0:0:0:
256,192,72141,1,0,0:0:0:0:
256,192,72557,1,8,0:0:0:0:
256,192,74224,1,0,0:0:0:0:
256,192,75057,1,0,0:0:0:0:
256,192,75891,1,8,0:0:0:0:
256,192,76724,1,0,0:0:0:0:
256,192,77141,1,8,0:0:0:0:
256,192,77557,1,8,0:0:0:0:
256,192,78391,1,0,0:0:0:0:
256,192,78807,1,0,0:0:0:0:
256,192,79224,1,8,0:0:0:0:
256,192,80891,1,4,0:0:0:0:
256,192,82557,1,0,0:0:0:0:
256,192,83391,1,8,0:0:0:0:
256,192,84224,1,0,0:0:0:0:
256,192,85891,1,0,0:0:0:0:
256,192,86724,1,8,0:0:0:0:
256,192,87141,1,8,0:0:0:0:
256,192,87557,1,4,0:0:0:0:
256,192,88391,1,8,0:0:0:0:
256,192,89224,1,4,0:0:0:0:
256,192,90057,1,8,0:0:0:0:
256,192,90891,1,4,0:0:0:0:
256,192,91724,1,8,0:0:0:0:
256,192,92557,1,8,0:0:0:0:
256,192,93391,1,0,0:0:0:0:
256,192,93807,1,8,0:0:0:0:
256,192,94224,1,4,0:0:0:0:
256,192,95474,1,8,0:0:0:0:
256,192,95891,1,0,0:0:0:0:
256,192,96724,1,0,0:0:0:0:
256,192,97558,1,8,0:0:0:0:
256,192,98182,1,0,0:0:0:0:
256,192,98808,1,8,0:0:0:0:
256,192,99224,1,0,0:0:0:0:
256,192,100058,1,0,0:0:0:0:
256,192,100474,1,8,0:0:0:0:
256,192,100891,1,0,0:0:0:0:
256,192,102141,1,0,0:0:0:0:
256,192,102558,1,8,0:0:0:0:
256,192,103391,1,8,0:0:0:0:
256,192,103807,1,8,0:0:0:0:
256,192,104224,1,0,0:0:0:0:
256,192,105057,1,0,0:0:0:0:
256,192,105891,1,8,0:0:0:0:
256,192,106724,1,8,0:0:0:0:
256,192,107558,1,4,0:0:0:0:
256,192,108807,1,8,0:0:0:0:
256,192,109225,1,0,0:0:0:0:
256,192,110058,1,0,0:0:0:0:
256,192,110892,1,8,0:0:0:0:
256,192,111516,1,0,0:0:0:0:
256,192,112142,1,8,0:0:0:0:
256,192,112558,1,0,0:0:0:0:
256,192,113392,1,0,0:0:0:0:
256,192,113808,1,8,0:0:0:0:
256,192,114225,1,0,0:0:0:0:
256,192,115474,1,0,0:0:0:0:
256,192,115892,1,8,0:0:0:0:
256,192,117557,1,4,0:0:0:0:
256,192,118391,1,0,0:0:0:0:
256,192,118807,1,8,0:0:0:0:
256,192,119223,1,0,0:0:0:0:
256,192,120057,1,8,0:0:0:0:
256,192,120891,1,4,0:0:0:0:
256,192,121724,1,0,0:0:0:0:
256,192,122141,1,8,0:0:0:0:
256,192,122557,1,0,0:0:0:0:
256,192,123391,1,8,0:0:0:0:
256,192,124224,1,0,0:0:0:0:
256,192,125057,1,8,0:0:0:0:
256,192,125474,1,0,0:0:0:0:
256,192,125891,1,8,0:0:0:0:
256,192,127557,1,0,0:0:0:0:
256,192,128391,1,0,0:0:0:0:
256,192,128807,1,8,0:0:0:0:
256,192,129224,1,0,0:0:0:0:
256,192,130057,1,8,0:0:0:0:
256,192,130891,1,0,0:0:0:0:
256,192,131724,1,0,0:0:0:0:
256,192,132141,1,0,0:0:0:0:
256,192,132557,1,8,0:0:0:0:
256,192,133391,1,8,0:0:0:0:
256,192,134224,1,4,0:0:0:0:
256,192,134432,12,0,137557,0:0:0:0:
