osu file format v14

[General]
AudioFilename: audio.mp3
AudioLeadIn: 0
PreviewTime: 53120
Countdown: 0
SampleSet: Soft
StackLeniency: 0.7
Mode: 0
LetterboxInBreaks: 0
WidescreenStoryboard: 0

[Editor]
Bookmarks: 39047,40143,41660,54300,55311,81266
DistanceSpacing: 1
BeatDivisor: 4
GridSize: 8
TimelineZoom: 2.3

[Metadata]
Title:Pretty*Channel (TV Size)
TitleUnicode:プリティー☆チャンネル (TV Size)
Artist:Wasuta
ArtistUnicode:わーすた
Creator:Lami
Version:Idol
Source:キラッとプリ☆チャン
Tags:yuria akitoshi corinn -laura- asuka_- affirmation neoskylove fuyuyu- mamayu kanau silky intoon kiratto prichan ending (TV Ver.) japanese anime
BeatmapID:1642496
BeatmapSetID:782157

[Difficulty]
HPDrainRate:6
CircleSize:4
OverallDifficulty:8.5
ApproachRate:9.2
SliderMultiplier:1.68
SliderTickRate:1

[Events]
//Background and Video events
0,0,"bg.jpg",0,0
Video,-450,"video.avi"
//Break Periods
//Storyboard Layer 0 (Background)
//Storyboard Layer 1 (Fail)
//Storyboard Layer 2 (Pass)
//Storyboard Layer 3 (Foreground)
//Storyboard Sound Samples

[TimingPoints]
382,337.078651685393,4,2,1,50,1,0
382,-111.111111111111,4,2,1,50,0,0
1730,-111.111111111111,4,2,1,60,0,0
7123,-100,4,2,1,70,0,0
14792,-100,4,2,1,5,0,0
14876,-100,4,2,1,70,0,0
19174,-100,4,2,1,5,0,0
19258,-125,4,2,1,55,0,0
30044,-100,4,2,1,65,0,0
40241,-100,4,2,1,5,0,0
40325,-100,4,2,1,65,0,0
40831,-125,4,2,1,50,0,0
43528,-100,4,2,1,50,0,0
44876,-125,4,2,1,50,0,0
46224,-100,4,2,1,65,0,0
53977,-79.9999999999999,4,2,1,65,0,0
54314,-90.9090909090909,4,2,1,80,0,1
57011,-98.0392156862745,4,2,1,80,0,1
57348,-90.9090909090909,4,2,1,80,0,1
57685,-84.7457627118644,4,2,1,80,0,1
58022,-79.3650793650794,4,2,1,80,0,1
58696,-84.7457627118644,4,2,1,80,0,1
59033,-90.9090909090909,4,2,1,80,0,1
59370,-98.0392156862745,4,2,1,80,0,1
59707,-90.9090909090909,4,2,1,80,0,1
67797,-98.0392156862745,4,2,1,80,0,1
68134,-90.9090909090909,4,2,1,80,0,1
68471,-84.7457627118644,4,2,1,80,0,1
68808,-79.3650793650794,4,2,1,80,0,1
69483,-86.2068965517241,4,2,1,80,0,1
69820,-90.9090909090909,4,2,1,80,0,1
70157,-98.0392156862745,4,2,1,80,0,1
70494,-90.9090909090909,4,2,1,80,0,1
74539,-153.846153846154,4,2,1,65,0,0
75887,-100,4,2,1,65,0,0
89370,-100,4,2,1,20,0,0

[Colours]
Combo1 : 253,201,81
Combo2 : 87,255,87
Combo3 : 104,172,255
Combo4 : 255,128,128

[HitObjects]
126,159,382,5,2,0:0:0:0:
199,218,550,2,0,L|281:203,1,75.5999976928712,2|0,0:0|0:0,0:0:0:0:
435,159,887,1,2,0:0:0:0:
278,109,1056,1,0,0:0:0:0:
306,289,1224,1,0,0:0:0:0:
435,159,1393,2,0,P|407:134|373:118,1,75.5999976928712,2|0,0:0|0:0,0:0:0:0:
111,250,1730,5,14,0:1:0:0:
273,204,1898,1,2,0:0:0:0:
150,350,2067,2,0,L|68:335,1,75.5999976928712,2|0,0:0|0:0,0:0:0:0:
273,204,2404,5,14,0:1:0:0:
111,157,2573,1,2,0:0:0:0:
232,303,2741,2,0,L|314:288,1,75.5999976928712,2|0,0:0|0:0,0:0:0:0:
278,109,3078,5,14,0:1:0:0:
111,157,3247,1,2,0:0:0:0:
273,204,3415,1,2,0:0:0:0:
106,62,3584,2,0,P|46:89|20:182,1,151.199995385742,14|8,0:1|0:1,0:0:0:0:
26,201,4005,1,8,0:1:0:0:
26,201,4089,2,0,L|39:275,1,75.5999976928712,8|0,0:0|0:0,0:0:0:0:
273,204,4426,5,14,0:1:0:0:
111,157,4595,1,10,0:1:0:0:
307,323,4764,2,0,P|339:307|368:279,1,75.5999976928712,10|0,0:0|0:0,0:0:0:0:
205,81,5101,5,14,0:1:0:0:
367,34,5269,1,10,0:1:0:0:
171,200,5438,2,0,P|139:184|110:156,1,75.5999976928712,10|0,0:0|0:0,0:0:0:0:
367,34,5775,5,14,0:0:0:0:
110,156,5943,1,10,0:1:0:0:
307,323,6112,1,10,0:1:0:0:
205,81,6280,1,14,0:0:0:0:
205,81,6617,5,8,0:0:0:0:
324,230,6786,1,10,3:1:0:0:
359,241,6870,1,0,3:0:0:0:
396,237,6955,1,2,3:0:0:0:
429,218,7039,1,0,3:0:0:0:
450,187,7123,6,0,P|454:96|398:46,1,168,14|10,0:1|1:0,0:0:0:0:
247,169,7629,1,2,0:0:0:0:
110,68,7797,2,0,P|71:55|6:54,1,84,8|2,0:1|0:0,0:0:0:0:
170,202,8134,2,0,P|210:190|246:168,1,84,8|0,1:0|0:0,0:0:0:0:
50,176,8471,6,0,B|39:235|39:235|55:278|55:278|42:346,1,168,10|10,0:1|1:0,0:0:0:0:
229,379,8977,1,2,0:0:0:0:
274,246,9146,2,0,P|265:201|236:158,1,84,8|2,0:1|0:0,0:0:0:0:
171,18,9483,2,0,P|150:54|142:95,1,84,8|0,1:0|0:0,0:0:0:0:
274,246,9820,6,0,P|314:236|356:231,1,84,14|0,0:1|0:0,0:0:0:0:
424,100,10157,2,0,P|383:90|341:85,1,84,10|0,1:0|0:0,0:0:0:0:
162,224,10494,2,0,P|167:265|176:306,1,84,10|0,0:1|0:0,0:0:0:0:
341,85,10831,2,0,P|350:44|355:2,1,84,10|0,1:0|0:0,0:0:0:0:
240,129,11168,6,0,B|192:145|144:129|176:113|128:97|80:113,1,168,10|8,0:1|1:0,0:0:0:0:
41,278,11674,1,0,0:0:0:0:
162,224,11842,1,8,0:1:0:0:
41,278,12011,1,2,0:0:0:0:
240,129,12179,1,10,1:0:0:0:
268,349,12348,1,2,0:0:0:0:
427,151,12516,6,0,P|431:60|375:10,1,168,14|8,0:1|1:0,0:0:0:0:
240,129,13022,1,2,0:0:0:0:
396,242,13190,1,8,0:1:0:0:
342,100,13359,1,2,0:0:0:0:
173,204,13528,2,0,P|131:200|91:187,1,84,10|2,1:0|0:0,0:0:0:0:
135,19,13865,6,0,L|149:101,1,84,8|2,0:1|0:0,0:0:0:0:
291,292,14202,2,0,L|305:209,1,84,10|2,1:0|0:0,0:0:0:0:
371,73,14539,2,0,P|432:71|482:125,1,126,10|0,0:1|0:0,0:0:0:0:
491,150,14876,1,10,1:0:0:0:
396,242,15044,1,2,0:0:0:0:
256,104,15213,6,0,L|87:74,1,168,14|8,0:1|1:0,0:0:0:0:
0,154,15719,1,2,0:0:0:0:
92,272,15887,2,0,P|173:280|231:223,1,168,10|8,0:1|1:0,0:0:0:0:
256,104,16393,1,0,0:0:0:0:
338,244,16561,6,0,L|352:326,1,84,10|0,0:1|0:0,0:0:0:0:
491,150,16898,1,10,1:0:0:0:
444,275,17067,1,0,0:0:0:0:
338,118,17235,2,0,P|297:108|255:103,1,84,10|0,0:1|0:0,0:0:0:0:
149,238,17573,2,0,P|190:233|231:222,1,84,10|0,1:0|0:0,0:1:0:0:
326,21,17910,5,14,0:0:0:0:
148,129,18078,1,8,0:1:0:0:
338,244,18247,1,8,0:1:0:0:
179,26,18415,5,14,0:0:0:0:
149,238,18584,1,8,0:1:0:0:
353,131,18752,1,8,0:1:0:0:
148,129,18921,6,0,B|94:134|56:164|56:164|46:208,1,126,14|0,0:0|0:0,0:0:0:0:
60,269,19258,6,0,L|71:335,1,67.2,10|2,0:1|0:0,0:0:0:0:
154,382,19595,2,0,P|164:348|163:313,1,67.2,10|0,0:1|0:0,0:0:0:0:
220,182,19932,2,0,P|249:166|282:161,1,67.2,10|0,0:1|0:0,0:0:0:0:
345,280,20269,2,0,P|315:264|282:259,1,67.2,10|0,0:1|0:0,0:0:0:0:
163,316,20606,5,10,0:1:0:0:
121,169,20775,1,2,0:0:0:0:
163,316,20943,1,10,0:1:0:0:
121,169,21112,2,0,P|105:198|100:231,1,67.2,2|8,0:0|0:1,0:0:0:0:
4,226,21449,2,0,P|5:259|17:290,1,67.2,2|8,0:0|0:1,0:0:0:0:
80,368,21786,1,2,0:0:0:0:
198,217,21955,5,8,0:1:0:0:
221,204,22039,1,2,0:0:0:0:
247,204,22123,1,0,0:0:0:0:
331,257,22292,2,0,P|342:225|344:192,1,67.2,10|0,0:1|0:0,0:0:0:0:
197,54,22629,1,8,0:1:0:0:
386,95,22797,1,2,0:0:0:0:
303,45,22966,2,0,P|291:76|289:109,1,67.2,8|0,0:1|0:0,0:0:0:0:
415,310,23303,5,10,0:1:0:0:
247,204,23471,1,10,0:1:0:0:
386,95,23640,1,10,0:1:0:0:
307,318,23808,1,10,1:0:0:0:
307,318,24146,1,8,0:1:0:0:
127,218,24314,2,0,P|95:206|62:204,1,67.2,8|0,1:0|0:0,0:0:0:0:
121,319,24651,6,0,P|154:316|185:304,1,67.2,10|2,0:1|0:0,0:0:0:0:
257,237,24988,2,0,P|288:225|321:222,1,67.2,10|0,0:1|0:0,0:0:0:0:
322,383,25325,2,0,P|310:351|307:318,1,67.2,10|0,0:1|0:0,0:0:0:0:
403,172,25662,2,0,P|414:203|417:236,1,67.2,10|0,0:1|0:0,0:0:0:0:
352,86,25999,5,10,0:1:0:0:
257,237,26168,1,2,0:0:0:0:
247,130,26337,1,10,0:1:0:0:
257,237,26505,2,0,P|223:234|191:223,1,67.2,2|8,0:0|0:1,0:0:0:0:
83,119,26842,2,0,P|116:121|148:132,1,67.2,2|8,0:0|0:1,0:0:0:0:
93,226,27179,1,2,0:0:0:0:
247,130,27348,5,8,0:1:0:0:
257,237,27516,1,2,0:0:0:0:
360,171,27685,1,8,0:1:0:0:
332,274,27853,1,2,0:0:0:0:
452,248,28022,1,8,0:1:0:0:
390,335,28190,1,2,0:0:0:0:
512,351,28359,1,8,0:1:0:0:
512,351,28696,5,10,0:1:0:0:
471,141,28865,1,10,0:1:0:0:
332,274,29033,1,10,0:1:0:0:
388,68,29202,1,10,1:0:0:0:
388,68,29539,5,8,0:1:0:0:
370,78,29623,1,8,0:1:0:0:
353,88,29707,2,0,P|319:85|287:74,1,67.2,8|0,1:0|0:0,0:0:0:0:
195,208,30044,6,0,L|278:194,1,84,10|0,0:1|0:0,0:0:0:0:
138,71,30381,2,0,L|55:57,1,84,10|0,1:0|0:0,0:0:0:0:
32,275,30719,1,10,0:1:0:0:
107,163,30887,1,0,0:0:0:0:
199,303,31056,2,0,P|195:344|182:384,1,84,10|0,1:0|0:0,0:0:0:0:
277,194,31393,5,10,0:1:0:0:
114,290,31561,1,2,0:0:0:0:
138,71,31730,1,10,1:0:0:0:
304,217,31898,2,0,P|344:207|386:202,1,84,2|8,0:0|0:1,0:0:0:0:
220,86,32235,2,0,P|180:76|138:71,1,84,2|8,0:0|1:0,0:0:0:0:
0,174,32573,1,2,0:0:0:0:
221,230,32741,6,0,L|304:216,1,84,8|0,0:1|0:0,0:0:0:0:
97,309,33078,2,0,L|14:295,1,84,10|0,1:0|0:0,0:0:0:0:
28,59,33415,1,8,0:1:0:0:
83,207,33584,1,2,0:0:0:0:
219,85,33752,2,0,P|258:71|300:67,1,84,8|0,1:0|0:0,0:0:0:0:
375,277,34089,5,10,0:1:0:0:
179,191,34258,1,10,0:1:0:0:
408,74,34426,1,10,0:1:0:0:
282,322,34595,1,10,1:0:0:0:
282,322,34932,1,8,0:1:0:0:
179,191,35101,2,0,P|140:178|75:177,1,84,8|0,1:0|0:0,0:0:0:0:
282,322,35438,6,0,L|296:239,1,84,10|0,0:1|0:0,0:0:0:0:
181,109,35775,2,0,P|171:150|179:191,1,84,10|0,1:0|0:0,0:0:0:0:
345,24,36112,1,10,0:1:0:0:
270,150,36280,1,0,0:0:0:0:
120,19,36449,2,0,P|160:8|202:3,1,84,10|0,1:0|0:0,0:0:0:0:
452,135,36786,6,0,P|410:131|370:118,1,84,10|0,0:1|0:0,0:0:0:0:
202,3,37123,1,10,1:0:0:0:
153,144,37292,2,0,L|167:227,1,84,2|8,0:0|0:1,0:0:0:0:
224,349,37629,1,2,0:0:0:0:
270,150,37797,1,10,1:0:0:0:
330,270,37966,1,2,0:0:0:0:
82,215,38134,6,0,L|-1:201,1,84,8|0,0:1|0:0,0:0:0:0:
141,362,38471,2,0,L|224:348,1,84,10|0,1:0|0:0,0:0:0:0:
375,159,38808,5,10,0:1:0:0:
236,244,38977,1,0,0:0:0:0:
413,306,39146,1,8,1:0:0:0:
403,142,39314,1,0,0:0:0:0:
208,261,39483,5,8,0:1:0:0:
431,125,39651,1,8,0:1:0:0:
208,15,39820,1,10,0:1:0:0:
325,275,39988,2,0,L|346:149,1,126,8|0,1:0|0:0,0:0:0:0:
352,118,40325,1,8,0:3:0:0:
181,181,40494,1,10,0:3:0:0:
325,275,40662,1,8,0:1:0:0:
238,80,40831,6,0,P|165:66|99:101,1,134.4,14|0,0:1|0:0,0:0:0:0:
54,191,41337,2,0,P|118:205|180:181,1,134.4,10|8,0:1|0:1,0:0:0:0:
364,193,41842,2,0,L|297:181,1,67.2,10|0,0:0|0:0,0:0:0:0:
328,306,42179,6,0,L|460:283,1,134.4,10|0,0:1|0:0,0:0:0:0:
297,181,42685,2,0,L|164:158,1,134.4,10|8,0:1|0:1,0:0:0:0:
34,302,43190,1,8,0:0:0:0:
54,190,43359,1,2,0:0:0:0:
136,360,43528,6,0,P|177:356|218:340,1,84,14|0,0:1|0:0,0:0:0:0:
190,194,43780,2,0,P|172:231|166:273,1,84,10|0,0:1|0:0,0:0:0:0:
283,289,44033,2,0,P|268:273|250:263,1,42,10|0,0:1|0:0,0:0:0:0:
358,360,44202,6,0,L|372:277,1,84,10|0,0:1|0:0,0:0:0:0:
450,218,44455,2,0,L|464:300,1,84,10|0,0:1|0:0,0:0:0:0:
360,181,44707,2,0,L|367:139,1,42,10|0,0:1|0:0,0:0:0:0:
355,48,44876,6,0,P|289:39|230:69,1,134.4,10|0,0:1|0:0,0:0:0:0:
150,148,45381,2,0,P|119:89|128:23,1,134.4,10|8,0:1|0:1,0:0:0:0:
360,181,45887,1,8,0:0:0:0:
204,275,46056,1,2,0:0:0:0:
230,69,46224,5,14,0:1:0:0:
360,181,46393,1,2,0:0:0:0:
354,17,46561,1,8,1:0:0:0:
258,178,46730,2,0,P|209:179|166:159,1,84,2|8,0:0|0:1,0:0:0:0:
127,23,47067,1,0,0:0:0:0:
63,268,47235,5,10,1:0:0:0:
176,166,47404,1,2,0:0:0:0:
9,112,47573,1,10,0:1:0:0:
163,264,47741,2,0,L|246:250,1,84,2|8,0:0|1:0,0:0:0:0:
273,67,48078,1,0,0:0:0:0:
346,236,48247,2,0,P|342:277|326:318,1,84,10|0,0:1|0:0,0:0:0:0:
189,131,48584,2,0,P|173:91|169:50,1,84,10|0,1:0|0:0,0:0:0:0:
359,137,48921,5,10,0:1:0:0:
245,250,49089,1,2,0:0:0:0:
169,50,49258,1,8,1:0:0:0:
323,144,49426,1,2,0:0:0:0:
163,264,49595,2,0,P|123:254|81:249,1,84,8|2,0:1|0:0,0:0:0:0:
273,67,49932,2,0,P|313:57|355:52,1,84,8|2,1:0|0:0,0:0:0:0:
409,286,50269,5,8,0:1:0:0:
230,154,50438,1,2,0:0:0:0:
458,72,50606,1,8,1:0:0:0:
417,255,50775,1,2,0:0:0:0:
247,41,50943,5,8,0:1:0:0:
260,292,51112,1,2,0:0:0:0:
494,119,51280,2,0,P|454:109|412:104,1,84,8|2,1:0|0:0,0:0:0:0:
110,142,51617,5,12,0:1:0:0:
417,255,51786,1,14,0:1:0:0:
200,54,52123,5,12,0:1:0:0:
352,343,52292,1,14,0:1:0:0:
330,19,52629,5,12,0:1:0:0:
245,360,52797,2,0,P|155:360|89:300,1,168,14|8,0:1|0:1,0:0:0:0:
141,63,53303,1,10,0:1:0:0:
201,240,53471,1,10,0:1:0:0:
274,144,53640,5,8,0:1:0:0:
282,137,53724,1,8,0:1:0:0:
291,132,53808,1,8,0:1:0:0:
301,128,53893,1,8,0:1:0:0:
311,126,53977,2,0,L|351:120,7,26.25,10|0|0|0|0|0|0|0,0:1|0:0|0:0|0:0|0:0|0:0|0:0|0:0,0:0:0:0:
408,164,54314,6,0,P|418:206|401:264,1,92.4000028198243,14|0,0:1|0:0,0:0:0:0:
263,383,54651,1,10,1:0:0:0:
218,260,54820,2,0,P|249:230|308:216,1,92.4000028198243,2|8,0:0|0:1,0:0:0:0:
263,383,55157,2,0,L|114:358,1,138.600004229736,2|0,0:0|0:0,0:0:0:0:
96,353,55494,1,2,0:0:0:0:
172,137,55662,5,10,0:1:0:0:
218,261,55831,1,2,0:0:0:0:
84,102,55999,1,10,1:0:0:0:
39,225,56168,1,2,0:0:0:0:
158,43,56337,1,8,0:1:0:0:
203,166,56505,1,2,0:0:0:0:
319,14,56674,2,0,L|412:30,1,92.4000028198243,8|0,1:0|0:0,0:0:0:0:
277,266,57011,6,0,P|240:292|178:304,1,85.6800005229492,14|0,0:1|0:0,0:0:0:0:
376,215,57348,2,0,P|375:259|380:311,1,92.4000028198243,10|0,1:0|0:0,0:0:0:0:
205,116,57685,2,0,P|204:168|199:215,1,99.1199965213624,10|0,0:1|0:0,0:0:0:0:
123,44,58022,2,0,P|160:18|222:6,1,105.83999677002,10|0,1:0|0:0,0:0:0:0:
402,111,58359,6,0,P|350:101|306:72,1,105.83999677002,10|0,0:1|0:0,0:0:0:0:
497,58,58696,2,0,P|497:106|502:156,1,99.1199965213624,10|0,1:0|0:0,0:0:0:0:
368,285,59033,2,0,P|367:331|363:377,1,92.4000028198243,10|0,0:1|0:0,0:0:0:0:
351,188,59370,2,0,P|393:193|431:213,1,85.6800005229492,10|10,1:0|0:1,0:0:0:0:
201,303,59707,5,14,0:1:0:0:
230,113,59876,1,2,0:0:0:0:
368,285,60044,1,10,1:0:0:0:
334,86,60213,1,2,0:0:0:0:
183,205,60381,2,0,P|91:189|0:176,1,184.800005639649,10|8,0:1|1:0,0:0:0:0:
163,33,60887,1,2,0:0:0:0:
277,239,61056,5,10,0:1:0:0:
99,156,61224,1,2,0:0:0:0:
303,96,61393,1,10,1:0:0:0:
201,303,61561,1,2,0:0:0:0:
353,175,61730,2,0,P|421:177|498:265,1,184.800005639649,10|8,0:1|1:0,0:0:0:0:
209,338,62235,5,2,0:0:0:0:
157,157,62404,1,14,1:0:0:0:
157,157,62741,5,10,0:1:0:0:
382,292,62910,1,14,0:0:0:0:
382,292,63247,5,10,0:1:0:0:
330,111,63415,1,14,0:0:0:0:
330,111,63752,5,14,1:0:0:0:
382,292,63921,1,0,0:0:0:0:
157,157,64089,1,8,1:0:0:0:
209,338,64258,1,0,0:0:0:0:
270,225,64426,5,8,0:1:0:0:
113,361,64595,1,10,0:1:0:0:
64,189,64764,1,10,1:0:0:0:
59,148,64848,1,8,0:1:0:0:
72,108,64932,1,8,0:1:0:0:
99,77,65016,1,8,0:1:0:0:
137,59,65101,6,0,P|193:62|234:91,1,92.4000028198243,14|0,0:1|0:0,0:0:0:0:
286,304,65438,1,10,1:0:0:0:
181,242,65606,2,0,P|157:202|155:157,1,92.4000028198243,2|8,0:0|0:1,0:0:0:0:
318,113,65943,2,0,P|287:159|241:181,1,92.4000028198243,2|8,0:0|1:0,0:0:0:0:
126,56,66280,1,2,0:0:0:0:
181,242,66449,5,8,0:1:0:0:
223,80,66617,1,2,0:0:0:0:
84,218,66786,1,10,1:0:0:0:
126,56,66955,1,2,0:0:0:0:
256,177,67123,1,8,0:1:0:0:
51,121,67292,1,2,0:0:0:0:
223,80,67460,2,0,L|324:56,1,92.4000028198243,8|0,1:0|0:0,0:0:0:0:
273,260,67797,6,0,P|260:220|256:177,1,85.6800005229492,14|0,0:1|0:0,0:0:0:0:
393,245,68134,2,0,P|386:292|370:338,1,92.4000028198243,10|0,1:0|0:0,0:0:0:0:
132,107,68471,2,0,P|174:81|222:79,1,99.1199965213624,10|0,0:1|0:0,0:0:0:0:
490,273,68808,2,0,P|436:271|391:243,1,105.83999677002,10|0,1:0|0:0,0:0:0:0:
479,25,69146,6,0,P|484:78|468:128,1,105.83999677002,10|0,0:1|0:0,0:0:0:0:
242,306,69483,2,0,P|226:257|231:207,1,97.4400029736329,10|0,1:0|0:0,0:0:0:0:
291,43,69820,2,0,P|335:49|382:69,1,92.4000028198243,10|0,0:1|0:0,0:0:0:0:
474,221,70157,2,0,P|432:237|381:244,1,85.6800005229492,10|10,1:0|0:1,0:0:0:0:
192,102,70494,5,12,0:1:0:0:
151,284,70662,1,2,0:0:0:0:
34,59,70831,1,10,1:0:0:0:
54,236,70999,1,2,0:0:0:0:
141,33,71168,2,0,P|243:34|279:102,1,184.800005639649,10|8,0:1|1:0,0:0:0:0:
318,350,71674,1,2,0:0:0:0:
385,149,71842,5,10,0:1:0:0:
194,182,72011,1,2,0:0:0:0:
401,258,72179,1,10,1:0:0:0:
278,98,72348,1,2,0:0:0:0:
210,291,72516,2,0,P|117:275|9:260,1,184.800005639649,10|8,0:1|1:0,0:0:0:0:
168,65,73022,1,2,0:0:0:0:
302,229,73190,6,0,P|390:238|448:154,1,184.800005639649,10|8,0:1|1:0,0:0:0:0:
290,53,73696,1,2,0:0:0:0:
290,53,73780,1,8,0:0:0:0:
290,53,73865,2,0,L|275:105,1,46.2000014099122,10|0,0:1|0:0,0:0:0:0:
225,294,74033,1,8,0:1:0:0:
354,150,74202,1,8,1:0:0:0:
124,250,74370,1,8,0:1:0:0:
373,359,74539,6,0,B|401:357|422:347|422:347|452:295|448:239,1,163.799992501831,14|0,0:1|0:0,0:0:0:0:
354,150,75213,5,2,0:0:0:0:
220,297,75381,1,10,0:1:0:0:
164,83,75550,1,8,1:0:0:0:
316,255,75719,1,8,0:1:0:0:
316,255,75803,1,8,0:1:0:0:
316,255,75887,5,14,0:1:0:0:
260,75,76056,1,10,0:1:0:0:
125,276,76224,2,0,L|107:369,1,84,10|0,0:0|0:0,0:0:0:0:
25,201,76561,5,10,0:1:0:0:
82,22,76730,1,10,0:1:0:0:
216,223,76898,2,0,L|232:316,1,84,10|0,0:0|0:0,0:0:0:0:
349,115,77235,5,10,0:1:0:0:
312,344,77404,1,10,0:1:0:0:
158,146,77573,1,10,0:0:0:0:
379,233,77741,2,0,P|446:185|468:103,1,168,10|8,0:1|0:1,0:0:0:0:
219,59,78247,1,8,0:0:0:0:
253,233,78415,1,0,0:0:0:0:
304,12,78584,5,14,0:1:0:0:
128,59,78752,1,10,0:1:0:0:
253,233,78921,2,0,P|296:218|331:186,1,84,10|0,0:0|0:0,0:0:0:0:
32,67,79258,5,10,0:1:0:0:
207,114,79426,1,10,0:1:0:0:
83,288,79595,2,0,P|37:273|2:241,1,84,10|0,0:0|0:0,0:0:0:0:
128,59,79932,5,10,0:1:0:0:
170,269,80101,1,8,0:1:0:0:
362,122,80269,1,10,0:0:0:0:
320,332,80438,1,10,0:1:0:0:
320,332,80775,5,10,0:1:0:0:
170,269,80943,1,10,0:0:0:0:
362,122,81112,1,10,0:1:0:0:
128,59,81280,5,14,0:1:0:0:
175,301,81449,1,10,0:0:0:0:
268,98,81617,5,10,0:1:0:0:
257,261,81786,1,8,0:0:0:0:
335,29,81955,5,10,0:1:0:0:
382,271,82123,1,10,0:0:0:0:
475,68,82292,5,10,0:1:0:0:
464,231,82460,1,8,0:0:0:0:
242,6,82629,5,10,0:1:0:0:
362,122,82797,1,10,0:0:0:0:
182,210,82966,5,10,0:1:0:0:
335,29,83134,1,10,0:0:0:0:
464,231,83303,5,8,0:1:0:0:
268,98,83471,1,8,0:0:0:0:
512,63,83640,5,8,0:1:0:0:
382,271,83808,1,8,0:0:0:0:
335,29,83977,5,10,0:1:0:0:
257,261,84146,1,10,0:1:0:0:
95,76,84314,1,10,0:0:0:0:
95,76,84651,5,10,0:1:0:0:
327,157,84820,1,10,0:1:0:0:
143,317,84988,1,10,0:0:0:0:
143,317,85325,5,14,1:0:0:0:
95,76,85494,1,10,0:1:0:0:
384,270,85662,1,10,0:1:0:0:
335,29,85831,1,14,1:0:0:0:
118,196,86168,5,14,1:0:0:0:
360,150,86337,1,10,0:1:0:0:
118,196,86505,1,10,0:1:0:0:
360,150,86674,1,14,1:0:0:0:
95,76,87011,5,14,1:0:0:0:
384,270,87179,1,10,0:1:0:0:
335,29,87348,1,10,0:1:0:0:
143,317,87516,1,14,1:0:0:0:
256,192,87601,12,0,89370,0:0:0:0:
