osu file format v14

[General]
AudioFilename: audio.mp3
AudioLeadIn: 0
PreviewTime: 72836
Countdown: 0
SampleSet: Normal
StackLeniency: 0.5
Mode: 0
LetterboxInBreaks: 0
WidescreenStoryboard: 0

[Editor]
DistanceSpacing: 1
BeatDivisor: 4
GridSize: 8
TimelineZoom: 2.599999

[Metadata]
Title:Ikenai Borderline
TitleUnicode:いけないボーダーライン
Artist:Warukyure
ArtistUnicode:ワルキューレ
Creator:lkx_Shore
Version:Easy
Source:マクロスdelta
Tags:西直紀 コモリタミノル
BeatmapID:1017373
BeatmapSetID:476276

[Difficulty]
HPDrainRate:6
CircleSize:4
OverallDifficulty:8
ApproachRate:9
SliderMultiplier:2
SliderTickRate:1

[Events]
//Background and Video events
//Break Periods
2,100241,109875
//Storyboard Layer 0 (Background)
//Storyboard Layer 1 (Fail)
//Storyboard Layer 2 (Pass)
//Storyboard Layer 3 (Foreground)
//Storyboard Sound Samples

[TimingPoints]
538,372.670807453416,4,2,1,15,1,0
538,-200,4,2,1,15,0,0
3519,-200,4,2,1,20,0,0
5010,-200,4,2,1,25,0,0
9668,-100,4,2,1,10,0,0
11904,-100,4,1,1,60,0,0
35382,-100,4,1,1,60,0,0
35569,-100,4,1,1,10,0,0
35755,-100,4,1,1,60,0,0
60165,-133.333333333333,4,1,1,60,0,0
70600,-133.333333333333,4,1,1,45,0,0
72090,-133.333333333333,4,1,1,60,0,0
72836,-100,4,1,1,60,0,0
73581,-90.9090909090909,4,1,1,60,0,1
79916,-83.3333333333333,4,1,1,60,0,1
80289,-90.9090909090909,4,1,1,60,0,1
91842,-83.3333333333333,4,1,1,60,0,1
92215,-90.9090909090909,4,1,1,60,0,1
95941,-100,4,1,1,60,0,0
96780,-100,4,1,1,10,0,0
99482,-100,4,1,1,60,0,0
100041,372.670807453416,4,1,1,60,1,0
122494,-100,4,1,1,10,0,0
122587,-100,4,1,1,60,0,0
122680,-100,4,1,1,10,0,0
122773,-100,4,1,1,60,0,0
122867,-100,4,1,1,10,0,0
122960,-100,4,1,1,60,0,0
123053,-100,4,1,1,10,0,0
123146,-100,4,1,1,60,0,0
135817,-133.333333333333,4,1,1,60,0,0
149233,-90.9090909090909,4,1,1,60,0,1
155568,-83.3333333333333,4,1,1,60,0,1
155941,-90.9090909090909,4,1,1,60,0,1
171593,-100,4,1,1,60,0,0
195444,-90.9090909090909,4,1,1,60,0,1
217804,-100,4,1,1,60,0,0
221904,372.670807453416,4,1,1,60,1,0
221904,-90.9090909090909,4,1,1,60,0,1
245754,-100,4,1,1,60,0,0

[HitObjects]
64,328,538,6,0,L|136:320,1,50
256,312,910,1,0,0:0:0:0:
248,320,1097,1,2,0:0:0:0:
48,240,1283,2,0,L|120:232,1,50
240,224,1656,1,0,0:0:0:0:
232,232,1842,1,2,0:0:0:0:
472,184,2028,2,0,L|400:176,1,50
288,160,2401,1,0,0:0:0:0:
296,168,2587,1,2,0:0:0:0:
472,88,2774,2,0,L|400:80,1,50
288,64,3146,1,0,0:0:0:0:
296,72,3333,1,2,0:0:0:0:
208,336,3519,6,0,L|224:288,1,50
368,195,3892,1,0,0:0:0:0:
400,291,4078,1,2,0:0:0:0:
224,368,4264,2,0,L|240:320,1,50
352,192,4637,1,0,0:0:0:0:
390,307,4823,1,2,0:0:0:0:
448,208,5010,5,0,0:0:0:0:
352,192,5196,1,0,0:0:0:0:
176,256,5382,1,0,0:0:0:0:
272,240,5569,1,2,0:0:0:0:
464,184,5755,5,0,0:0:0:0:
368,168,5941,1,0,0:0:0:0:
154,288,6128,1,0,0:0:0:0:
250,272,6314,1,2,0:0:0:0:
72,128,6500,2,0,P|96:144|136:152,1,50
256,152,6873,1,0,0:0:0:0:
184,96,7059,1,2,0:0:0:0:
328,208,7246,2,0,P|304:224|264:232,1,50
144,232,7619,1,0,0:0:0:0:
216,192,7805,1,2,0:0:0:0:
112,64,7991,5,0,0:0:0:0:
144,232,8177,1,0,0:0:0:0:
48,160,8364,1,0,0:0:0:0:
112,64,8550,1,2,0:0:0:0:
208,336,8736,5,0,0:0:0:0:
232,208,8923,1,0,0:0:0:0:
126,151,9109,1,0,0:0:0:0:
208,336,9295,1,2,0:0:0:0:
32,352,9482,6,0,P|64:360|104:360,1,50,0|0,1:0|2:0,0:0:0:0:
256,192,9761,12,0,11811,0:0:0:0:
72,320,11904,5,0,0:0:0:0:
432,264,12090,1,0,0:0:0:0:
344,328,12277,1,0,0:0:0:0:
312,312,12339,1,0,0:0:0:0:
288,288,12401,1,0,0:0:0:0:
272,256,12463,2,2,P|264:200|288:104,1,150,2|0,0:0|2:0,0:0:0:0:
408,64,12836,2,0,P|424:120|416:168,1,100,10|0,0:0|2:0,0:0:0:0:
184,336,13208,1,0,0:0:0:0:
336,312,13395,1,2,0:0:0:0:
144,312,13581,1,10,0:0:0:0:
368,336,13767,1,0,0:0:0:0:
160,64,13954,6,0,L|152:216,1,150,2|0,0:0|2:0,0:0:0:0:
240,248,14326,2,0,L|232:360,1,100,10|0,0:0|2:0,0:0:0:0:
40,320,14699,1,0,0:0:0:0:
48,168,14885,1,2,0:0:0:0:
248,96,15072,1,10,0:0:0:0:
240,248,15258,1,0,0:0:0:0:
480,288,15444,6,0,B|424:280|424:280|384:296|384:296|320:288,1,150,2|0,0:0|2:0,0:0:0:0:
240,336,15817,2,0,L|136:320,1,100,10|0,0:0|2:0,0:0:0:0:
344,88,16190,1,2,0:0:0:0:
248,200,16376,1,2,0:0:0:0:
392,224,16562,1,8,0:0:0:0:
192,64,16749,6,2,B|136:80|112:120|112:120|80:216|80:216,1,200,2|0,0:0|0:0,0:0:0:0:
104,256,17215,1,0,0:0:0:0:
136,296,17308,2,2,B|164:193|164:193|144:168|80:216,1,200,10|0,0:0|1:0,0:0:0:0:
208,368,17867,1,2,0:0:0:0:
272,112,18053,1,10,0:0:0:0:
208,368,18239,1,0,0:0:0:0:
424,360,18426,6,2,P|352:304|328:200,1,200,2|10,0:0|0:0,0:0:0:0:
376,56,18985,1,0,0:0:0:0:
248,296,19171,1,2,0:0:0:0:
248,296,19357,2,0,P|301:319|440:288,2,200,2|2|2,0:0|0:0|0:0,0:0:0:0:
32,344,20289,6,0,P|80:328|144:336,1,100,8|0,0:0|0:0,0:0:0:0:
160,112,20662,2,0,L|144:216,1,100,2|0,0:0|0:0,0:0:0:0:
328,344,21034,1,8,0:0:0:0:
328,344,21221,2,0,L|312:240,1,100,2|0,0:0|0:0,0:0:0:0:
312,64,21593,5,2,0:2:0:0:
312,64,21780,1,8,0:0:0:0:
464,184,21966,1,2,0:2:0:0:
464,184,22152,1,0,0:0:0:0:
384,128,22339,1,2,0:2:0:0:
368,224,22525,1,8,0:0:0:0:
448,288,22711,1,2,0:2:0:0:
368,344,22898,6,0,B|320:344|320:344|280:336|264:304,1,100,2|0,0:2|0:0,0:0:0:0:
264,328,23270,5,8,0:0:0:0:
256,336,23457,1,2,0:2:0:0:
248,344,23643,1,8,0:0:0:0:
152,136,23829,1,2,0:0:0:0:
80,336,24016,1,10,0:0:0:0:
144,120,24202,1,8,0:0:0:0:
264,368,24388,6,0,B|272:304|272:304|296:264|280:216,1,150,4|0,0:2|2:0,0:0:0:0:
240,136,24761,2,0,P|232:88|248:32,1,100,10|0,0:0|2:0,0:0:0:0:
384,96,25134,1,0,0:0:0:0:
456,224,25320,1,2,0:0:0:0:
352,328,25506,1,10,0:0:0:0:
136,296,25693,1,0,0:0:0:0:
320,200,25879,6,2,B|208:184|208:184|160:192,1,150,2|0,0:0|2:0,0:0:0:0:
48,224,26252,2,0,L|64:112,1,100,10|0,0:0|0:0,0:0:0:0:
152,320,26624,1,0,0:0:0:0:
152,320,26811,1,2,0:0:0:0:
288,288,26997,1,10,0:0:0:0:
480,360,27183,1,0,0:0:0:0:
264,368,27370,6,2,L|248:216,1,150,2|0,0:0|2:0,0:0:0:0:
368,56,27742,2,0,L|352:160,1,100,10|2,0:0|2:0,0:0:0:0:
144,352,28115,1,2,0:0:0:0:
400,256,28301,1,2,0:0:0:0:
96,208,28488,1,8,0:0:0:0:
352,336,28674,6,2,B|296:344|248:320|248:320|200:240,1,200,2|0,0:0|0:0,0:0:0:0:
232,200,29140,1,0,0:0:0:0:
264,160,29233,2,2,B|280:272|280:272|240:272|200:240,1,200,10|0,0:0|0:0,0:0:0:0:
88,184,29792,1,2,0:0:0:0:
368,144,29978,1,10,0:0:0:0:
136,312,30165,1,2,0:2:0:0:
200,72,30351,6,2,B|264:48|320:72|320:72|400:56,1,200,2|8,0:0|0:0,0:0:0:0:
304,192,30910,1,0,0:0:0:0:
304,192,31097,2,0,L|408:176,1,100,2|0,0:0|0:0,0:0:0:0:
512,168,31469,1,8,0:0:0:0:
230,304,31656,2,0,L|32:328,1,200,2|2,0:0|0:0,0:0:0:0:
365,351,32215,6,2,L|464:336,1,100,8|2,0:0|0:0,0:0:0:0:
304,48,32587,1,2,0:0:0:0:
304,48,32960,1,8,0:0:0:0:
408,152,33146,6,2,L|388:255,1,100,2|0,0:0|0:0,0:0:0:0:
368,344,33519,1,2,0:2:0:0:
272,328,33705,1,8,0:0:0:0:
176,304,33892,1,2,0:2:0:0:
408,296,34078,5,0,0:0:0:0:
408,296,34264,1,2,0:2:0:0:
280,312,34451,1,8,0:0:0:0:
152,328,34637,1,2,0:2:0:0:
168,280,34730,1,0,0:0:0:0:
184,232,34823,5,4,2:0:0:0:
256,32,35010,1,2,2:0:0:0:
112,136,35196,1,8,0:0:0:0:
424,208,35382,1,8,0:0:0:0:
424,208,35755,1,0,0:0:0:0:
368,128,35941,1,8,0:0:0:0:
328,288,36128,1,0,0:0:0:0:
312,312,36190,1,0,0:0:0:0:
296,336,36252,1,0,0:0:0:0:
280,360,36314,6,0,P|200:368|136:344,1,150,2|0,0:0|2:0,0:0:0:0:
24,224,36687,2,0,P|72:224|120:240,1,100,8|0,0:0|2:0,0:0:0:0:
248,264,37059,1,0,0:0:0:0:
280,144,37246,1,0,0:0:0:0:
128,32,37432,1,8,0:0:0:0:
160,160,37618,1,0,0:0:0:0:
160,160,37805,5,4,0:2:0:0:
320,128,37991,2,0,L|360:112,2,33.3333333333333,2|0|0,2:0|2:0|2:0,2:0:0:0:
280,144,38177,2,0,L|288:248,1,100,8|2,0:0|2:0,0:0:0:0:
287,243,38736,1,0,0:0:0:0:
192,312,38923,1,8,0:0:0:0:
72,288,39109,1,0,0:0:0:0:
287,243,39295,6,0,P|333:267|368:304,1,100,0|0,0:0|2:0,0:0:0:0:
376,184,39668,2,0,P|400:144|448:112,1,100,8|0,0:0|2:0,0:0:0:0:
320,104,40041,1,0,0:0:0:0:
216,48,40227,1,0,0:0:0:0:
160,152,40413,1,8,0:0:0:0:
48,184,40600,1,0,0:0:0:0:
48,184,40786,5,4,0:2:0:0:
176,240,40972,2,0,L|136:224,2,33.3333333333333,2|0|0,2:0|2:0|2:0,2:0:0:0:
216,256,41158,2,0,L|208:360,1,100,8|2,0:0|2:0,0:0:0:0:
208,355,41718,1,0,0:0:0:0:
424,264,41904,1,8,0:0:0:0:
232,152,42090,1,8,0:0:0:0:
344,352,42277,6,0,L|352:248,1,100,4|0,0:2|2:0,0:0:0:0:
239,52,42649,2,0,L|231:156,1,100,8|0,0:0|2:0,0:0:0:0:
351,252,43022,1,0,0:0:0:0:
504,200,43208,1,0,0:0:0:0:
392,96,43395,1,8,0:0:0:0:
344,288,43581,1,0,0:0:0:0:
416,192,43767,6,0,L|316:168,1,100,4|2,0:2|2:0,0:0:0:0:
288,160,44016,1,0,2:0:0:0:
256,152,44078,1,0,2:0:0:0:
224,144,44140,1,8,0:0:0:0:
256,256,44326,1,2,0:2:0:0:
192,136,44513,1,0,0:0:0:0:
224,248,44699,1,2,0:2:0:0:
88,208,44885,1,8,0:0:0:0:
248,344,45072,1,2,0:2:0:0:
400,184,45258,6,2,L|296:168,1,100
400,184,45631,1,0,0:0:0:0:
301,168,45817,1,2,0:0:0:0:
472,120,46003,1,8,0:0:0:0:
152,336,46190,1,2,0:0:0:0:
152,336,46376,2,0,P|232:344|296:320,1,150,10|0,0:0|2:0,0:0:0:0:
424,288,46749,5,4,0:2:0:0:
416,304,46935,1,2,0:2:0:0:
408,320,47121,1,8,0:0:0:0:
400,336,47308,1,2,0:2:0:0:
400,336,47680,1,2,0:2:0:0:
72,280,47867,1,8,0:0:0:0:
192,296,48053,1,2,0:0:0:0:
216,272,48115,1,0,0:0:0:0:
232,240,48177,1,0,0:0:0:0:
248,208,48239,6,0,P|256:136|240:56,1,150,4|0,0:2|2:0,0:0:0:0:
48,144,48612,2,0,P|104:136|160:152,1,100,8|0,0:0|2:0,0:0:0:0:
248,208,48985,1,0,0:0:0:0:
368,208,49171,1,2,0:2:0:0:
472,144,49357,1,8,0:0:0:0:
496,24,49544,1,2,0:2:0:0:
312,88,49730,5,4,0:2:0:0:
416,176,49916,1,2,2:0:0:0:
416,176,49978,1,0,2:0:0:0:
416,176,50041,1,0,2:0:0:0:
416,176,50103,1,8,0:0:0:0:
400,304,50289,2,0,L|296:328,1,100,0|0,0:0|2:0,0:0:0:0:
152,352,50662,1,0,0:0:0:0:
24,272,50848,1,8,0:0:0:0:
136,176,51034,1,0,0:0:0:0:
64,344,51221,6,0,L|56:240,1,100,2|0,0:2|2:0,0:0:0:0:
144,48,51593,2,0,L|152:152,1,100,8|0,0:0|2:0,0:0:0:0:
224,280,51966,1,0,0:0:0:0:
336,208,52152,1,0,0:0:0:0:
208,288,52339,1,8,0:0:0:0:
384,336,52525,1,0,0:0:0:0:
192,296,52711,5,4,0:2:0:0:
256,136,52898,1,2,2:0:0:0:
256,136,52960,1,0,2:0:0:0:
256,136,53022,1,0,2:0:0:0:
256,136,53084,1,8,0:0:0:0:
440,272,53270,2,0,L|336:264,1,100,0|0,0:0|2:0,0:0:0:0:
72,328,53643,1,0,0:0:0:0:
240,360,53829,1,8,0:0:0:0:
144,120,54016,1,8,0:0:0:0:
56,233,54202,6,0,B|48:272|56:304|56:304|72:329,1,100,4|0,0:2|2:0,0:0:0:0:
400,256,54575,2,0,B|376:240|328:248|328:248|296:264,1,100,8|0,0:0|2:0,0:0:0:0:
352,368,54947,1,0,0:0:0:0:
504,264,55134,1,0,0:0:0:0:
352,152,55320,1,8,0:0:0:0:
456,336,55507,1,0,0:0:0:0:
384,80,55693,6,0,L|376:184,1,100,4|2,0:2|2:0,0:0:0:0:
400,208,55941,1,0,2:0:0:0:
424,232,56003,1,0,2:0:0:0:
448,256,56065,1,8,0:0:0:0:
304,296,56252,1,0,0:0:0:0:
160,256,56438,1,0,0:0:0:0:
408,224,56625,1,0,0:0:0:0:
256,224,56811,1,8,0:0:0:0:
144,120,56998,1,0,0:0:0:0:
256,24,57183,6,0,B|296:16|328:24|328:24|368:56,1,100,4|2,0:2|0:0,0:0:0:0:
384,240,57556,2,0,L|408:136,1,100,8|2,0:0|0:0,0:0:0:0:
448,320,57929,1,0,0:0:0:0:
248,280,58115,1,2,0:0:0:0:
424,344,58301,2,0,L|320:352,1,100,10|0,0:0|0:0,0:0:0:0:
160,320,58674,5,4,0:2:0:0:
104,216,58860,1,2,0:2:0:0:
248,280,59047,1,8,0:0:0:0:
232,112,59233,1,2,0:2:0:0:
344,264,59419,5,8,0:0:0:0:
376,56,59606,1,8,0:0:0:0:
464,344,59792,1,8,0:0:0:0:
96,296,59978,1,8,0:0:0:0:
360,160,60165,6,0,B|392:144|392:144|352:112|272:128,1,150.000005722046,4|8,0:2|0:0,0:0:0:0:
112,200,60724,1,0,0:0:0:0:
112,200,60910,2,0,L|136:40,1,150.000005722046,0|8,0:0|2:1,0:0:0:0:
376,208,61469,1,0,0:0:0:0:
376,208,61655,6,0,L|352:368,1,150.000005722046,0|8,0:0|2:1,0:0:0:0:
256,304,62215,1,0,0:0:0:0:
144,328,62401,2,0,L|128:240,1,75.0000028610231
32,208,62774,2,0,L|56:120,1,75.0000028610231,10|0,0:0|0:0,0:0:0:0:
64,24,63146,6,0,B|40:48|40:48|160:32,1,150.000005722046,2|8,0:0|0:0,0:0:0:0:
312,144,63706,1,0,0:0:0:0:
376,88,63892,2,0,P|328:112|216:96,1,150.000005722046,0|8,0:0|0:0,0:0:0:0:
88,336,64451,1,0,0:0:0:0:
24,208,64637,5,0,0:0:0:0:
120,176,64823,2,0,L|104:256,1,75.0000028610231,0|8,0:2|0:0,0:0:0:0:
88,336,65196,1,0,0:0:0:0:
216,320,65382,1,2,0:0:0:0:
344,304,65569,1,0,0:0:0:0:
456,336,65755,1,10,0:0:0:0:
304,352,65941,1,0,0:0:0:0:
96,224,66128,6,0,L|104:136,1,75.0000028610231,2|0,0:0|2:0,0:0:0:0:
112,64,66500,1,8,0:0:0:0:
176,264,66687,1,0,0:0:0:0:
176,264,66873,2,0,L|184:176,1,75.0000028610231,0|0,0:0|2:0,0:0:0:0:
192,96,67246,1,8,0:0:0:0:
448,120,67432,1,0,0:0:0:0:
448,120,67618,6,0,L|440:208,1,75.0000028610231,0|0,0:0|2:0,0:0:0:0:
368,80,67991,1,8,0:0:0:0:
432,280,68177,1,0,0:0:0:0:
264,288,68364,1,0,0:0:0:0:
352,320,68550,1,2,0:2:0:0:
352,320,68736,2,0,L|344:232,1,75.0000028610231,8|8,0:0|0:0,0:0:0:0:
432,48,69109,6,0,B|392:80|336:80|336:80|288:64,1,150.000005722046,4|8,0:2|0:0,0:0:0:0:
128,152,69668,2,0,L|144:48,1,75.0000028610231
104,304,70041,1,0,0:0:0:0:
272,208,70227,1,8,0:0:0:0:
104,304,70413,1,0,0:0:0:0:
384,376,70600,5,0,0:0:0:0:
416,344,70693,1,0,0:0:0:0:
432,304,70786,1,0,0:0:0:0:
432,256,70879,1,0,0:0:0:0:
424,216,70972,1,2,0:2:0:0:
400,184,71065,1,0,0:0:0:0:
376,144,71159,1,0,0:0:0:0:
368,96,71252,1,0,0:0:0:0:
384,56,71345,5,0,0:0:0:0:
392,96,71438,1,0,0:0:0:0:
376,128,71531,1,0,0:0:0:0:
352,152,71624,1,0,0:0:0:0:
312,160,71718,1,2,0:2:0:0:
272,152,71811,1,0,0:0:0:0:
248,128,71904,1,0,0:0:0:0:
232,96,71997,1,0,0:0:0:0:
312,80,72090,5,2,0:0:0:0:
312,80,72836,1,2,2:0:0:0:
384,192,73022,1,8,0:0:0:0:
304,56,73208,1,2,2:0:0:0:
264,224,73395,1,2,2:0:0:0:
296,32,73581,6,0,L|280:144,1,110.000003356934,4|0,0:2|2:0,0:0:0:0:
392,360,73954,2,0,B|416:320|416:288|416:288|408:248,1,110.000003356934,8|0,0:0|2:0,0:0:0:0:
200,176,74326,1,0,0:0:0:0:
392,96,74513,1,0,0:0:0:0:
280,320,74699,2,0,L|168:304,1,110.000003356934,8|0,0:0|0:0,0:0:0:0:
32,120,75072,5,2,0:2:0:0:
192,152,75258,1,0,0:0:0:0:
88,216,75444,2,0,B|73:76|73:76|104:96,1,165.000005035401,8|0,0:0|2:0,0:0:0:0:
192,152,75817,2,0,B|234:134|274:150|274:150|258:174,1,110.000003356934,0|0,0:2|2:0,0:0:0:0:
136,320,76190,1,8,0:0:0:0:
32,176,76376,2,0,L|24:64,1,110.000003356934,2|0,0:2|0:0,0:0:0:0:
259,171,76749,5,0,0:2:0:0:
136,320,76935,1,8,0:0:0:0:
136,320,77121,2,0,B|200:368|288:344|288:344|328:296,1,220.000006713867
160,104,77680,1,8,0:0:0:0:
40,352,77867,1,2,0:2:0:0:
40,352,78053,6,0,L|264:328,1,220.000006713867,4|8,0:2|0:0,0:0:0:0:
464,296,78612,1,0,0:0:0:0:
464,296,78798,2,0,L|488:216,1,55.0000016784668,2|0,0:0|2:0,0:0:0:0:
368,304,78985,2,0,L|392:224,1,55.0000016784668,2|0,0:0|2:0,0:0:0:0:
208,128,79171,2,0,L|232:48,1,55.0000016784668,10|0,0:0|2:0,0:0:0:0:
104,136,79358,2,0,L|128:56,1,55.0000016784668,2|0,0:0|2:0,0:0:0:0:
64,312,79544,6,0,P|112:280|40:248,1,165.000005035401,0|0,0:0|2:0,0:0:0:0:
8,336,79916,6,2,B|64:312|64:312|184:328,1,179.999994506836,12|0,0:2|2:0,0:0:0:0:
264,344,80289,1,0,0:0:0:0:
216,128,80475,1,0,0:0:0:0:
120,216,80662,1,8,0:0:0:0:
360,160,80848,1,0,0:0:0:0:
104,72,81034,6,0,B|184:112|256:88|256:88|304:40,1,220.000006713867,4|8,0:2|0:0,0:0:0:0:
440,136,81593,1,0,0:0:0:0:
259,300,81780,2,0,P|235:252|227:196,1,110.000003356934
67,172,82152,2,0,P|75:116|107:68,1,110.000003356934,8|0,0:0|0:0,0:0:0:0:
376,224,82525,6,0,L|152:208,1,220.000006713867,4|8,0:2|0:0,0:0:0:0:
32,312,83084,1,0,0:0:0:0:
248,280,83270,2,0,P|272:232|272:160,1,110.000003356934
80,56,83643,1,8,0:0:0:0:
120,192,83829,1,0,0:0:0:0:
120,192,83923,1,0,0:0:0:0:
120,192,84016,5,4,0:2:0:0:
120,192,84202,1,2,0:2:0:0:
328,264,84388,1,8,0:0:0:0:
280,104,84574,1,2,0:2:0:0:
96,304,84761,5,2,0:0:0:0:
328,264,84947,1,2,0:2:0:0:
120,192,85134,1,10,0:0:0:0:
280,104,85320,1,2,0:0:0:0:
96,304,85506,6,0,P|160:360|256:360,1,165.000005035401,4|0,0:2|2:0,0:0:0:0:
376,328,85879,2,0,P|432:320|488:328,1,110.000003356934,8|0,0:0|2:0,0:0:0:0:
208,240,86252,1,0,0:0:0:0:
376,328,86438,1,0,0:0:0:0:
352,120,86624,2,0,B|312:104|280:104|280:104|240:120,1,110.000003356934,8|0,0:0|0:0,0:0:0:0:
456,208,86997,6,0,L|480:96,1,110.000003356934,2|0,0:2|0:0,0:0:0:0:
296,240,87370,1,8,0:0:0:0:
352,120,87556,1,0,0:0:0:0:
408,336,87742,2,0,B|344:368|344:368|264:368|208:312,1,220.000006713867,2|8,0:2|0:0,0:0:0:0:
456,120,88301,2,0,B|408:120|384:136|384:136|360:168,1,110.000003356934
320,264,88674,5,0,0:0:0:0:
64,176,88860,1,8,0:0:0:0:
208,104,89047,2,0,B|240:192|192:256|192:256|216:288|211:321,1,220.000006713867,2|0,0:2|0:0,0:0:0:0:
104,320,89606,1,8,0:0:0:0:
256,192,89792,1,0,0:0:0:0:
104,48,89978,6,0,P|56:64|16:112,1,110.000003356934,4|0,0:2|0:0,0:0:0:0:
104,320,90351,2,0,L|128:208,1,110.000003356934,8|0,0:0|0:0,0:0:0:0:
312,88,90724,2,0,L|368:72,1,55.0000016784668,2|0,0:0|2:0,0:0:0:0:
408,152,90910,2,0,L|464:136,1,55.0000016784668,2|0,0:0|2:0,0:0:0:0:
252,271,91097,2,0,L|196:255,1,55.0000016784668,10|0,0:0|2:0,0:0:0:0:
156,335,91283,2,0,L|100:319,1,55.0000016784668,2|0,0:0|2:0,0:0:0:0:
448,312,91469,6,0,P|400:280|472:248,1,165.000005035401,0|0,0:0|2:0,0:0:0:0:
504,336,91841,6,2,B|448:312|448:312|328:328,1,179.999994506836,12|0,0:2|2:0,0:0:0:0:
248,344,92215,1,0,0:0:0:0:
160,144,92401,1,0,0:0:0:0:
96,296,92587,1,8,0:0:0:0:
312,200,92774,1,0,0:0:0:0:
128,32,92960,6,0,B|64:56|48:128|48:128|80:216,1,220.000006713867,4|8,0:2|0:0,0:0:0:0:
256,336,93519,2,0,L|216:232,1,110.000003356934
216,233,93892,1,0,0:0:0:0:
432,128,94078,2,0,L|416:240,1,110.000003356934,8|0,0:0|0:0,0:0:0:0:
64,128,94451,6,0,P|152:120|280:152,1,220.000006713867,4|8,0:2|0:0,0:0:0:0:
416,236,95010,1,0,0:0:0:0:
192,312,95196,1,0,0:0:0:0:
256,72,95382,1,2,0:2:0:0:
296,216,95569,1,8,0:0:0:0:
440,328,95755,1,2,2:0:0:0:
440,328,95848,1,0,2:0:0:0:
440,328,95941,6,0,P|384:320|288:344,1,150,4|0,0:2|2:0,0:0:0:0:
293,340,96314,6,0,P|213:332|149:356,1,150,8|0,0:0|2:0,0:0:0:0:
149,355,96687,6,0,P|93:355|45:347,1,100,8|0,0:0|2:0,0:0:0:0:
256,192,97246,12,0,99295,0:0:0:0:
80,256,99482,5,8,0:0:0:0:
80,256,99668,2,0,P|136:240|200:240,1,100,8|2,0:0|0:0,0:0:0:0:
208,248,99916,1,0,2:0:0:0:
232,264,99978,1,0,2:0:0:0:
256,288,100041,1,4,0:2:0:0:
152,112,110475,5,8,0:0:0:0:
352,48,110662,1,0,0:0:0:0:
152,112,110848,1,0,0:0:0:0:
392,160,111034,1,8,0:0:0:0:
392,160,111407,1,2,2:0:0:0:
344,248,111593,2,0,P|280:256|232:248,1,100,8|2,0:0|0:0,0:0:0:0:
224,232,111842,1,0,2:0:0:0:
208,208,111904,1,0,2:0:0:0:
200,176,111966,5,4,0:2:0:0:
200,176,112339,2,0,B|160:216|160:280|160:280|176:320,1,150,8|0,0:0|2:0,0:0:0:0:
192,360,112711,1,0,0:0:0:0:
56,304,112898,1,0,0:0:0:0:
272,272,113084,1,8,0:0:0:0:
88,320,113270,1,0,0:0:0:0:
128,120,113457,5,2,0:2:0:0:
240,160,113643,1,2,0:2:0:0:
272,168,113705,1,0,2:0:0:0:
304,168,113767,1,0,2:0:0:0:
336,160,113829,2,0,P|384:144|448:152,1,100,8|0,0:0|0:0,0:0:0:0:
432,147,114388,1,0,0:0:0:0:
360,304,114575,2,0,L|256:296,1,100,8|0,0:0|0:0,0:0:0:0:
80,328,114947,6,0,B|56:344|56:344|104:368|176:352,1,150,2|0,0:2|2:0,0:0:0:0:
260,296,115320,2,0,L|360:304,1,100,8|0,0:0|2:0,0:0:0:0:
512,312,115693,1,0,0:0:0:0:
456,168,115879,1,0,0:0:0:0:
408,376,116065,1,8,0:0:0:0:
320,232,116252,1,0,0:0:0:0:
232,352,116438,5,2,0:2:0:0:
104,336,116624,1,0,0:0:0:0:
74,318,116686,1,0,2:0:0:0:
50,294,116749,1,0,2:0:0:0:
40,264,116811,2,0,P|48:224|40:160,1,100,8|0,0:0|0:0,0:0:0:0:
41,165,117369,1,0,0:0:0:0:
216,56,117556,2,0,P|208:96|216:160,1,100,8|0,0:0|0:0,0:0:0:0:
456,272,117929,6,0,L|256:256,2,200,4|8|0,0:2|0:0|0:0,0:0:0:0:
376,352,118860,1,0,0:0:0:0:
288,224,119047,1,8,0:0:0:0:
392,120,119233,1,0,0:0:0:0:
416,312,119419,5,2,0:2:0:0:
272,352,119606,1,2,0:2:0:0:
248,336,119668,1,0,2:0:0:0:
216,328,119730,1,0,2:0:0:0:
184,328,119792,2,0,P|128:328|80:312,1,100,8|0,0:0|0:0,0:0:0:0:
360,272,120165,2,0,P|416:272|464:256,1,100,2|0,0:2|0:0,0:0:0:0:
152,232,120537,1,8,0:0:0:0:
392,176,120724,1,0,0:0:0:0:
256,40,120910,5,4,0:2:0:0:
80,152,121096,2,0,L|64:48,1,100,2|8,0:0|0:0,0:0:0:0:
336,152,121469,2,0,L|456:136,1,100,2|0,0:0|0:0,0:0:0:0:
384,272,121842,1,2,0:0:0:0:
384,272,122028,2,0,L|280:288,1,100,10|0,0:0|0:0,0:0:0:0:
160,248,122401,6,0,L|208:264,1,50,2|0,1:2|2:0,2:0:0:0:
72,256,122587,2,0,L|88:208,1,50,2|0,1:2|2:0,2:0:0:0:
56,336,122773,2,0,L|8:320,1,50,8|0,0:0|2:0,2:0:0:0:
144,336,122960,2,0,L|128:384,1,50,2|0,1:2|2:0,2:0:0:0:
144,336,123332,5,0,0:0:0:0:
72,256,123519,1,8,0:0:0:0:
96,160,123705,1,2,0:0:0:0:
128,160,123767,1,0,0:0:0:0:
160,168,123829,1,0,0:0:0:0:
192,184,123891,6,0,B|232:192|232:192|288:184|328:144,1,150,4|0,0:2|2:0,0:0:0:0:
400,224,124264,2,0,P|448:208|504:208,1,100,8|0,0:0|2:0,0:0:0:0:
464,320,124637,1,0,0:0:0:0:
312,296,124823,1,0,0:0:0:0:
480,344,125009,1,8,0:0:0:0:
224,368,125196,1,0,0:0:0:0:
327,144,125382,5,2,0:2:0:0:
352,272,125568,1,2,0:2:0:0:
348,280,125631,1,0,2:0:0:0:
344,288,125693,1,0,2:0:0:0:
340,296,125755,1,8,0:0:0:0:
336,304,125941,2,0,L|440:288,1,100
256,256,126314,1,0,0:2:0:0:
160,272,126500,2,0,L|56:288,1,100,8|0,0:0|0:0,0:0:0:0:
144,96,126873,6,0,B|176:72|176:72|184:184,1,150,2|0,0:2|2:0,0:0:0:0:
256,256,127245,2,0,L|264:384,1,100,8|0,0:0|2:0,0:0:0:0:
104,232,127618,1,0,0:0:0:0:
256,256,127804,1,0,0:0:0:0:
88,208,127991,1,8,0:0:0:0:
344,184,128177,1,0,0:0:0:0:
176,0,128363,5,2,0:2:0:0:
232,128,128550,1,2,0:2:0:0:
236,136,128613,1,0,2:0:0:0:
240,144,128675,1,0,2:0:0:0:
244,152,128737,1,8,0:0:0:0:
248,160,128923,2,0,L|144:144,1,100
288,304,129295,1,2,0:2:0:0:
328,112,129481,1,8,0:0:0:0:
96,216,129668,1,0,0:0:0:0:
328,352,129854,6,0,B|304:200|304:200|264:248,2,200,4|8|0,0:2|0:0|0:0,0:0:0:0:
208,304,130786,1,0,0:0:0:0:
176,152,130972,1,8,0:0:0:0:
400,40,131159,1,0,0:0:0:0:
432,192,131345,6,0,L|328:176,1,100,4|0,0:2|2:0,0:0:0:0:
304,184,131593,1,0,2:0:0:0:
272,192,131655,1,0,2:0:0:0:
240,200,131718,1,8,2:0:0:0:
320,272,131904,1,0,0:0:0:0:
352,80,132090,1,0,0:0:0:0:
304,296,132277,1,0,0:0:0:0:
368,64,132463,1,8,0:0:0:0:
288,320,132649,1,0,0:0:0:0:
392,48,132836,6,0,B|272:24|272:24|224:24|184:40,1,200,4|8,0:2|0:0,0:0:0:0:
208,256,133395,1,0,0:0:0:0:
208,256,133581,2,0,B|224:200|224:200|224:176|216:152,1,100
80,320,133954,2,0,L|232:296,1,150,8|0,0:0|2:0,0:0:0:0:
296,336,134326,6,0,L|376:344,1,50,2|0,0:2|2:0,0:0:0:0:
368,336,134513,2,0,L|448:344,1,50,2|0,0:2|2:0,0:0:0:0:
280,312,134699,6,0,L|360:320,1,50,8|0,0:0|2:0,0:0:0:0:
352,312,134886,2,0,L|432:320,1,50,2|0,0:2|2:0,0:0:0:0:
264,288,135072,5,8,0:0:0:0:
488,240,135258,1,8,0:0:0:0:
64,144,135444,1,8,0:0:0:0:
384,32,135631,1,8,0:0:0:0:
160,352,135817,5,4,0:2:0:0:
160,352,136376,1,0,0:0:0:0:
472,240,136562,2,0,L|304:232,1,150.000005722046
160,352,137121,1,0,0:0:0:0:
64,88,137308,6,0,P|104:80|144:80,1,75.0000028610231,0|0,0:0|2:0,0:0:0:0:
256,160,137680,1,0,0:0:0:0:
64,88,137867,1,0,0:0:0:0:
176,56,138053,2,0,L|168:160,1,75.0000028610231
240,352,138426,2,0,L|245:277,1,75.0000028610231,4|0,0:2|0:2,0:0:0:0:
456,72,138798,6,0,P|488:144|448:208,1,150.000005722046,4|0,0:2|0:0,0:0:0:0:
456,72,139357,1,0,0:0:0:0:
208,160,139544,2,0,L|392:144,1,150.000005722046
456,72,140103,1,0,0:1:0:0:
376,304,140289,6,0,L|384:216,1,75.0000028610231,0|0,0:1|2:1,0:1:0:0:
456,72,140662,1,0,0:0:0:0:
480,184,140848,1,0,0:0:0:0:
256,336,141034,1,0,0:0:0:0:
232,224,141220,1,0,0:0:0:0:
456,72,141407,2,0,P|472:104|480:152,1,75.0000028610231,12|0,0:2|0:0,0:0:0:0:
112,264,141780,6,0,P|72:216|112:144,1,150.000005722046,4|0,0:2|0:0,0:0:0:0:
112,264,142338,1,0,0:0:0:0:
320,352,142525,2,0,L|168:344,1,150.000005722046
296,168,143084,1,0,0:0:0:0:
408,288,143270,6,0,L|504:280,1,75.0000028610231
312,328,143643,1,8,0:0:0:0:
208,312,143829,2,0,P|200:240|200:160,1,150.000005722046
199,162,144388,2,0,P|200:112|184:64,1,75.0000028610231,12|0,0:2|0:0,0:0:0:0:
392,296,144761,6,0,B|344:304|344:304|288:280|288:280|240:288,1,150.000005722046,4|8,0:2|0:0,0:0:0:0:
408,192,145320,2,0,L|504:176,1,75.0000028610231,2|0,0:2|0:0,0:0:0:0:
152,232,145693,1,0,0:0:0:0:
288,48,145879,2,0,B|307:56|344:24|344:24|352:56|336:104,1,112.500004291535,8|0,0:0|2:0,0:0:0:0:
256,192,146252,5,4,0:2:0:0:
256,192,146298,12,2,147742,0:0:0:0:
80,288,148488,5,2,2:0:0:0:
256,256,148674,1,8,0:0:0:0:
64,304,148860,1,0,0:0:0:0:
240,272,149047,1,0,0:0:0:0:
392,208,149233,6,0,L|376:328,1,110.000003356934,4|0,0:2|0:0,0:0:0:0:
216,344,149606,1,8,0:0:0:0:
64,272,149792,1,0,0:0:0:0:
248,232,149978,1,2,0:2:0:0:
248,232,150165,1,2,0:2:0:0:
64,272,150351,2,0,P|56:208|88:96,1,165.000005035401,8|0,0:0|2:0,0:0:0:0:
152,72,150724,5,0,0:0:0:0:
248,232,150910,1,2,0:2:0:0:
24,224,151096,2,0,P|32:144|8:56,1,165.000005035401,8|0,0:0|0:0,0:0:0:0:
64,136,151469,2,0,L|16:384,1,220.000006713867,2|8,0:2|0:0,0:0:0:0:
488,176,152028,1,0,0:0:0:0:
312,104,152214,6,0,P|248:104|200:112,1,110.000003356934
80,240,152587,1,8,0:0:0:0:
232,336,152773,2,0,L|248:208,1,110.000003356934
264,80,153146,1,0,0:0:0:0:
232,336,153332,1,8,0:0:0:0:
144,144,153519,1,0,0:0:0:0:
232,336,153705,6,0,P|304:336|344:320,1,110.000003356934
24,312,154078,2,0,P|80:288|160:288,1,110.000003356934,8|0,0:0|0:0,0:0:0:0:
232,336,154357,1,0,0:0:0:0:
232,336,154450,2,0,L|248:280,1,55.0000016784668,0|0,0:0|2:0,0:0:0:0:
160,192,154637,2,0,L|176:136,1,55.0000016784668,0|0,0:0|2:0,0:0:0:0:
296,120,154823,2,0,L|312:64,1,55.0000016784668,0|0,0:0|2:0,0:0:0:0:
88,40,155009,1,0,0:0:0:0:
88,40,155196,6,0,B|64:80|64:80|184:56,1,165.000005035401,0|0,0:0|2:0,0:0:0:0:
160,112,155568,6,0,L|376:72,1,179.999994506836,4|0,0:2|2:0,0:0:0:0:
424,64,155941,1,0,0:0:0:0:
456,272,156127,1,0,0:0:0:0:
448,280,156221,1,0,0:0:0:0:
440,288,156314,1,8,0:0:0:0:
216,216,156500,1,0,0:0:0:0:
384,168,156686,6,0,B|352:344|352:344|336:328|328:280,1,220.000006713867,2|8,0:2|0:0,0:0:0:0:
106,220,157245,1,0,0:0:0:0:
106,220,157339,1,0,0:0:0:0:
106,220,157432,2,0,P|165:212|242:220,1,110.000003356934
96,32,157804,2,0,P|146:64|200:119,1,110.000003356934,8|0,0:0|0:0,0:0:0:0:
256,328,158177,5,4,0:2:0:0:
