osu file format v14

[General]
AudioFilename: venom.mp3
AudioLeadIn: 0
PreviewTime: 70390
Countdown: 0
SampleSet: Soft
StackLeniency: 0.4
Mode: 0
LetterboxInBreaks: 0
WidescreenStoryboard: 0

[Editor]
Bookmarks: 12041,13338,23717,34095,54852,64582,73014,73176,73501,73663,73987,74149,74474,74636,74960,75609,77933,103879,117136,137893,161284
DistanceSpacing: 1
BeatDivisor: 4
GridSize: 4
TimelineZoom: 1.2

[Metadata]
Title:Venom
TitleUnicode:Venom
Artist:Warriyo
ArtistUnicode:Warriyo
Creator:Yamicchi
Version:Easy
Source:
Tags:C00l cool Frontier drumstep oriental melodic
BeatmapID:1526847
BeatmapSetID:713362

[Difficulty]
HPDrainRate:3
CircleSize:2.5
OverallDifficulty:2
ApproachRate:4
SliderMultiplier:0.999999999999999
SliderTickRate:1

[Events]
//Background and Video events
0,0,"bg.jpg",0,0
//Break Periods
2,55104,58005
2,60293,63194
//Storyboard Layer 0 (Background)
//Storyboard Layer 1 (Fail)
//Storyboard Layer 2 (Pass)
//Storyboard Layer 3 (Foreground)
//Storyboard Sound Samples

[TimingPoints]
418,324.324324324324,4,2,2,50,1,0
13390,-100,4,2,2,60,0,0
23769,-100,4,2,2,60,0,0
34147,-100,4,2,1,70,0,0
36661,-100,4,2,1,5,0,0
36742,-100,4,2,1,70,0,0
39255,-100,4,2,1,5,0,0
39336,-100,4,2,1,70,0,0
41850,-100,4,2,1,5,0,0
41931,-100,4,2,1,70,0,0
44445,-100,4,2,1,5,0,0
44526,-100,4,2,1,70,0,0
47039,-100,4,2,1,5,0,0
47120,-100,4,2,1,70,0,0
49634,-100,4,2,1,5,0,0
49715,-100,4,2,1,70,0,0
51904,-100,4,2,1,5,0,0
51985,-100,4,2,1,70,0,0
52228,-100,4,2,1,5,0,0
52309,-100,4,2,1,70,0,0
54174,-100,4,2,1,5,0,0
54255,-100,4,2,1,70,0,0
54499,-100,4,2,1,5,0,0
54580,-100,4,2,1,70,0,0
54823,-100,4,2,1,5,0,0
54904,-100,4,2,1,70,0,0
70472,-100,4,2,1,75,0,0
71769,-100,4,2,1,75,0,0
73066,-100,4,2,1,80,0,0
75012,-100,4,2,10,70,0,0
75580,-100,4,2,1,5,0,0
75661,-100,4,2,1,80,0,1
76877,-100,4,2,1,5,0,1
76958,-100,4,2,1,80,0,1
77201,-100,4,2,1,5,0,1
77282,-100,4,2,1,80,0,1
77931,-100,4,2,1,80,0,1
78499,-100,4,2,1,5,0,1
78580,-100,4,2,1,80,0,1
78904,-100,4,2,1,80,0,1
79309,-100,4,2,1,5,0,1
79553,-100,4,2,1,80,0,1
80120,-100,4,2,1,5,0,1
80201,-100,4,2,1,80,0,1
80769,-100,4,2,1,5,0,1
80850,-100,4,2,1,80,0,1
82066,-100,4,2,1,5,0,1
82147,-100,4,2,1,80,0,1
82390,-100,4,2,1,5,0,1
82472,-100,4,2,1,80,0,1
83120,-100,4,2,1,80,0,1
83688,-100,4,2,1,5,0,1
83769,-100,4,2,1,80,0,1
84499,-100,4,2,1,5,0,1
84742,-100,4,2,1,80,0,1
85309,-100,4,2,1,5,0,1
85390,-100,4,2,1,80,0,1
85958,-100,4,2,1,5,0,1
86039,-100,4,2,1,80,0,1
87255,-100,4,2,1,5,0,1
87336,-100,4,2,1,80,0,1
87580,-100,4,2,1,5,0,1
87661,-100,4,2,1,80,0,1
88309,-100,4,2,1,80,0,1
88877,-100,4,2,1,5,0,1
88958,-100,4,2,1,80,0,1
89282,-100,4,2,1,80,0,1
89688,-100,4,2,1,5,0,1
89931,-100,4,2,1,80,0,1
90499,-100,4,2,1,5,0,1
90580,-100,4,2,1,80,0,1
91147,-100,4,2,1,5,0,1
91228,-100,4,2,1,80,0,1
92445,-100,4,2,1,5,0,1
92526,-100,4,2,1,80,0,1
92769,-100,4,2,1,5,0,1
92850,-100,4,2,1,80,0,1
93499,-100,4,2,1,80,0,1
94066,-100,4,2,1,5,0,1
94147,-100,4,2,1,80,0,1
94877,-100,4,2,1,5,0,1
95120,-100,4,2,1,80,0,1
96417,-100,4,2,1,70,0,0
97958,-100,4,2,1,5,0,0
98039,-100,4,2,1,70,0,0
98931,-100,4,2,1,5,0,0
99012,-100,4,2,1,70,0,0
99255,-100,4,2,1,5,0,0
99336,-100,4,2,1,70,0,0
101201,-100,4,2,1,5,0,0
101282,-100,4,2,1,70,0,0
101526,-100,4,2,1,5,0,0
101607,-100,4,2,1,70,0,0
103147,-100,4,2,1,5,0,0
103228,-100,4,2,1,70,0,0
104445,-100,4,2,1,5,0,0
104526,-100,4,2,1,70,0,0
105499,-100,4,2,1,70,0,0
106066,-100,4,2,1,5,0,0
106147,-100,4,2,1,70,0,0
106715,-100,4,2,1,5,0,0
106796,-100,4,2,1,70,0,0
108336,-100,4,2,1,5,0,0
108417,-100,4,2,1,70,0,0
109309,-100,4,2,1,5,0,0
109390,-100,4,2,1,70,0,0
109634,-100,4,2,1,5,0,0
109715,-100,4,2,1,70,0,0
111255,-100,4,2,1,5,0,0
111336,-100,4,2,1,70,0,0
113526,-100,4,2,1,5,0,0
113607,-100,4,2,1,70,0,0
114823,-100,4,2,1,5,0,0
114904,-100,4,2,1,70,0,0
115877,-100,4,2,1,70,0,0
117174,-100,4,2,1,80,0,1
117417,-100,4,2,1,5,0,1
117499,-100,4,2,1,80,0,1
118715,-100,4,2,1,5,0,1
118796,-100,4,2,1,80,0,1
119445,-100,4,2,1,80,0,1
120012,-100,4,2,1,5,0,1
120093,-100,4,2,1,80,0,1
122363,-100,4,2,1,80,0,1
122607,-100,4,2,1,5,0,1
122688,-100,4,2,1,80,0,1
123904,-100,4,2,1,5,0,1
123985,-100,4,2,1,80,0,1
124634,-100,4,2,1,80,0,1
125201,-100,4,2,1,5,0,1
125282,-100,4,2,1,80,0,1
126255,-100,4,2,1,80,0,1
127553,-100,4,2,1,80,0,1
127796,-100,4,2,1,5,0,1
127877,-100,4,2,1,80,0,1
129093,-100,4,2,1,5,0,1
129174,-100,4,2,1,80,0,1
129823,-100,4,2,1,80,0,1
130390,-100,4,2,1,5,0,1
130472,-100,4,2,1,80,0,1
132742,-100,4,2,1,80,0,1
132985,-100,4,2,1,5,0,1
133066,-100,4,2,1,80,0,1
134282,-100,4,2,1,5,0,1
134363,-100,4,2,1,80,0,1
135580,-100,4,2,1,5,0,1
135661,-100,4,2,1,80,0,1
137931,-100,4,2,1,70,0,0
138499,-100,4,2,1,5,0,0
138580,-100,4,2,1,70,0,0
139228,-100,4,2,1,70,0,0
139472,-100,4,2,1,5,0,0
139553,-100,4,2,1,70,0,0
140201,-100,4,2,1,70,0,0
140445,-100,4,2,1,5,0,0
140526,-100,4,2,1,70,0,0
140769,-100,4,2,1,5,0,0
140850,-100,4,2,1,70,0,0
141823,-100,4,2,1,70,0,0
142390,-100,4,2,1,5,0,0
142472,-100,4,2,1,70,0,0
143039,-100,4,2,1,5,0,0
143120,-100,4,2,1,70,0,0
143688,-100,4,2,1,5,0,0
143769,-100,4,2,1,70,0,0
144417,-100,4,2,1,70,0,0
144661,-100,4,2,1,5,0,0
144742,-100,4,2,1,70,0,0
145390,-100,4,2,1,70,0,0
145634,-100,4,2,1,5,0,0
145715,-100,4,2,1,70,0,0
145958,-100,4,2,1,5,0,0
146039,-100,4,2,1,70,0,0
147012,-100,4,2,1,70,0,0
147580,-100,4,2,1,5,0,0
147661,-100,4,2,1,70,0,0
148228,-100,4,2,1,5,0,0
148309,-100,4,2,1,70,0,0
148877,-100,4,2,1,5,0,0
148958,-100,4,2,1,70,0,0
149607,-100,4,2,1,70,0,0
149850,-100,4,2,1,5,0,0
149931,-100,4,2,1,70,0,0
150823,-100,4,2,1,5,0,0
150904,-100,4,2,1,70,0,0
151147,-100,4,2,1,5,0,0
151228,-100,4,2,1,70,0,0
152201,-100,4,2,1,70,0,0
152769,-100,4,2,1,5,0,0
152850,-100,4,2,1,70,0,0
153417,-100,4,2,1,5,0,0
153499,-100,4,2,1,70,0,0
154066,-100,4,2,1,5,0,0
154147,-100,4,2,1,70,0,0
154796,-100,4,2,1,70,0,0
155039,-100,4,2,1,5,0,0
155120,-100,4,2,1,70,0,0
156093,-100,4,2,1,70,0,0
156499,-100,4,2,1,5,0,0
156580,-100,4,2,1,70,0,0
157309,-100,4,2,1,5,0,0
157390,-100,4,2,1,70,0,0
158282,-100,4,2,1,5,0,0
158363,-100,4,2,1,70,0,0
158607,-100,4,2,1,5,0,0
158688,-100,4,2,1,70,0,0
159012,-100,4,2,1,65,0,0
159336,-100,4,2,1,60,0,0
159661,-100,4,2,1,55,0,0
159985,-100,4,2,1,50,0,0
160634,-100,4,2,1,45,0,0
161282,-100,4,2,1,40,0,0
161931,-100,4,2,1,35,0,0
162580,-100,4,2,1,30,0,0
162904,-100,4,2,1,25,0,0
163228,-100,4,2,1,20,0,0
163553,-100,4,2,1,10,0,0
163877,-100,4,2,1,5,0,0

[Colours]
Combo1 : 120,90,90
Combo2 : 194,37,37
Combo3 : 188,187,189
Combo4 : 200,170,49

[HitObjects]
256,80,13390,5,6,0:0:0:0:
400,220,14039,2,0,B|424:168|400:124|400:124|376:80|400:24,2,200,0|0|0,0:0|0:0|0:0,0:0:0:0:
256,80,15985,5,6,0:0:0:0:
112,220,16634,2,0,B|88:168|112:124|112:124|136:80|112:24,2,200,0|0|0,0:0|0:0|0:0,0:0:0:0:
256,360,18580,5,6,0:0:0:0:
352,184,19228,2,0,B|390:134|472:150|472:214|456:246|424:254|413:244,2,200,0|0|0,0:0|0:0|0:0,0:0:0:0:
256,360,21174,5,6,0:0:0:0:
160,184,21822,2,0,B|121:134|39:150|39:214|55:246|87:254|98:244,2,200,0|0|0,0:0|0:0|0:0,0:0:0:0:
304,320,23769,6,0,B|376:344|376:344|504:320,2,200,14|8|8,0:0|0:0|0:0,0:0:0:0:
208,292,25390,1,8,0:0:0:0:
256,96,26039,1,8,0:0:0:0:
188,168,26363,6,0,P|158:76|230:-1,1,200,14|8,0:0|0:0,0:0:0:0:
256,96,27336,1,8,0:0:0:0:
317,16,27661,2,0,P|348:56|352:124,1,99.9999999999999,8|8,0:0|0:0,0:0:0:0:
256,276,28634,1,8,0:0:0:0:
336,336,28958,6,0,B|408:368|472:316|472:316|464:288|432:268,2,200,14|8|8,0:0|0:0|0:0,0:0:0:0:
256,276,30580,1,8,0:0:0:0:
68,348,31228,1,8,0:0:0:0:
4,272,31553,6,0,B|0:196|0:196|20:152|20:152|16:68,1,200,14|8,0:0|0:0,0:0:0:0:
100,24,32526,1,8,0:0:0:0:
187,70,32850,2,0,L|296:64,1,99.9999999999999,8|8,0:0|0:0,0:0:0:0:
488,56,33823,1,8,0:0:0:0:
416,128,34147,6,0,B|424:212|424:212|444:240|444:240|452:332,2,200,0|8|0,3:0|0:1|0:0,0:0:0:0:
408,28,35769,1,0,3:0:0:0:
326,85,36093,1,8,0:1:0:0:
128,102,36742,2,0,P|69:178|101:268,2,200,0|8|0,3:0|0:1|0:0,0:0:0:0:
168,194,38363,1,0,3:0:0:0:
250,137,38688,1,8,0:1:0:0:
312,328,39336,6,0,B|444:348|444:348|512:328,2,200,0|8|0,3:0|0:1|0:0,0:0:0:0:
212,312,40958,1,0,3:0:0:0:
129,371,41282,2,0,P|112:332|121:264,1,99.9999999999999,8|0,0:1|0:0,0:0:0:0:
195,210,41931,2,0,B|327:230|327:230|395:210,1,200,0|8,3:0|0:1,0:0:0:0:
324,136,42904,2,0,B|192:116|192:116|128:134,1,200,0|0,3:0|3:0,0:0:0:0:
32,164,43877,1,8,0:1:0:0:
128,340,44526,6,0,B|176:360|224:336|224:336|272:312|320:336,2,200,0|8|0,3:0|0:1|0:0,0:0:0:0:
44,284,46147,1,0,3:0:0:0:
50,183,46472,1,8,0:1:0:0:
208,60,47120,2,0,B|256:40|304:64|304:64|352:88|400:64,2,200,0|8|0,3:0|0:1|0:0,0:0:0:0:
153,143,48742,1,0,3:0:0:0:
197,232,49066,1,8,0:1:0:0:
395,244,49715,6,0,B|468:253|500:186|500:186|480:144|424:149,2,200,0|8|0,3:0|0:1|0:0,0:0:0:0:
296,238,51336,1,0,3:0:0:0:
242,321,51661,2,0,P|192:332|143:317,1,99.9999999999999,8|0,0:1|3:0,0:0:0:0:
124,220,52309,2,0,B|111:79|111:79|75:135,1,200,0|8,3:0|0:1,0:0:0:0:
24,212,53282,1,0,3:0:0:0:
224,228,53931,2,0,L|212:108,2,99.9999999999999,8|0|0,0:1|3:0|3:0,0:0:0:0:
233,327,54904,1,4,3:2:0:0:
233,327,59445,6,0,L|223:227,1,99.9999999999999,0|0,0:0|0:0,0:0:0:0:
214,128,60093,1,4,0:2:0:0:
214,128,64634,6,0,L|224:228,1,99.9999999999999,0|0,0:0|0:0,0:0:0:0:
235,327,65282,5,4,3:2:0:0:
330,357,65607,2,0,P|313:263|225:227,1,200,8|8,0:1|0:1,0:0:0:0:
142,286,66580,1,0,3:0:0:0:
42,283,66904,2,0,B|47:200|47:200|64:171|64:171|72:79,1,200,8|8,0:1|0:1,0:0:0:0:
152,28,67877,5,0,3:0:0:0:
231,90,68201,2,0,B|280:112|328:88|328:88|384:64|432:88,1,200,8|8,0:1|0:1,0:0:0:0:
479,167,69174,1,0,3:0:0:0:
380,176,69499,2,0,B|377:315|377:315|339:266,1,200,8|8,0:1|0:1,0:0:0:0:
281,187,70472,6,0,P|242:246|261:326,2,150,0|0|8,3:0|0:0|0:1,0:0:0:0:
380,176,71769,2,0,P|450:180|510:123,2,150,0|0|8,3:0|0:0|0:1,0:0:0:0:
321,96,73066,6,0,B|272:76|220:112|220:112|132:36|24:88,1,300,8|8,0:1|0:1,0:0:0:0:
16,176,74363,2,0,P|100:224|212:204,1,200,0|4,3:0|0:0,0:0:0:0:
304,48,75661,6,0,B|360:32|360:32|504:56,2,200,4|8|0,3:2|0:1|3:0,0:0:0:0:
208,80,77282,1,2,0:1:0:0:
116,33,77607,2,0,P|105:78|128:144,1,99.9999999999999,10|2,0:1|0:1,0:0:0:0:
204,182,78255,1,2,3:1:0:0:
295,135,78580,2,0,P|340:144|280:232,1,200,0|2,0:0|0:1,0:0:0:0:
204,182,79553,1,4,3:2:0:0:
16,248,80201,1,8,0:1:0:0:
168,378,80850,6,0,B|164:296|164:296|180:264|180:264|176:168,2,200,4|8|0,3:2|0:1|3:0,0:0:0:0:
256,332,82472,1,2,0:1:0:0:
348,368,82796,2,0,P|356:328|328:264,1,99.9999999999999,10|2,0:1|0:1,0:0:0:0:
272,196,83445,1,2,3:1:0:0:
336,120,83769,2,0,B|472:91|472:91|424:148,1,200,2|2,0:1|0:1,0:0:0:0:
369,213,84742,1,4,3:2:0:0:
303,27,85390,1,8,0:1:0:0:
175,178,86039,6,0,B|124:188|100:240|100:240|60:192|0:204,2,200,4|8|0,3:2|0:1|3:0,0:0:0:0:
276,180,87661,1,2,0:1:0:0:
264,279,87985,2,0,P|288:316|352:340,1,99.9999999999999,10|2,0:1|0:1,0:0:0:0:
356,240,88634,1,2,0:0:0:0:
368,141,88958,2,0,B|392:116|432:104|472:92|512:160|476:204|440:200,1,200,0|2,0:1|0:1,0:0:0:0:
356,240,89931,1,4,3:2:0:0:
277,56,90580,1,8,0:1:0:0:
158,217,91228,6,0,B|248:212|248:212|264:224|264:224|353:220,2,200,4|8|0,3:2|0:1|3:0,0:0:0:0:
59,211,92850,1,2,0:1:0:0:
18,119,93174,2,0,P|66:111|113:127,1,99.9999999999999,10|2,0:1|0:1,0:0:0:0:
158,217,93823,1,2,3:1:0:0:
59,211,94147,2,0,P|106:302|207:304,1,200,2|2,0:1|0:1,0:0:0:0:
276,256,95120,6,0,B|284:368,1,99.9999999999999,2|2,3:1|0:1,0:0:0:0:
383,357,95769,2,0,B|375:245,1,99.9999999999999,8|0,0:1|0:0,0:0:0:0:
327,170,96417,6,0,B|288:144|214:138|184:173|215:232|144:249|72:235|35:193|25:126|32:88|76:24|148:26|190:62,1,499.999999999999,4|2,3:2|0:0,0:0:0:0:
272,40,98363,2,0,P|300:52|376:48,1,99.9999999999999,10|2,0:1|0:1,0:0:0:0:
464,8,99012,6,0,B|481:66|456:104|456:104|480:136|480:136|416:200|464:304,1,300,2|2,3:1|0:1,0:0:0:0:
504,368,100309,2,0,B|440:376|440:376|408:360|408:360|296:368,1,200,4|8,3:2|0:1,0:0:0:0:
232,304,101282,1,0,0:0:0:0:
160,376,101607,6,0,B|111:324|124:239|194:209|194:209|96:152|8:229|8:229|-8:176|16:128,1,499.999999999999,4|2,3:2|0:1,0:0:0:0:
69,51,103553,2,0,P|117:27|181:27,1,99.9999999999999,10|2,0:1|0:1,0:0:0:0:
256,60,104201,1,2,3:1:0:0:
344,8,104526,2,0,B|369:60|346:105|346:105|324:152|352:212,1,200,2|2,0:0|0:1,0:0:0:0:
400,284,105499,1,4,3:2:0:0:
220,372,106147,1,8,0:1:0:0:
53,260,106796,6,0,B|32:144|32:144|100:44|100:44|152:316,1,499.999999999999,4|2,3:2|0:0,0:0:0:0:
220,372,108742,2,0,P|244:332|244:268,1,99.9999999999999,10|2,0:1|0:1,0:0:0:0:
228,180,109390,2,0,B|201:33|201:33|288:56|288:56|304:132,1,300,2|2,3:1|0:1,0:0:0:0:
320,212,110688,1,4,3:2:0:0:
508,140,111336,1,8,0:1:0:0:
476,338,111985,6,0,B|400:368|328:304|328:304|280:328|272:376|272:376|208:320|120:344,1,400,4|0,3:2|3:0,0:0:0:0:
40,368,113607,1,2,0:1:0:0:
0,272,113931,2,0,L|8:168,1,99.9999999999999,10|2,0:1|3:1,0:0:0:0:
16,72,114580,1,2,3:1:0:0:
99,129,114904,2,0,L|160:120,1,50,8|0,0:1|3:0,0:0:0:0:
240,160,115390,2,0,L|300:150,1,50,8|0,0:1|3:0,0:0:0:0:
384,184,115877,2,0,L|488:168,1,99.9999999999999,8|0,0:1|3:0,0:0:0:0:
480,272,116526,2,0,L|376:288,1,99.9999999999999,8|0,0:1|0:0,0:0:0:0:
292,233,117174,5,4,3:2:0:0:
200,281,117499,1,8,0:1:0:0:
112,224,117823,2,0,P|97:266|112:336,2,99.9999999999999,0|8|0,0:0|0:1|3:0,0:0:0:0:
204,176,118796,2,0,L|310:181,2,99.9999999999999,10|2|10,0:1|0:1|0:1,0:0:0:0:
117,121,119769,1,2,3:1:0:0:
26,166,120093,2,0,P|-8:264|8:368,1,200,10|10,0:1|0:1,0:0:0:0:
96,320,121066,2,0,P|144:312|196:312,1,99.9999999999999,2|8,3:1|0:1,0:0:0:0:
289,347,121715,2,0,P|337:355|389:355,1,99.9999999999999,2|8,0:0|0:1,0:0:0:0:
464,288,122363,5,4,3:2:0:0:
488,192,122688,1,8,0:1:0:0:
412,127,123012,2,0,P|389:170|393:220,2,99.9999999999999,0|8|0,0:0|0:1|3:0,0:0:0:0:
506,93,123985,2,0,P|479:51|435:29,2,99.9999999999999,10|2|10,0:1|0:1|0:1,0:0:0:0:
488,192,124958,1,2,3:1:0:0:
392,219,125282,2,0,B|327:229|327:229|262:213|262:213|190:229,1,200,10|10,0:1|0:1,0:0:0:0:
111,280,126255,2,0,P|96:231|109:179,1,99.9999999999999,2|10,3:1|0:1,0:0:0:0:
189,128,126904,2,0,L|292:104,1,99.9999999999999,2|10,0:1|0:1,0:0:0:0:
384,84,127553,5,4,3:2:0:0:
452,158,127877,1,8,0:1:0:0:
421,253,128201,2,0,L|433:360,2,99.9999999999999,0|8|0,0:0|0:1|3:0,0:0:0:0:
353,179,129174,2,0,L|365:72,2,99.9999999999999,10|2|10,0:1|0:1|0:1,0:0:0:0:
322,274,130147,1,2,3:1:0:0:
255,199,130472,2,0,P|157:212|57:268,1,200,8|10,0:1|0:1,0:0:0:0:
130,339,131445,2,0,P|186:331|242:311,1,99.9999999999999,2|8,3:1|0:1,0:0:0:0:
323,289,132093,2,0,P|379:297|435:317,1,99.9999999999999,2|8,0:1|0:1,0:0:0:0:
480,228,132742,6,0,P|516:276|496:376,2,150,4|2|10,3:2|0:1|0:1,0:0:0:0:
380,208,134039,1,2,3:1:0:0:
323,289,134363,2,0,L|220:296,2,99.9999999999999,10|2|10,0:1|0:1|0:1,0:0:0:0:
380,208,135336,5,4,3:2:0:0:
434,123,135661,2,0,P|412:111|387:106,1,50,10|2,0:1|3:1,0:0:0:0:
299,153,136147,2,0,P|286:174|281:198,1,50,10|2,0:1|3:1,0:0:0:0:
323,289,136634,2,0,P|361:306|421:298,1,99.9999999999999,2|2,3:1|3:1,0:0:0:0:
472,210,137282,2,0,P|467:168|430:120,1,99.9999999999999,10|2,0:1|3:1,0:0:0:0:
348,68,137931,5,4,3:2:0:0:
210,213,138580,1,8,0:1:0:0:
155,21,139228,1,0,3:0:0:0:
251,42,139553,2,0,L|284:157,2,99.9999999999999,0|8|0,0:0|0:1|0:0,0:0:0:0:
155,21,140526,5,0,3:0:0:0:
17,165,141174,1,8,0:1:0:0:
211,213,141823,2,0,P|265:155|248:36,2,200,4|8|4,3:2|0:1|3:2,0:0:0:0:
73,358,143769,5,8,0:1:0:0:
16,164,144417,1,0,3:0:0:0:
112,185,144742,2,0,L|145:300,2,99.9999999999999,0|8|0,0:0|0:1|0:0,0:0:0:0:
211,213,145715,5,0,3:0:0:0:
350,68,146363,1,8,0:1:0:0:
406,260,147012,2,0,B|416:316|384:356|384:356|320:360|288:312,2,200,4|8|4,3:2|0:1|3:2,0:0:0:0:
350,68,148958,5,8,0:1:0:0:
211,213,149606,1,0,3:0:0:0:
180,119,149931,2,0,L|63:90,2,99.9999999999999,0|8|0,0:0|0:1|0:0,0:0:0:0:
277,140,150904,5,0,3:0:0:0:
138,285,151553,1,8,0:1:0:0:
334,333,152201,2,0,B|356:268|356:268|328:128,2,200,4|8|4,3:2|0:1|3:2,0:0:0:0:
138,285,154147,6,0,P|89:264|38:272,1,99.9999999999999,8|0,0:1|0:0,0:0:0:0:
77,365,154796,1,4,3:2:0:0:
177,376,155120,2,0,P|232:314|203:208,1,200,8|8,0:1|0:1,0:0:0:0:
106,188,156093,6,0,B|85:135|85:135|108:40,1,150,4|8,3:2|0:1,0:0:0:0:
154,26,156742,2,0,P|209:21|256:49,1,99.9999999999999,0|8,3:0|0:1,0:0:0:0:
345,59,157390,2,0,P|321:109|273:136,1,99.9999999999999,4|8,3:2|0:1,0:0:0:0:
184,119,158039,1,0,3:2:0:0:
89,99,158363,1,0,3:0:0:0:
24,172,158688,5,4,3:2:0:0:
256,192,159012,12,0,163877,0:0:0:0:
