osu file format v14

[General]
AudioFilename: audio.mp3
AudioLeadIn: 0
PreviewTime: -1
Countdown: 0
SampleSet: Normal
StackLeniency: 0.7
Mode: 3
LetterboxInBreaks: 0
SpecialStyle: 0
WidescreenStoryboard: 0

[Editor]
DistanceSpacing: 0.6
BeatDivisor: 8
GridSize: 16
TimelineZoom: 1

[Metadata]
Title:Cherry Pie
TitleUnicode:Cherry Pie
Artist:Warrent
ArtistUnicode:Warrent
Creator:mvcury
Version:Hard
Source:
Tags:
BeatmapID:3356770
BeatmapSetID:1644473

[Difficulty]
HPDrainRate:5
CircleSize:4
OverallDifficulty:5
ApproachRate:5
SliderMultiplier:1.4
SliderTickRate:1

[Events]
//Background and Video events
0,0,"fc7.jpg",0,0
//Break Periods
//Storyboard Layer 0 (Background)
//Storyboard Layer 1 (Fail)
//Storyboard Layer 2 (Pass)
//Storyboard Layer 3 (Foreground)
//Storyboard Layer 4 (Overlay)
//Storyboard Sound Samples

[TimingPoints]
12997.8533491108,337.647720877884,4,1,0,100,1,0

[HitObjects]
448,192,4767,128,0,7134:0:0:0:0:
192,192,6796,128,0,7923:0:0:0:0:
320,192,7585,128,0,8374:0:0:0:0:
64,192,8374,128,0,8712:0:0:0:0:
448,192,8825,1,0,0:0:0:0:
320,192,9051,1,0,0:0:0:0:
64,192,9502,1,0,0:0:0:0:
192,192,9502,1,0,0:0:0:0:
320,192,10065,1,0,0:0:0:0:
448,192,10178,1,0,0:0:0:0:
320,192,10291,1,0,0:0:0:0:
192,192,10404,1,0,0:0:0:0:
320,192,10516,1,0,0:0:0:0:
192,192,10770,1,0,0:0:0:0:
320,192,10770,1,0,0:0:0:0:
64,192,10855,128,0,11446:0:0:0:0:
448,192,11024,128,0,11700:0:0:0:0:
192,192,11531,128,0,11785:0:0:0:0:
320,192,11531,128,0,11785:0:0:0:0:
64,192,11869,1,0,0:0:0:0:
192,192,11954,1,0,0:0:0:0:
64,192,12038,1,0,0:0:0:0:
320,192,12207,1,0,0:0:0:0:
448,192,12207,128,0,12884:0:0:0:0:
64,192,12546,1,0,0:0:0:0:
192,192,12630,1,0,0:0:0:0:
64,192,12715,1,0,0:0:0:0:
320,192,12884,1,0,0:0:0:0:
64,192,12968,128,0,13560:0:0:0:0:
320,192,13560,128,0,14152:0:0:0:0:
192,192,14321,1,0,0:0:0:0:
320,192,14406,1,0,0:0:0:0:
448,192,14490,1,0,0:0:0:0:
320,192,14575,1,0,0:0:0:0:
192,192,14660,1,0,0:0:0:0:
64,192,14744,1,0,0:0:0:0:
192,192,14829,1,0,0:0:0:0:
320,192,14913,1,0,0:0:0:0:
448,192,14998,1,0,0:0:0:0:
64,192,14998,1,0,0:0:0:0:
192,192,14998,128,0,15167:0:0:0:0:
192,192,15336,1,0,0:0:0:0:
320,192,15420,1,0,0:0:0:0:
192,192,15505,1,0,0:0:0:0:
64,192,15505,1,0,0:0:0:0:
448,192,15505,128,0,16181:0:0:0:0:
64,192,15674,1,0,0:0:0:0:
192,192,15759,1,0,0:0:0:0:
320,192,15928,1,0,0:0:0:0:
192,192,16097,1,0,0:0:0:0:
64,192,16181,1,0,0:0:0:0:
320,192,16181,1,0,0:0:0:0:
192,192,16266,1,0,0:0:0:0:
64,192,16351,1,0,0:0:0:0:
320,192,16435,1,0,0:0:0:0:
192,192,16520,1,0,0:0:0:0:
448,192,16520,1,0,0:0:0:0:
320,192,16604,1,0,0:0:0:0:
192,192,16689,1,0,0:0:0:0:
64,192,16773,1,0,0:0:0:0:
192,192,16858,1,0,0:0:0:0:
448,192,16858,1,0,0:0:0:0:
320,192,16858,128,0,17619:0:0:0:0:
64,192,17619,128,0,18295:0:0:0:0:
192,192,17619,1,0,0:0:0:0:
448,192,18295,128,0,18549:0:0:0:0:
192,192,18295,1,0,0:0:0:0:
320,192,18549,128,0,18718:0:0:0:0:
448,192,18803,1,0,0:0:0:0:
64,192,18887,128,0,19310:0:0:0:0:
192,192,18887,1,0,0:0:0:0:
448,192,19310,1,0,0:0:0:0:
320,192,19310,1,0,0:0:0:0:
192,192,19564,1,0,0:0:0:0:
64,192,19648,1,0,0:0:0:0:
320,192,19648,1,0,0:0:0:0:
192,192,19733,1,0,0:0:0:0:
320,192,19817,1,0,0:0:0:0:
448,192,19902,1,0,0:0:0:0:
64,192,19986,1,0,0:0:0:0:
192,192,20071,1,0,0:0:0:0:
448,192,20325,1,0,0:0:0:0:
320,192,20325,1,0,0:0:0:0:
64,192,20325,1,0,0:0:0:0:
192,192,20494,1,0,0:0:0:0:
192,192,20663,1,0,0:0:0:0:
448,192,20663,1,0,0:0:0:0:
64,192,21001,128,0,21255:0:0:0:0:
448,192,21001,1,0,0:0:0:0:
448,192,21170,1,0,0:0:0:0:
320,192,21255,128,0,21508:0:0:0:0:
192,192,21593,1,0,0:0:0:0:
64,192,21678,128,0,22269:0:0:0:0:
192,192,21762,1,0,0:0:0:0:
320,192,22016,1,0,0:0:0:0:
448,192,22185,1,0,0:0:0:0:
192,192,22269,1,0,0:0:0:0:
320,192,22269,1,0,0:0:0:0:
64,192,22523,1,0,0:0:0:0:
192,192,22692,1,0,0:0:0:0:
320,192,22777,1,0,0:0:0:0:
448,192,22861,1,0,0:0:0:0:
320,192,22946,1,0,0:0:0:0:
192,192,23030,128,0,23284:0:0:0:0:
64,192,23030,128,0,23284:0:0:0:0:
448,192,23284,1,0,0:0:0:0:
320,192,23453,1,0,0:0:0:0:
64,192,23538,1,0,0:0:0:0:
192,192,23707,1,0,0:0:0:0:
320,192,23707,1,0,0:0:0:0:
320,192,23876,1,0,0:0:0:0:
448,192,23961,128,0,24383:0:0:0:0:
192,192,24383,1,0,0:0:0:0:
64,192,24383,1,0,0:0:0:0:
320,192,24468,1,0,0:0:0:0:
448,192,24722,1,0,0:0:0:0:
320,192,24806,1,0,0:0:0:0:
64,192,24975,1,0,0:0:0:0:
320,192,25060,1,0,0:0:0:0:
192,192,25060,1,0,0:0:0:0:
448,192,25144,128,0,25736:0:0:0:0:
64,192,25229,1,0,0:0:0:0:
320,192,25313,1,0,0:0:0:0:
192,192,25313,1,0,0:0:0:0:
320,192,25483,1,0,0:0:0:0:
192,192,25567,1,0,0:0:0:0:
64,192,25736,1,0,0:0:0:0:
192,192,25736,1,0,0:0:0:0:
192,192,26074,128,0,26751:0:0:0:0:
320,192,26074,128,0,26751:0:0:0:0:
448,192,26243,1,0,0:0:0:0:
64,192,26413,1,0,0:0:0:0:
448,192,26582,128,0,27089:0:0:0:0:
64,192,26751,1,0,0:0:0:0:
320,192,26920,1,0,0:0:0:0:
64,192,27174,1,0,0:0:0:0:
192,192,27174,1,0,0:0:0:0:
320,192,27258,1,0,0:0:0:0:
64,192,27765,1,0,0:0:0:0:
192,192,27850,1,0,0:0:0:0:
448,192,27935,1,0,0:0:0:0:
192,192,28019,1,0,0:0:0:0:
320,192,28104,1,0,0:0:0:0:
64,192,28104,1,0,0:0:0:0:
192,192,28188,1,0,0:0:0:0:
448,192,28188,1,0,0:0:0:0:
320,192,28273,1,0,0:0:0:0:
64,192,28357,1,0,0:0:0:0:
448,192,28357,1,0,0:0:0:0:
192,192,28526,1,0,0:0:0:0:
320,192,28611,1,0,0:0:0:0:
64,192,28611,1,0,0:0:0:0:
448,192,28696,1,0,0:0:0:0:
192,192,28696,1,0,0:0:0:0:
320,192,28780,1,0,0:0:0:0:
64,192,28865,1,0,0:0:0:0:
64,192,28949,1,0,0:0:0:0:
192,192,29034,1,0,0:0:0:0:
320,192,29034,1,0,0:0:0:0:
448,192,29118,1,0,0:0:0:0:
320,192,29287,1,0,0:0:0:0:
64,192,29287,1,0,0:0:0:0:
192,192,29372,1,0,0:0:0:0:
64,192,29457,1,0,0:0:0:0:
320,192,29541,1,0,0:0:0:0:
448,192,29541,1,0,0:0:0:0:
192,192,29626,1,0,0:0:0:0:
448,192,29710,1,0,0:0:0:0:
192,192,29795,1,0,0:0:0:0:
320,192,29795,1,0,0:0:0:0:
64,192,29795,1,0,0:0:0:0:
448,192,29879,128,0,30471:0:0:0:0:
320,192,30471,1,0,0:0:0:0:
192,192,30471,1,0,0:0:0:0:
192,192,30640,1,0,0:0:0:0:
64,192,30640,1,0,0:0:0:0:
448,192,30725,1,0,0:0:0:0:
192,192,30809,1,0,0:0:0:0:
320,192,30809,1,0,0:0:0:0:
64,192,30894,1,0,0:0:0:0:
320,192,30979,1,0,0:0:0:0:
192,192,31063,1,0,0:0:0:0:
448,192,31063,1,0,0:0:0:0:
64,192,31063,1,0,0:0:0:0:
320,192,31148,1,0,0:0:0:0:
192,192,31232,1,0,0:0:0:0:
64,192,31317,1,0,0:0:0:0:
448,192,31317,1,0,0:0:0:0:
192,192,31401,1,0,0:0:0:0:
64,192,31486,1,0,0:0:0:0:
320,192,31486,1,0,0:0:0:0:
192,192,31570,1,0,0:0:0:0:
448,192,31570,1,0,0:0:0:0:
448,192,31740,1,0,0:0:0:0:
64,192,31740,1,0,0:0:0:0:
320,192,31824,1,0,0:0:0:0:
192,192,31824,1,0,0:0:0:0:
320,192,31993,1,0,0:0:0:0:
64,192,31993,1,0,0:0:0:0:
448,192,32078,1,0,0:0:0:0:
192,192,32078,1,0,0:0:0:0:
320,192,32162,1,0,0:0:0:0:
64,192,32162,1,0,0:0:0:0:
192,192,32247,1,0,0:0:0:0:
320,192,32416,1,0,0:0:0:0:
64,192,32416,1,0,0:0:0:0:
192,192,32501,128,0,32839:0:0:0:0:
448,192,32501,128,0,33092:0:0:0:0:
320,192,33092,1,0,0:0:0:0:
192,192,33177,1,0,0:0:0:0:
64,192,33177,1,0,0:0:0:0:
320,192,33262,1,0,0:0:0:0:
448,192,33346,1,0,0:0:0:0:
192,192,33346,1,0,0:0:0:0:
320,192,33431,1,0,0:0:0:0:
64,192,33515,1,0,0:0:0:0:
448,192,33515,1,0,0:0:0:0:
192,192,33600,1,0,0:0:0:0:
64,192,33684,1,0,0:0:0:0:
320,192,33684,1,0,0:0:0:0:
192,192,33769,1,0,0:0:0:0:
320,192,33853,1,0,0:0:0:0:
448,192,33853,1,0,0:0:0:0:
64,192,33853,1,0,0:0:0:0:
192,192,33938,1,0,0:0:0:0:
448,192,34023,1,0,0:0:0:0:
64,192,34107,1,0,0:0:0:0:
192,192,34107,1,0,0:0:0:0:
320,192,34276,1,0,0:0:0:0:
192,192,34276,1,0,0:0:0:0:
448,192,34361,1,0,0:0:0:0:
64,192,34361,1,0,0:0:0:0:
192,192,34445,1,0,0:0:0:0:
320,192,34530,1,0,0:0:0:0:
64,192,34530,1,0,0:0:0:0:
192,192,34614,1,0,0:0:0:0:
448,192,34614,1,0,0:0:0:0:
320,192,34699,1,0,0:0:0:0:
448,192,34784,1,0,0:0:0:0:
320,192,34868,128,0,35206:0:0:0:0:
192,192,34868,1,0,0:0:0:0:
64,192,34953,1,0,0:0:0:0:
192,192,35037,1,0,0:0:0:0:
448,192,35122,1,0,0:0:0:0:
64,192,35206,1,0,0:0:0:0:
448,192,35291,128,0,35883:0:0:0:0:
192,192,35798,1,0,0:0:0:0:
64,192,35883,1,0,0:0:0:0:
192,192,35967,1,0,0:0:0:0:
320,192,36052,1,0,0:0:0:0:
448,192,36136,1,0,0:0:0:0:
64,192,36136,1,0,0:0:0:0:
192,192,36221,1,0,0:0:0:0:
320,192,36221,1,0,0:0:0:0:
64,192,36305,1,0,0:0:0:0:
192,192,36390,1,0,0:0:0:0:
64,192,36475,1,0,0:0:0:0:
448,192,36475,1,0,0:0:0:0:
320,192,36559,1,0,0:0:0:0:
448,192,36644,1,0,0:0:0:0:
192,192,36644,128,0,37236:0:0:0:0:
64,192,36728,1,0,0:0:0:0:
320,192,36813,1,0,0:0:0:0:
64,192,36897,1,0,0:0:0:0:
448,192,36897,1,0,0:0:0:0:
320,192,36982,1,0,0:0:0:0:
64,192,37066,1,0,0:0:0:0:
448,192,37066,1,0,0:0:0:0:
64,192,37236,1,0,0:0:0:0:
320,192,37320,1,0,0:0:0:0:
448,192,37405,1,0,0:0:0:0:
320,192,37489,1,0,0:0:0:0:
192,192,37574,1,0,0:0:0:0:
64,192,37658,1,0,0:0:0:0:
320,192,37658,1,0,0:0:0:0:
448,192,37658,1,0,0:0:0:0:
192,192,37743,1,0,0:0:0:0:
320,192,37827,1,0,0:0:0:0:
64,192,37827,1,0,0:0:0:0:
448,192,37912,128,0,38588:0:0:0:0:
192,192,37997,1,0,0:0:0:0:
320,192,37997,1,0,0:0:0:0:
64,192,38166,1,0,0:0:0:0:
192,192,38166,1,0,0:0:0:0:
192,192,38335,1,0,0:0:0:0:
320,192,38335,1,0,0:0:0:0:
320,192,38419,1,0,0:0:0:0:
64,192,38504,1,0,0:0:0:0:
192,192,38588,1,0,0:0:0:0:
320,192,38588,1,0,0:0:0:0:
64,192,38673,1,0,0:0:0:0:
192,192,38758,1,0,0:0:0:0:
448,192,38758,1,0,0:0:0:0:
320,192,38842,1,0,0:0:0:0:
64,192,38927,1,0,0:0:0:0:
448,192,38927,1,0,0:0:0:0:
192,192,39011,1,0,0:0:0:0:
320,192,39096,1,0,0:0:0:0:
448,192,39180,1,0,0:0:0:0:
192,192,39265,1,0,0:0:0:0:
320,192,39265,1,0,0:0:0:0:
64,192,39434,1,0,0:0:0:0:
192,192,39434,1,0,0:0:0:0:
448,192,39519,1,0,0:0:0:0:
320,192,39603,1,0,0:0:0:0:
64,192,39688,1,0,0:0:0:0:
192,192,39772,1,0,0:0:0:0:
448,192,39857,1,0,0:0:0:0:
320,192,39941,1,0,0:0:0:0:
64,192,39941,1,0,0:0:0:0:
192,192,40026,1,0,0:0:0:0:
448,192,40110,1,0,0:0:0:0:
192,192,40195,1,0,0:0:0:0:
320,192,40280,1,0,0:0:0:0:
448,192,40364,1,0,0:0:0:0:
192,192,40449,1,0,0:0:0:0:
64,192,40533,1,0,0:0:0:0:
320,192,40533,1,0,0:0:0:0:
192,192,40618,1,0,0:0:0:0:
320,192,40702,1,0,0:0:0:0:
64,192,40702,1,0,0:0:0:0:
448,192,40702,128,0,41294:0:0:0:0:
192,192,40871,1,0,0:0:0:0:
320,192,40956,1,0,0:0:0:0:
192,192,41125,1,0,0:0:0:0:
320,192,41210,1,0,0:0:0:0:
64,192,41294,1,0,0:0:0:0:
192,192,41294,1,0,0:0:0:0:
448,192,41379,1,0,0:0:0:0:
320,192,41463,1,0,0:0:0:0:
448,192,41548,1,0,0:0:0:0:
320,192,41632,1,0,0:0:0:0:
192,192,41632,1,0,0:0:0:0:
64,192,41717,1,0,0:0:0:0:
192,192,41802,1,0,0:0:0:0:
448,192,41886,1,0,0:0:0:0:
320,192,41971,1,0,0:0:0:0:
448,192,42055,1,0,0:0:0:0:
192,192,42055,1,0,0:0:0:0:
320,192,42140,1,0,0:0:0:0:
64,192,42224,1,0,0:0:0:0:
192,192,42309,1,0,0:0:0:0:
64,192,42393,1,0,0:0:0:0:
192,192,42478,1,0,0:0:0:0:
448,192,42563,1,0,0:0:0:0:
320,192,42563,1,0,0:0:0:0:
64,192,42647,1,0,0:0:0:0:
320,192,42816,1,0,0:0:0:0:
448,192,42816,1,0,0:0:0:0:
192,192,42816,1,0,0:0:0:0:
64,192,42901,1,0,0:0:0:0:
192,192,42985,1,0,0:0:0:0:
320,192,42985,1,0,0:0:0:0:
448,192,43070,1,0,0:0:0:0:
64,192,43154,1,0,0:0:0:0:
192,192,43154,1,0,0:0:0:0:
320,192,43324,1,0,0:0:0:0:
192,192,43324,1,0,0:0:0:0:
448,192,43408,128,0,43915:0:0:0:0:
64,192,43493,1,0,0:0:0:0:
192,192,43577,1,0,0:0:0:0:
320,192,43662,1,0,0:0:0:0:
64,192,43746,1,0,0:0:0:0:
192,192,43831,1,0,0:0:0:0:
64,192,44000,1,0,0:0:0:0:
192,192,44000,1,0,0:0:0:0:
320,192,44085,1,0,0:0:0:0:
448,192,44169,1,0,0:0:0:0:
192,192,44169,1,0,0:0:0:0:
320,192,44254,1,0,0:0:0:0:
192,192,44338,1,0,0:0:0:0:
64,192,44423,1,0,0:0:0:0:
448,192,44507,1,0,0:0:0:0:
64,192,44592,1,0,0:0:0:0:
192,192,44676,1,0,0:0:0:0:
320,192,44676,1,0,0:0:0:0:
64,192,44930,1,0,0:0:0:0:
64,192,45099,1,0,0:0:0:0:
192,192,45184,1,0,0:0:0:0:
320,192,45268,1,0,0:0:0:0:
448,192,45353,1,0,0:0:0:0:
192,192,45353,128,0,45607:0:0:0:0:
320,192,45437,1,0,0:0:0:0:
448,192,45522,1,0,0:0:0:0:
320,192,45607,1,0,0:0:0:0:
64,192,45607,128,0,45776:0:0:0:0:
192,192,45776,128,0,45945:0:0:0:0:
448,192,45776,1,0,0:0:0:0:
64,192,45945,128,0,46198:0:0:0:0:
448,192,45945,1,0,0:0:0:0:
320,192,46029,1,0,0:0:0:0:
192,192,46198,128,0,46706:0:0:0:0:
64,192,46621,1,0,0:0:0:0:
320,192,46706,1,0,0:0:0:0:
448,192,46790,1,0,0:0:0:0:
192,192,46875,1,0,0:0:0:0:
64,192,46959,1,0,0:0:0:0:
320,192,46959,1,0,0:0:0:0:
192,192,47044,1,0,0:0:0:0:
320,192,47128,1,0,0:0:0:0:
192,192,47213,1,0,0:0:0:0:
64,192,47298,1,0,0:0:0:0:
192,192,47382,1,0,0:0:0:0:
448,192,47382,1,0,0:0:0:0:
64,192,47467,1,0,0:0:0:0:
192,192,47551,1,0,0:0:0:0:
320,192,47551,1,0,0:0:0:0:
448,192,47720,1,0,0:0:0:0:
448,192,47805,1,0,0:0:0:0:
320,192,47889,1,0,0:0:0:0:
192,192,47889,1,0,0:0:0:0:
64,192,47889,1,0,0:0:0:0:
448,192,48059,1,0,0:0:0:0:
320,192,48143,1,0,0:0:0:0:
192,192,48143,128,0,48481:0:0:0:0:
64,192,48397,1,0,0:0:0:0:
320,192,48481,128,0,48735:0:0:0:0:
448,192,48650,1,0,0:0:0:0:
192,192,48735,1,0,0:0:0:0:
64,192,48735,128,0,49073:0:0:0:0:
192,192,49158,1,0,0:0:0:0:
320,192,49242,1,0,0:0:0:0:
448,192,49327,1,0,0:0:0:0:
64,192,49327,1,0,0:0:0:0:
320,192,49411,1,0,0:0:0:0:
192,192,49496,1,0,0:0:0:0:
64,192,49581,1,0,0:0:0:0:
448,192,49581,1,0,0:0:0:0:
192,192,49665,1,0,0:0:0:0:
320,192,49750,1,0,0:0:0:0:
448,192,49834,1,0,0:0:0:0:
64,192,50088,1,0,0:0:0:0:
192,192,50172,1,0,0:0:0:0:
448,192,50257,1,0,0:0:0:0:
192,192,50342,1,0,0:0:0:0:
320,192,50426,1,0,0:0:0:0:
64,192,50426,1,0,0:0:0:0:
192,192,50511,1,0,0:0:0:0:
448,192,50511,1,0,0:0:0:0:
320,192,50595,1,0,0:0:0:0:
64,192,50680,1,0,0:0:0:0:
448,192,50680,1,0,0:0:0:0:
192,192,50849,1,0,0:0:0:0:
320,192,50933,1,0,0:0:0:0:
64,192,50933,1,0,0:0:0:0:
448,192,51018,1,0,0:0:0:0:
192,192,51018,1,0,0:0:0:0:
320,192,51103,1,0,0:0:0:0:
64,192,51187,1,0,0:0:0:0:
64,192,51272,1,0,0:0:0:0:
192,192,51356,1,0,0:0:0:0:
320,192,51356,1,0,0:0:0:0:
448,192,51441,1,0,0:0:0:0:
320,192,51610,1,0,0:0:0:0:
64,192,51610,1,0,0:0:0:0:
192,192,51694,1,0,0:0:0:0:
64,192,51779,1,0,0:0:0:0:
320,192,51864,1,0,0:0:0:0:
448,192,51864,1,0,0:0:0:0:
192,192,51948,1,0,0:0:0:0:
448,192,52033,1,0,0:0:0:0:
192,192,52117,1,0,0:0:0:0:
320,192,52117,1,0,0:0:0:0:
64,192,52117,1,0,0:0:0:0:
448,192,52202,128,0,52794:0:0:0:0:
64,192,52286,1,0,0:0:0:0:
192,192,52371,1,0,0:0:0:0:
64,192,52455,1,0,0:0:0:0:
192,192,52540,1,0,0:0:0:0:
320,192,52794,1,0,0:0:0:0:
192,192,52794,1,0,0:0:0:0:
192,192,52963,1,0,0:0:0:0:
64,192,52963,1,0,0:0:0:0:
448,192,53047,1,0,0:0:0:0:
192,192,53132,1,0,0:0:0:0:
320,192,53132,1,0,0:0:0:0:
64,192,53216,1,0,0:0:0:0:
320,192,53301,1,0,0:0:0:0:
192,192,53386,1,0,0:0:0:0:
64,192,53386,1,0,0:0:0:0:
64,192,53555,1,0,0:0:0:0:
192,192,53639,1,0,0:0:0:0:
320,192,53724,1,0,0:0:0:0:
448,192,53808,1,0,0:0:0:0:
64,192,53808,1,0,0:0:0:0:
192,192,53893,1,0,0:0:0:0:
320,192,53977,1,0,0:0:0:0:
448,192,54062,1,0,0:0:0:0:
64,192,54147,1,0,0:0:0:0:
192,192,54147,1,0,0:0:0:0:
320,192,54231,1,0,0:0:0:0:
192,192,54316,1,0,0:0:0:0:
64,192,54400,1,0,0:0:0:0:
320,192,54400,1,0,0:0:0:0:
192,192,54485,1,0,0:0:0:0:
320,192,54738,1,0,0:0:0:0:
64,192,54738,1,0,0:0:0:0:
192,192,54823,1,0,0:0:0:0:
448,192,54823,1,0,0:0:0:0:
320,192,54908,1,0,0:0:0:0:
192,192,54992,1,0,0:0:0:0:
64,192,55077,1,0,0:0:0:0:
192,192,55161,1,0,0:0:0:0:
448,192,55161,1,0,0:0:0:0:
64,192,55246,1,0,0:0:0:0:
320,192,55246,1,0,0:0:0:0:
192,192,55330,1,0,0:0:0:0:
320,192,55415,1,0,0:0:0:0:
192,192,55499,1,0,0:0:0:0:
64,192,55499,1,0,0:0:0:0:
320,192,55584,1,0,0:0:0:0:
448,192,55669,1,0,0:0:0:0:
192,192,55669,1,0,0:0:0:0:
320,192,55753,1,0,0:0:0:0:
64,192,55838,1,0,0:0:0:0:
448,192,55838,1,0,0:0:0:0:
192,192,55922,1,0,0:0:0:0:
64,192,56007,1,0,0:0:0:0:
320,192,56007,1,0,0:0:0:0:
192,192,56091,1,0,0:0:0:0:
320,192,56176,1,0,0:0:0:0:
448,192,56176,1,0,0:0:0:0:
64,192,56176,1,0,0:0:0:0:
192,192,56260,1,0,0:0:0:0:
448,192,56345,1,0,0:0:0:0:
64,192,56430,1,0,0:0:0:0:
192,192,56430,1,0,0:0:0:0:
320,192,56599,1,0,0:0:0:0:
192,192,56599,1,0,0:0:0:0:
448,192,56683,1,0,0:0:0:0:
64,192,56683,1,0,0:0:0:0:
320,192,56768,1,0,0:0:0:0:
192,192,56852,1,0,0:0:0:0:
448,192,56852,1,0,0:0:0:0:
64,192,56937,1,0,0:0:0:0:
320,192,56937,1,0,0:0:0:0:
192,192,57021,1,0,0:0:0:0:
64,192,57106,1,0,0:0:0:0:
320,192,57191,128,0,57529:0:0:0:0:
448,192,57191,1,0,0:0:0:0:
64,192,57275,1,0,0:0:0:0:
192,192,57360,1,0,0:0:0:0:
448,192,57444,1,0,0:0:0:0:
64,192,57529,1,0,0:0:0:0:
192,192,57613,1,0,0:0:0:0:
320,192,57698,1,0,0:0:0:0:
64,192,57698,1,0,0:0:0:0:
192,192,57782,1,0,0:0:0:0:
448,192,57782,1,0,0:0:0:0:
448,192,57951,1,0,0:0:0:0:
320,192,58036,1,0,0:0:0:0:
64,192,58121,1,0,0:0:0:0:
192,192,58121,1,0,0:0:0:0:
448,192,58205,1,0,0:0:0:0:
320,192,58205,1,0,0:0:0:0:
192,192,58290,1,0,0:0:0:0:
64,192,58374,1,0,0:0:0:0:
192,192,58459,1,0,0:0:0:0:
448,192,58543,1,0,0:0:0:0:
448,192,58712,1,0,0:0:0:0:
192,192,58797,1,0,0:0:0:0:
320,192,58797,1,0,0:0:0:0:
64,192,58882,1,0,0:0:0:0:
192,192,58966,1,0,0:0:0:0:
320,192,58966,1,0,0:0:0:0:
448,192,59051,1,0,0:0:0:0:
320,192,59135,1,0,0:0:0:0:
192,192,59135,1,0,0:0:0:0:
192,192,59304,1,0,0:0:0:0:
64,192,59304,1,0,0:0:0:0:
448,192,59389,1,0,0:0:0:0:
320,192,59389,1,0,0:0:0:0:
192,192,59558,1,0,0:0:0:0:
320,192,59558,1,0,0:0:0:0:
192,192,59727,1,0,0:0:0:0:
64,192,59812,1,0,0:0:0:0:
192,192,59896,1,0,0:0:0:0:
320,192,59981,1,0,0:0:0:0:
448,192,60065,1,0,0:0:0:0:
320,192,60150,1,0,0:0:0:0:
64,192,60150,1,0,0:0:0:0:
192,192,60234,1,0,0:0:0:0:
448,192,60234,1,0,0:0:0:0:
320,192,60404,1,0,0:0:0:0:
448,192,60488,1,0,0:0:0:0:
320,192,60573,1,0,0:0:0:0:
192,192,60573,1,0,0:0:0:0:
64,192,60742,1,0,0:0:0:0:
192,192,60742,1,0,0:0:0:0:
320,192,60911,1,0,0:0:0:0:
448,192,60911,128,0,61334:0:0:0:0:
64,192,61165,1,0,0:0:0:0:
192,192,61249,1,0,0:0:0:0:
320,192,61334,1,0,0:0:0:0:
64,192,61418,1,0,0:0:0:0:
448,192,61503,1,0,0:0:0:0:
320,192,61503,128,0,61672:0:0:0:0:
64,192,61587,1,0,0:0:0:0:
192,192,61672,128,0,61841:0:0:0:0:
320,192,61841,128,0,62010:0:0:0:0:
64,192,61841,1,0,0:0:0:0:
448,192,62010,128,0,62179:0:0:0:0:
64,192,62010,1,0,0:0:0:0:
192,192,62095,1,0,0:0:0:0:
320,192,62264,128,0,62433:0:0:0:0:
64,192,62264,1,0,0:0:0:0:
192,192,62433,128,0,62940:0:0:0:0:
448,192,62433,1,0,0:0:0:0:
448,192,62687,1,0,0:0:0:0:
448,192,62856,1,0,0:0:0:0:
320,192,62940,1,0,0:0:0:0:
64,192,63025,1,0,0:0:0:0:
320,192,63109,1,0,0:0:0:0:
448,192,63194,1,0,0:0:0:0:
320,192,63278,1,0,0:0:0:0:
64,192,63363,1,0,0:0:0:0:
192,192,63448,1,0,0:0:0:0:
448,192,63532,1,0,0:0:0:0:
320,192,63617,1,0,0:0:0:0:
192,192,63701,128,0,63955:0:0:0:0:
320,192,63870,1,0,0:0:0:0:
64,192,63955,1,0,0:0:0:0:
192,192,64124,1,0,0:0:0:0:
320,192,64209,1,0,0:0:0:0:
448,192,64293,1,0,0:0:0:0:
192,192,64378,1,0,0:0:0:0:
64,192,64378,1,0,0:0:0:0:
448,192,64462,1,0,0:0:0:0:
320,192,64547,1,0,0:0:0:0:
192,192,64631,1,0,0:0:0:0:
64,192,64716,1,0,0:0:0:0:
192,192,64800,1,0,0:0:0:0:
448,192,64885,1,0,0:0:0:0:
320,192,64970,1,0,0:0:0:0:
64,192,65054,128,0,65477:0:0:0:0:
192,192,65054,128,0,65477:0:0:0:0:
320,192,65308,128,0,65646:0:0:0:0:
448,192,65646,1,0,0:0:0:0:
192,192,65646,1,0,0:0:0:0:
64,192,65815,1,0,0:0:0:0:
448,192,65984,1,0,0:0:0:0:
320,192,65984,1,0,0:0:0:0:
64,192,66153,1,0,0:0:0:0:
448,192,66238,1,0,0:0:0:0:
320,192,66322,1,0,0:0:0:0:
192,192,66407,1,0,0:0:0:0:
64,192,66576,1,0,0:0:0:0:
192,192,66661,1,0,0:0:0:0:
448,192,66830,1,0,0:0:0:0:
448,192,66999,1,0,0:0:0:0:
64,192,67168,1,0,0:0:0:0:
448,192,67337,1,0,0:0:0:0:
320,192,67422,1,0,0:0:0:0:
192,192,67506,1,0,0:0:0:0:
64,192,67591,1,0,0:0:0:0:
448,192,67675,1,0,0:0:0:0:
320,192,67760,1,0,0:0:0:0:
64,192,67929,1,0,0:0:0:0:
192,192,68014,1,0,0:0:0:0:
320,192,68014,1,0,0:0:0:0:
448,192,68098,1,0,0:0:0:0:
448,192,68267,1,0,0:0:0:0:
64,192,68352,1,0,0:0:0:0:
192,192,68352,1,0,0:0:0:0:
192,192,68521,1,0,0:0:0:0:
320,192,68605,1,0,0:0:0:0:
448,192,68690,1,0,0:0:0:0:
64,192,68774,1,0,0:0:0:0:
192,192,68859,1,0,0:0:0:0:
448,192,68944,1,0,0:0:0:0:
320,192,69028,1,0,0:0:0:0:
64,192,69028,1,0,0:0:0:0:
192,192,69197,1,0,0:0:0:0:
448,192,69282,1,0,0:0:0:0:
320,192,69366,1,0,0:0:0:0:
64,192,69451,1,0,0:0:0:0:
64,192,69620,1,0,0:0:0:0:
448,192,69789,1,0,0:0:0:0:
320,192,69789,1,0,0:0:0:0:
64,192,69958,1,0,0:0:0:0:
192,192,69958,1,0,0:0:0:0:
448,192,70127,1,0,0:0:0:0:
320,192,70127,1,0,0:0:0:0:
64,192,70296,1,0,0:0:0:0:
192,192,70296,1,0,0:0:0:0:
320,192,70296,1,0,0:0:0:0:
448,192,70466,1,0,0:0:0:0:
448,192,70635,128,0,71057:0:0:0:0:
320,192,70635,1,0,0:0:0:0:
192,192,70804,1,0,0:0:0:0:
64,192,70973,1,0,0:0:0:0:
320,192,71057,128,0,71565:0:0:0:0:
192,192,71734,128,0,72157:0:0:0:0:
448,192,72326,1,0,0:0:0:0:
320,192,72410,1,0,0:0:0:0:
192,192,72495,1,0,0:0:0:0:
64,192,72495,1,0,0:0:0:0:
448,192,72579,1,0,0:0:0:0:
64,192,72664,1,0,0:0:0:0:
192,192,72749,1,0,0:0:0:0:
320,192,72833,1,0,0:0:0:0:
448,192,72833,1,0,0:0:0:0:
192,192,73002,1,0,0:0:0:0:
64,192,73171,1,0,0:0:0:0:
320,192,73256,128,0,73510:0:0:0:0:
64,192,73679,1,0,0:0:0:0:
192,192,73763,1,0,0:0:0:0:
320,192,73848,1,0,0:0:0:0:
448,192,73932,1,0,0:0:0:0:
320,192,74017,1,0,0:0:0:0:
192,192,74101,1,0,0:0:0:0:
64,192,74186,1,0,0:0:0:0:
192,192,74271,1,0,0:0:0:0:
320,192,74271,1,0,0:0:0:0:
448,192,74440,1,0,0:0:0:0:
320,192,74440,1,0,0:0:0:0:
64,192,74609,1,0,0:0:0:0:
192,192,74609,1,0,0:0:0:0:
448,192,74778,1,0,0:0:0:0:
448,192,74947,1,0,0:0:0:0:
64,192,75032,1,0,0:0:0:0:
192,192,75116,1,0,0:0:0:0:
64,192,75370,1,0,0:0:0:0:
192,192,75370,1,0,0:0:0:0:
320,192,75539,1,0,0:0:0:0:
448,192,75539,1,0,0:0:0:0:
64,192,75793,1,0,0:0:0:0:
192,192,75877,1,0,0:0:0:0:
320,192,75877,128,0,76384:0:0:0:0:
448,192,76046,1,0,0:0:0:0:
64,192,76469,1,0,0:0:0:0:
192,192,76469,1,0,0:0:0:0:
320,192,76638,1,0,0:0:0:0:
448,192,76723,128,0,77230:0:0:0:0:
320,192,76892,1,0,0:0:0:0:
192,192,77061,1,0,0:0:0:0:
64,192,77230,1,0,0:0:0:0:
192,192,77230,1,0,0:0:0:0:
192,192,77399,1,0,0:0:0:0:
320,192,77484,1,0,0:0:0:0:
448,192,77653,1,0,0:0:0:0:
320,192,77737,1,0,0:0:0:0:
192,192,77822,1,0,0:0:0:0:
64,192,77906,1,0,0:0:0:0:
192,192,77991,1,0,0:0:0:0:
448,192,77991,1,0,0:0:0:0:
320,192,78076,1,0,0:0:0:0:
192,192,78160,1,0,0:0:0:0:
448,192,78160,1,0,0:0:0:0:
320,192,78329,1,0,0:0:0:0:
192,192,78414,1,0,0:0:0:0:
64,192,78498,1,0,0:0:0:0:
448,192,78498,1,0,0:0:0:0:
320,192,78583,1,0,0:0:0:0:
448,192,78667,1,0,0:0:0:0:
320,192,78752,1,0,0:0:0:0:
64,192,78921,1,0,0:0:0:0:
192,192,78921,1,0,0:0:0:0:
448,192,79090,1,0,0:0:0:0:
320,192,79175,1,0,0:0:0:0:
192,192,79175,1,0,0:0:0:0:
64,192,79344,1,0,0:0:0:0:
192,192,79428,1,0,0:0:0:0:
64,192,79513,1,0,0:0:0:0:
192,192,79597,1,0,0:0:0:0:
64,192,79682,1,0,0:0:0:0:
192,192,79767,1,0,0:0:0:0:
448,192,79767,1,0,0:0:0:0:
320,192,79767,1,0,0:0:0:0:
192,192,79936,1,0,0:0:0:0:
320,192,79936,1,0,0:0:0:0:
64,192,80189,1,0,0:0:0:0:
192,192,80189,1,0,0:0:0:0:
448,192,80274,128,0,81204:0:0:0:0:
320,192,81204,128,0,81542:0:0:0:0:
64,192,81289,1,0,0:0:0:0:
448,192,81373,1,0,0:0:0:0:
192,192,81458,128,0,81711:0:0:0:0:
64,192,81458,1,0,0:0:0:0:
448,192,81542,1,0,0:0:0:0:
320,192,81796,1,0,0:0:0:0:
448,192,81965,1,0,0:0:0:0:
320,192,82050,1,0,0:0:0:0:
448,192,82134,1,0,0:0:0:0:
320,192,82219,1,0,0:0:0:0:
448,192,82303,1,0,0:0:0:0:
64,192,82472,1,0,0:0:0:0:
192,192,82472,1,0,0:0:0:0:
320,192,82557,1,0,0:0:0:0:
448,192,82811,1,0,0:0:0:0:
320,192,82980,1,0,0:0:0:0:
192,192,82980,1,0,0:0:0:0:
64,192,83149,1,0,0:0:0:0:
192,192,83149,1,0,0:0:0:0:
320,192,83233,1,0,0:0:0:0:
448,192,83233,1,0,0:0:0:0:
448,192,83402,1,0,0:0:0:0:
320,192,83487,1,0,0:0:0:0:
448,192,83572,1,0,0:0:0:0:
64,192,83656,1,0,0:0:0:0:
192,192,83741,1,0,0:0:0:0:
320,192,83825,1,0,0:0:0:0:
64,192,83825,1,0,0:0:0:0:
192,192,83910,1,0,0:0:0:0:
192,192,84079,1,0,0:0:0:0:
448,192,84079,1,0,0:0:0:0:
320,192,84248,1,0,0:0:0:0:
64,192,84333,1,0,0:0:0:0:
192,192,84417,1,0,0:0:0:0:
448,192,84502,1,0,0:0:0:0:
320,192,84586,1,0,0:0:0:0:
192,192,84586,1,0,0:0:0:0:
192,192,84755,1,0,0:0:0:0:
320,192,84840,1,0,0:0:0:0:
448,192,84924,1,0,0:0:0:0:
320,192,85009,1,0,0:0:0:0:
64,192,85009,1,0,0:0:0:0:
192,192,85094,1,0,0:0:0:0:
320,192,85178,1,0,0:0:0:0:
448,192,85263,1,0,0:0:0:0:
320,192,85347,1,0,0:0:0:0:
192,192,85347,1,0,0:0:0:0:
64,192,85516,1,0,0:0:0:0:
192,192,85516,1,0,0:0:0:0:
448,192,85855,1,0,0:0:0:0:
320,192,85939,1,0,0:0:0:0:
64,192,86193,1,0,0:0:0:0:
192,192,86277,1,0,0:0:0:0:
320,192,86362,1,0,0:0:0:0:
64,192,86362,1,0,0:0:0:0:
192,192,86446,1,0,0:0:0:0:
448,192,86531,1,0,0:0:0:0:
320,192,86616,1,0,0:0:0:0:
192,192,86700,1,0,0:0:0:0:
320,192,86785,1,0,0:0:0:0:
448,192,86869,1,0,0:0:0:0:
320,192,86954,1,0,0:0:0:0:
64,192,87292,1,0,0:0:0:0:
320,192,87292,1,0,0:0:0:0:
192,192,87377,1,0,0:0:0:0:
448,192,87461,1,0,0:0:0:0:
320,192,87630,1,0,0:0:0:0:
192,192,87715,1,0,0:0:0:0:
320,192,87799,1,0,0:0:0:0:
192,192,87884,1,0,0:0:0:0:
64,192,87968,1,0,0:0:0:0:
320,192,87968,1,0,0:0:0:0:
448,192,87968,1,0,0:0:0:0:
320,192,88138,1,0,0:0:0:0:
192,192,88222,1,0,0:0:0:0:
320,192,88307,1,0,0:0:0:0:
192,192,88476,1,0,0:0:0:0:
320,192,88645,1,0,0:0:0:0:
64,192,88645,1,0,0:0:0:0:
320,192,88814,1,0,0:0:0:0:
448,192,88983,1,0,0:0:0:0:
448,192,89152,1,0,0:0:0:0:
64,192,89237,1,0,0:0:0:0:
192,192,89321,1,0,0:0:0:0:
320,192,89321,1,0,0:0:0:0:
64,192,89406,1,0,0:0:0:0:
64,192,89575,1,0,0:0:0:0:
320,192,89913,1,0,0:0:0:0:
192,192,89998,1,0,0:0:0:0:
64,192,90251,1,0,0:0:0:0:
192,192,90336,1,0,0:0:0:0:
448,192,90420,1,0,0:0:0:0:
320,192,90505,1,0,0:0:0:0:
64,192,90674,1,0,0:0:0:0:
192,192,90759,1,0,0:0:0:0:
64,192,90843,1,0,0:0:0:0:
448,192,90843,1,0,0:0:0:0:
320,192,90928,1,0,0:0:0:0:
448,192,91012,1,0,0:0:0:0:
64,192,91097,1,0,0:0:0:0:
192,192,91181,1,0,0:0:0:0:
320,192,91266,1,0,0:0:0:0:
448,192,91351,1,0,0:0:0:0:
320,192,91435,1,0,0:0:0:0:
192,192,91520,1,0,0:0:0:0:
64,192,91604,1,0,0:0:0:0:
192,192,91689,1,0,0:0:0:0:
320,192,91773,1,0,0:0:0:0:
448,192,91858,1,0,0:0:0:0:
320,192,91942,1,0,0:0:0:0:
192,192,91942,1,0,0:0:0:0:
64,192,92027,1,0,0:0:0:0:
64,192,92196,1,0,0:0:0:0:
64,192,92365,128,0,92703:0:0:0:0:
448,192,92619,1,0,0:0:0:0:
192,192,92703,1,0,0:0:0:0:
320,192,92873,1,0,0:0:0:0:
448,192,92957,1,0,0:0:0:0:
64,192,92957,1,0,0:0:0:0:
320,192,93042,1,0,0:0:0:0:
192,192,93126,1,0,0:0:0:0:
64,192,93211,1,0,0:0:0:0:
448,192,93211,1,0,0:0:0:0:
192,192,93295,1,0,0:0:0:0:
320,192,93380,1,0,0:0:0:0:
448,192,93464,1,0,0:0:0:0:
64,192,93464,1,0,0:0:0:0:
320,192,93549,1,0,0:0:0:0:
192,192,93634,1,0,0:0:0:0:
64,192,93718,1,0,0:0:0:0:
448,192,93718,1,0,0:0:0:0:
192,192,93803,1,0,0:0:0:0:
320,192,93887,1,0,0:0:0:0:
448,192,93887,1,0,0:0:0:0:
64,192,94056,1,0,0:0:0:0:
192,192,94141,1,0,0:0:0:0:
320,192,94225,1,0,0:0:0:0:
448,192,94310,1,0,0:0:0:0:
64,192,94310,1,0,0:0:0:0:
320,192,94395,1,0,0:0:0:0:
192,192,94479,1,0,0:0:0:0:
64,192,94564,1,0,0:0:0:0:
448,192,94564,1,0,0:0:0:0:
192,192,94648,1,0,0:0:0:0:
320,192,94733,1,0,0:0:0:0:
448,192,94817,1,0,0:0:0:0:
320,192,94902,1,0,0:0:0:0:
192,192,94902,1,0,0:0:0:0:
64,192,94986,1,0,0:0:0:0:
192,192,95071,1,0,0:0:0:0:
448,192,95240,1,0,0:0:0:0:
448,192,95409,1,0,0:0:0:0:
448,192,95578,1,0,0:0:0:0:
320,192,95663,1,0,0:0:0:0:
192,192,95747,1,0,0:0:0:0:
64,192,95832,1,0,0:0:0:0:
448,192,95832,1,0,0:0:0:0:
192,192,95917,1,0,0:0:0:0:
320,192,96001,1,0,0:0:0:0:
448,192,96086,1,0,0:0:0:0:
64,192,96086,1,0,0:0:0:0:
320,192,96170,1,0,0:0:0:0:
192,192,96255,1,0,0:0:0:0:
448,192,96255,1,0,0:0:0:0:
64,192,96339,1,0,0:0:0:0:
192,192,96424,1,0,0:0:0:0:
320,192,96424,1,0,0:0:0:0:
448,192,96508,1,0,0:0:0:0:
320,192,96593,1,0,0:0:0:0:
192,192,96678,1,0,0:0:0:0:
192,192,96847,1,0,0:0:0:0:
320,192,96847,1,0,0:0:0:0:
64,192,97016,1,0,0:0:0:0:
448,192,97100,1,0,0:0:0:0:
320,192,97100,1,0,0:0:0:0:
192,192,97354,1,0,0:0:0:0:
64,192,97439,1,0,0:0:0:0:
192,192,97523,1,0,0:0:0:0:
320,192,97523,1,0,0:0:0:0:
448,192,97608,1,0,0:0:0:0:
320,192,97692,1,0,0:0:0:0:
64,192,98115,1,0,0:0:0:0:
192,192,98115,1,0,0:0:0:0:
448,192,98115,1,0,0:0:0:0:
320,192,98200,1,0,0:0:0:0:
192,192,98284,1,0,0:0:0:0:
320,192,98453,1,0,0:0:0:0:
192,192,98538,1,0,0:0:0:0:
64,192,98622,1,0,0:0:0:0:
320,192,98707,1,0,0:0:0:0:
448,192,98707,1,0,0:0:0:0:
64,192,98791,1,0,0:0:0:0:
192,192,98876,1,0,0:0:0:0:
448,192,98961,1,0,0:0:0:0:
320,192,99130,1,0,0:0:0:0:
64,192,99130,1,0,0:0:0:0:
192,192,99214,1,0,0:0:0:0:
320,192,99299,1,0,0:0:0:0:
448,192,99383,1,0,0:0:0:0:
192,192,99468,1,0,0:0:0:0:
320,192,99552,1,0,0:0:0:0:
64,192,99552,1,0,0:0:0:0:
192,192,99637,1,0,0:0:0:0:
448,192,99806,1,0,0:0:0:0:
320,192,99806,1,0,0:0:0:0:
192,192,99891,1,0,0:0:0:0:
64,192,99975,1,0,0:0:0:0:
192,192,100060,1,0,0:0:0:0:
320,192,100144,1,0,0:0:0:0:
64,192,100144,1,0,0:0:0:0:
448,192,100229,1,0,0:0:0:0:
320,192,100313,1,0,0:0:0:0:
64,192,100483,1,0,0:0:0:0:
192,192,100567,1,0,0:0:0:0:
320,192,100736,1,0,0:0:0:0:
448,192,100821,1,0,0:0:0:0:
192,192,100821,1,0,0:0:0:0:
320,192,100905,1,0,0:0:0:0:
64,192,101074,1,0,0:0:0:0:
192,192,101159,1,0,0:0:0:0:
320,192,101243,1,0,0:0:0:0:
448,192,101328,1,0,0:0:0:0:
192,192,101413,1,0,0:0:0:0:
320,192,101413,1,0,0:0:0:0:
64,192,101497,1,0,0:0:0:0:
448,192,101582,1,0,0:0:0:0:
192,192,101666,1,0,0:0:0:0:
320,192,101666,1,0,0:0:0:0:
64,192,101751,1,0,0:0:0:0:
448,192,101835,1,0,0:0:0:0:
192,192,101920,1,0,0:0:0:0:
320,192,102004,1,0,0:0:0:0:
448,192,102089,1,0,0:0:0:0:
64,192,102089,1,0,0:0:0:0:
320,192,102174,1,0,0:0:0:0:
192,192,102174,1,0,0:0:0:0:
64,192,102258,1,0,0:0:0:0:
448,192,102343,1,0,0:0:0:0:
320,192,102427,1,0,0:0:0:0:
448,192,102512,1,0,0:0:0:0:
64,192,102596,1,0,0:0:0:0:
192,192,102596,1,0,0:0:0:0:
320,192,102681,1,0,0:0:0:0:
64,192,102765,1,0,0:0:0:0:
192,192,102850,1,0,0:0:0:0:
320,192,102935,1,0,0:0:0:0:
448,192,102935,1,0,0:0:0:0:
320,192,103104,1,0,0:0:0:0:
192,192,103188,1,0,0:0:0:0:
64,192,103273,128,0,103696:0:0:0:0:
192,192,103442,1,0,0:0:0:0:
448,192,103442,1,0,0:0:0:0:
320,192,103526,1,0,0:0:0:0:
448,192,103611,1,0,0:0:0:0:
320,192,103780,1,0,0:0:0:0:
192,192,103865,1,0,0:0:0:0:
64,192,103949,1,0,0:0:0:0:
448,192,104034,1,0,0:0:0:0:
64,192,104118,1,0,0:0:0:0:
320,192,104118,1,0,0:0:0:0:
192,192,104203,1,0,0:0:0:0:
64,192,104287,1,0,0:0:0:0:
64,192,104457,1,0,0:0:0:0:
448,192,104457,1,0,0:0:0:0:
192,192,104541,1,0,0:0:0:0:
320,192,104626,1,0,0:0:0:0:
64,192,104795,1,0,0:0:0:0:
192,192,104964,1,0,0:0:0:0:
320,192,105133,1,0,0:0:0:0:
448,192,105218,1,0,0:0:0:0:
320,192,105302,1,0,0:0:0:0:
192,192,105387,1,0,0:0:0:0:
64,192,105556,1,0,0:0:0:0:
192,192,105556,1,0,0:0:0:0:
448,192,105894,1,0,0:0:0:0:
320,192,105894,1,0,0:0:0:0:
192,192,105979,1,0,0:0:0:0:
64,192,106063,128,0,106401:0:0:0:0:
320,192,106148,1,0,0:0:0:0:
192,192,106232,1,0,0:0:0:0:
448,192,106232,1,0,0:0:0:0:
320,192,106317,1,0,0:0:0:0:
192,192,106401,1,0,0:0:0:0:
64,192,106570,1,0,0:0:0:0:
192,192,106655,1,0,0:0:0:0:
320,192,106740,1,0,0:0:0:0:
448,192,106824,1,0,0:0:0:0:
320,192,106909,1,0,0:0:0:0:
192,192,106993,1,0,0:0:0:0:
64,192,107078,1,0,0:0:0:0:
192,192,107247,1,0,0:0:0:0:
320,192,107331,1,0,0:0:0:0:
448,192,107501,1,0,0:0:0:0:
320,192,107585,1,0,0:0:0:0:
64,192,107754,1,0,0:0:0:0:
448,192,107754,1,0,0:0:0:0:
320,192,107754,1,0,0:0:0:0:
192,192,107839,1,0,0:0:0:0:
448,192,107923,1,0,0:0:0:0:
320,192,108008,1,0,0:0:0:0:
64,192,108092,1,0,0:0:0:0:
320,192,108177,1,0,0:0:0:0:
192,192,108262,1,0,0:0:0:0:
448,192,108262,1,0,0:0:0:0:
320,192,108346,1,0,0:0:0:0:
64,192,108431,1,0,0:0:0:0:
192,192,108515,1,0,0:0:0:0:
64,192,108600,1,0,0:0:0:0:
192,192,108684,128,0,109023:0:0:0:0:
320,192,108769,1,0,0:0:0:0:
448,192,108853,1,0,0:0:0:0:
320,192,108938,1,0,0:0:0:0:
64,192,109107,1,0,0:0:0:0:
192,192,109192,1,0,0:0:0:0:
64,192,109276,1,0,0:0:0:0:
448,192,109276,128,0,109614:0:0:0:0:
192,192,109361,1,0,0:0:0:0:
192,192,109614,1,0,0:0:0:0:
320,192,109699,1,0,0:0:0:0:
64,192,109784,1,0,0:0:0:0:
192,192,109868,128,0,110037:0:0:0:0:
320,192,110122,1,0,0:0:0:0:
192,192,110206,1,0,0:0:0:0:
64,192,110291,1,0,0:0:0:0:
448,192,110291,1,0,0:0:0:0:
192,192,110375,1,0,0:0:0:0:
320,192,110460,1,0,0:0:0:0:
448,192,110545,1,0,0:0:0:0:
64,192,110545,1,0,0:0:0:0:
320,192,110629,1,0,0:0:0:0:
192,192,110714,1,0,0:0:0:0:
64,192,110798,1,0,0:0:0:0:
320,192,110798,1,0,0:0:0:0:
192,192,110883,1,0,0:0:0:0:
448,192,110883,1,0,0:0:0:0:
320,192,110967,1,0,0:0:0:0:
192,192,111052,1,0,0:0:0:0:
64,192,111136,128,0,111475:0:0:0:0:
192,192,111559,1,0,0:0:0:0:
448,192,111559,1,0,0:0:0:0:
320,192,111644,1,0,0:0:0:0:
192,192,111728,1,0,0:0:0:0:
448,192,111728,1,0,0:0:0:0:
64,192,111813,1,0,0:0:0:0:
320,192,111897,1,0,0:0:0:0:
192,192,111982,1,0,0:0:0:0:
64,192,112066,1,0,0:0:0:0:
192,192,112151,1,0,0:0:0:0:
448,192,112151,1,0,0:0:0:0:
320,192,112236,1,0,0:0:0:0:
192,192,112320,1,0,0:0:0:0:
64,192,112405,1,0,0:0:0:0:
448,192,112405,1,0,0:0:0:0:
192,192,112489,1,0,0:0:0:0:
320,192,112574,1,0,0:0:0:0:
448,192,112658,1,0,0:0:0:0:
64,192,112658,1,0,0:0:0:0:
320,192,112743,1,0,0:0:0:0:
192,192,112827,1,0,0:0:0:0:
64,192,112912,1,0,0:0:0:0:
448,192,112912,1,0,0:0:0:0:
192,192,112997,1,0,0:0:0:0:
320,192,113081,1,0,0:0:0:0:
448,192,113166,1,0,0:0:0:0:
64,192,113166,1,0,0:0:0:0:
320,192,113250,1,0,0:0:0:0:
192,192,113250,1,0,0:0:0:0:
64,192,113335,1,0,0:0:0:0:
192,192,113504,1,0,0:0:0:0:
320,192,113588,1,0,0:0:0:0:
448,192,113673,1,0,0:0:0:0:
64,192,113673,1,0,0:0:0:0:
320,192,113758,1,0,0:0:0:0:
192,192,113927,1,0,0:0:0:0:
64,192,114011,1,0,0:0:0:0:
192,192,114096,1,0,0:0:0:0:
448,192,114349,1,0,0:0:0:0:
320,192,114434,1,0,0:0:0:0:
64,192,114688,1,0,0:0:0:0:
192,192,114772,1,0,0:0:0:0:
448,192,115026,1,0,0:0:0:0:
320,192,115026,1,0,0:0:0:0:
192,192,115110,1,0,0:0:0:0:
64,192,115195,1,0,0:0:0:0:
448,192,115195,1,0,0:0:0:0:
192,192,115280,1,0,0:0:0:0:
320,192,115364,1,0,0:0:0:0:
192,192,115533,1,0,0:0:0:0:
64,192,115702,1,0,0:0:0:0:
320,192,115702,1,0,0:0:0:0:
192,192,115787,1,0,0:0:0:0:
448,192,115787,1,0,0:0:0:0:
320,192,115871,1,0,0:0:0:0:
64,192,116125,1,0,0:0:0:0:
192,192,116125,1,0,0:0:0:0:
448,192,116294,1,0,0:0:0:0:
320,192,116294,1,0,0:0:0:0:
192,192,116379,1,0,0:0:0:0:
320,192,116463,1,0,0:0:0:0:
448,192,116548,1,0,0:0:0:0:
320,192,116632,1,0,0:0:0:0:
64,192,116802,1,0,0:0:0:0:
192,192,116886,1,0,0:0:0:0:
64,192,116971,1,0,0:0:0:0:
192,192,117055,1,0,0:0:0:0:
448,192,117055,1,0,0:0:0:0:
320,192,117140,1,0,0:0:0:0:
192,192,117224,1,0,0:0:0:0:
64,192,117478,1,0,0:0:0:0:
192,192,117478,1,0,0:0:0:0:
320,192,117563,1,0,0:0:0:0:
448,192,117732,1,0,0:0:0:0:
320,192,117816,1,0,0:0:0:0:
192,192,117901,1,0,0:0:0:0:
64,192,117985,1,0,0:0:0:0:
192,192,118070,1,0,0:0:0:0:
320,192,118239,1,0,0:0:0:0:
448,192,118324,1,0,0:0:0:0:
320,192,118408,1,0,0:0:0:0:
192,192,118408,128,0,118831:0:0:0:0:
64,192,118408,128,0,118831:0:0:0:0:
320,192,118746,1,0,0:0:0:0:
448,192,118831,1,0,0:0:0:0:
320,192,118915,1,0,0:0:0:0:
448,192,119000,1,0,0:0:0:0:
320,192,119085,1,0,0:0:0:0:
64,192,119169,128,0,119338:0:0:0:0:
192,192,119169,128,0,119338:0:0:0:0:
320,192,119423,128,0,119761:0:0:0:0:
448,192,119423,128,0,119761:0:0:0:0:
192,192,119676,1,0,0:0:0:0:
64,192,119761,1,0,0:0:0:0:
192,192,119846,1,0,0:0:0:0:
320,192,119930,1,0,0:0:0:0:
448,192,120015,1,0,0:0:0:0:
320,192,120099,128,0,120437:0:0:0:0:
64,192,120437,1,0,0:0:0:0:
192,192,120522,1,0,0:0:0:0:
320,192,120607,1,0,0:0:0:0:
448,192,120691,1,0,0:0:0:0:
64,192,120776,1,0,0:0:0:0:
192,192,120860,1,0,0:0:0:0:
448,192,120945,1,0,0:0:0:0:
320,192,121029,1,0,0:0:0:0:
64,192,121114,1,0,0:0:0:0:
192,192,121198,1,0,0:0:0:0:
448,192,121283,1,0,0:0:0:0:
320,192,121368,1,0,0:0:0:0:
192,192,121452,1,0,0:0:0:0:
64,192,121537,1,0,0:0:0:0:
320,192,121537,1,0,0:0:0:0:
448,192,121621,1,0,0:0:0:0:
192,192,121706,1,0,0:0:0:0:
64,192,121790,1,0,0:0:0:0:
192,192,121875,1,0,0:0:0:0:
320,192,121959,1,0,0:0:0:0:
192,192,122044,128,0,122382:0:0:0:0:
64,192,122128,1,0,0:0:0:0:
320,192,122213,1,0,0:0:0:0:
64,192,122382,1,0,0:0:0:0:
320,192,122551,1,0,0:0:0:0:
192,192,122636,1,0,0:0:0:0:
64,192,122720,1,0,0:0:0:0:
320,192,122720,1,0,0:0:0:0:
192,192,122805,1,0,0:0:0:0:
320,192,122889,1,0,0:0:0:0:
320,192,123059,1,0,0:0:0:0:
64,192,123143,1,0,0:0:0:0:
192,192,123228,1,0,0:0:0:0:
448,192,123397,1,0,0:0:0:0:
64,192,123481,1,0,0:0:0:0:
320,192,123566,1,0,0:0:0:0:
192,192,123566,1,0,0:0:0:0:
64,192,123735,1,0,0:0:0:0:
320,192,123820,1,0,0:0:0:0:
192,192,123904,1,0,0:0:0:0:
64,192,124158,1,0,0:0:0:0:
192,192,124242,1,0,0:0:0:0:
320,192,124327,1,0,0:0:0:0:
192,192,124411,1,0,0:0:0:0:
448,192,124581,1,0,0:0:0:0:
320,192,124665,1,0,0:0:0:0:
448,192,124750,1,0,0:0:0:0:
192,192,124834,1,0,0:0:0:0:
64,192,124919,1,0,0:0:0:0:
192,192,125088,1,0,0:0:0:0:
320,192,125172,1,0,0:0:0:0:
64,192,125172,1,0,0:0:0:0:
192,192,125257,1,0,0:0:0:0:
448,192,125342,1,0,0:0:0:0:
320,192,125426,1,0,0:0:0:0:
64,192,125511,1,0,0:0:0:0:
192,192,125595,1,0,0:0:0:0:
448,192,125764,1,0,0:0:0:0:
192,192,125764,1,0,0:0:0:0:
320,192,125849,1,0,0:0:0:0:
64,192,125849,1,0,0:0:0:0:
192,192,125933,1,0,0:0:0:0:
448,192,126018,1,0,0:0:0:0:
320,192,126103,1,0,0:0:0:0:
192,192,126187,1,0,0:0:0:0:
64,192,126356,1,0,0:0:0:0:
192,192,126441,1,0,0:0:0:0:
320,192,126525,1,0,0:0:0:0:
448,192,126610,1,0,0:0:0:0:
192,192,126610,1,0,0:0:0:0:
320,192,126694,1,0,0:0:0:0:
64,192,126694,1,0,0:0:0:0:
192,192,126864,1,0,0:0:0:0:
320,192,126948,1,0,0:0:0:0:
448,192,127033,1,0,0:0:0:0:
64,192,127117,1,0,0:0:0:0:
320,192,127202,1,0,0:0:0:0:
192,192,127202,1,0,0:0:0:0:
64,192,127286,128,0,127625:0:0:0:0:
192,192,127709,1,0,0:0:0:0:
320,192,127794,1,0,0:0:0:0:
448,192,127878,1,0,0:0:0:0:
64,192,127878,1,0,0:0:0:0:
320,192,127963,1,0,0:0:0:0:
192,192,128047,1,0,0:0:0:0:
64,192,128132,1,0,0:0:0:0:
448,192,128132,1,0,0:0:0:0:
192,192,128216,1,0,0:0:0:0:
320,192,128301,1,0,0:0:0:0:
448,192,128386,1,0,0:0:0:0:
64,192,128386,1,0,0:0:0:0:
320,192,128470,1,0,0:0:0:0:
192,192,128555,1,0,0:0:0:0:
64,192,128639,1,0,0:0:0:0:
448,192,128639,1,0,0:0:0:0:
192,192,128724,1,0,0:0:0:0:
448,192,128893,1,0,0:0:0:0:
320,192,128977,1,0,0:0:0:0:
192,192,129062,1,0,0:0:0:0:
64,192,129147,1,0,0:0:0:0:
448,192,129147,1,0,0:0:0:0:
320,192,129231,1,0,0:0:0:0:
192,192,129316,1,0,0:0:0:0:
64,192,129400,1,0,0:0:0:0:
448,192,129400,1,0,0:0:0:0:
320,192,129485,1,0,0:0:0:0:
192,192,129569,1,0,0:0:0:0:
64,192,129654,1,0,0:0:0:0:
448,192,129654,1,0,0:0:0:0:
320,192,129738,1,0,0:0:0:0:
192,192,129823,1,0,0:0:0:0:
64,192,129908,1,0,0:0:0:0:
64,192,130077,1,0,0:0:0:0:
192,192,130161,1,0,0:0:0:0:
320,192,130246,1,0,0:0:0:0:
448,192,130330,1,0,0:0:0:0:
64,192,130330,1,0,0:0:0:0:
192,192,130415,1,0,0:0:0:0:
320,192,130499,1,0,0:0:0:0:
448,192,130584,1,0,0:0:0:0:
448,192,130753,1,0,0:0:0:0:
320,192,130838,1,0,0:0:0:0:
192,192,130922,1,0,0:0:0:0:
64,192,131007,1,0,0:0:0:0:
448,192,131007,1,0,0:0:0:0:
320,192,131091,1,0,0:0:0:0:
192,192,131176,1,0,0:0:0:0:
64,192,131260,1,0,0:0:0:0:
192,192,131345,1,0,0:0:0:0:
320,192,131430,1,0,0:0:0:0:
448,192,131514,1,0,0:0:0:0:
192,192,131514,1,0,0:0:0:0:
320,192,131599,1,0,0:0:0:0:
64,192,131683,1,0,0:0:0:0:
192,192,131937,128,0,132613:0:0:0:0:
448,192,132191,1,0,0:0:0:0:
64,192,132275,1,0,0:0:0:0:
448,192,132444,1,0,0:0:0:0:
64,192,132529,1,0,0:0:0:0:
320,192,132782,128,0,133290:0:0:0:0:
64,192,132867,1,0,0:0:0:0:
448,192,133036,1,0,0:0:0:0:
64,192,133121,1,0,0:0:0:0:
448,192,133290,1,0,0:0:0:0:
64,192,133374,128,0,134558:0:0:0:0:
192,192,133459,128,0,134558:0:0:0:0:
320,192,133543,128,0,135488:0:0:0:0:
448,192,133966,1,0,0:0:0:0:
448,192,134135,1,0,0:0:0:0:
448,192,134304,1,0,0:0:0:0:
448,192,134473,1,0,0:0:0:0:
448,192,134643,1,0,0:0:0:0:
64,192,134812,1,0,0:0:0:0:
192,192,134896,1,0,0:0:0:0:
64,192,134981,1,0,0:0:0:0:
192,192,135065,1,0,0:0:0:0:
448,192,135234,1,0,0:0:0:0:
192,192,135319,1,0,0:0:0:0:
448,192,135404,1,0,0:0:0:0:
192,192,135573,128,0,135995:0:0:0:0:
64,192,135573,1,0,0:0:0:0:
64,192,135911,128,0,136587:0:0:0:0:
448,192,136080,1,0,0:0:0:0:
192,192,136165,1,0,0:0:0:0:
320,192,136249,1,0,0:0:0:0:
448,192,136334,1,0,0:0:0:0:
320,192,136418,1,0,0:0:0:0:
192,192,136503,1,0,0:0:0:0:
448,192,136587,1,0,0:0:0:0:
320,192,136672,1,0,0:0:0:0:
448,192,136672,1,0,0:0:0:0:
192,192,136756,1,0,0:0:0:0:
64,192,136841,1,0,0:0:0:0:
448,192,136841,1,0,0:0:0:0:
192,192,136926,1,0,0:0:0:0:
320,192,137010,1,0,0:0:0:0:
448,192,137095,1,0,0:0:0:0:
320,192,137179,128,0,137687:0:0:0:0:
64,192,137264,1,0,0:0:0:0:
192,192,137517,128,0,137771:0:0:0:0:
64,192,137517,1,0,0:0:0:0:
448,192,137771,1,0,0:0:0:0:
320,192,137856,1,0,0:0:0:0:
192,192,137940,1,0,0:0:0:0:
64,192,138025,1,0,0:0:0:0:
320,192,138025,1,0,0:0:0:0:
192,192,138109,1,0,0:0:0:0:
448,192,138109,1,0,0:0:0:0:
320,192,138194,1,0,0:0:0:0:
192,192,138363,1,0,0:0:0:0:
64,192,138448,1,0,0:0:0:0:
448,192,138448,1,0,0:0:0:0:
192,192,138532,1,0,0:0:0:0:
320,192,138617,1,0,0:0:0:0:
192,192,138701,1,0,0:0:0:0:
64,192,138870,1,0,0:0:0:0:
192,192,138870,1,0,0:0:0:0:
448,192,139124,128,0,140308:0:0:0:0:
320,192,139209,1,0,0:0:0:0:
64,192,139378,1,0,0:0:0:0:
192,192,139378,1,0,0:0:0:0:
320,192,139462,1,0,0:0:0:0:
192,192,139547,1,0,0:0:0:0:
320,192,139631,1,0,0:0:0:0:
64,192,139800,1,0,0:0:0:0:
192,192,139885,1,0,0:0:0:0:
320,192,140139,1,0,0:0:0:0:
64,192,140223,1,0,0:0:0:0:
192,192,140308,1,0,0:0:0:0:
320,192,140392,1,0,0:0:0:0:
192,192,140477,1,0,0:0:0:0:
64,192,140561,1,0,0:0:0:0:
448,192,140561,1,0,0:0:0:0:
192,192,140646,1,0,0:0:0:0:
320,192,140731,1,0,0:0:0:0:
448,192,140815,1,0,0:0:0:0:
64,192,140815,1,0,0:0:0:0:
320,192,140900,1,0,0:0:0:0:
192,192,140984,1,0,0:0:0:0:
64,192,141069,1,0,0:0:0:0:
192,192,141153,1,0,0:0:0:0:
320,192,141153,1,0,0:0:0:0:
448,192,141238,1,0,0:0:0:0:
320,192,141322,1,0,0:0:0:0:
192,192,141407,1,0,0:0:0:0:
64,192,141492,1,0,0:0:0:0:
448,192,141492,1,0,0:0:0:0:
320,192,141576,1,0,0:0:0:0:
192,192,141661,1,0,0:0:0:0:
448,192,141661,1,0,0:0:0:0:
320,192,141830,1,0,0:0:0:0:
192,192,141914,1,0,0:0:0:0:
64,192,141999,1,0,0:0:0:0:
448,192,141999,1,0,0:0:0:0:
192,192,142083,1,0,0:0:0:0:
448,192,142083,1,0,0:0:0:0:
320,192,142168,1,0,0:0:0:0:
192,192,142253,128,0,142760:0:0:0:0:
448,192,142422,1,0,0:0:0:0:
320,192,142506,1,0,0:0:0:0:
448,192,142591,1,0,0:0:0:0:
320,192,142675,1,0,0:0:0:0:
64,192,142760,128,0,143352:0:0:0:0:
192,192,143014,1,0,0:0:0:0:
320,192,143098,1,0,0:0:0:0:
448,192,143183,1,0,0:0:0:0:
192,192,143183,1,0,0:0:0:0:
320,192,143267,1,0,0:0:0:0:
448,192,143352,1,0,0:0:0:0:
192,192,143352,1,0,0:0:0:0:
320,192,143521,1,0,0:0:0:0:
448,192,143605,1,0,0:0:0:0:
320,192,143690,1,0,0:0:0:0:
192,192,143774,1,0,0:0:0:0:
64,192,143859,1,0,0:0:0:0:
448,192,143859,1,0,0:0:0:0:
192,192,143944,1,0,0:0:0:0:
320,192,144028,1,0,0:0:0:0:
448,192,144113,1,0,0:0:0:0:
320,192,144197,5,0,0:0:0:0:
192,192,144282,1,0,0:0:0:0:
64,192,144366,1,0,0:0:0:0:
448,192,144366,1,0,0:0:0:0:
320,192,144451,1,0,0:0:0:0:
192,192,144535,1,0,0:0:0:0:
64,192,144620,1,0,0:0:0:0:
448,192,144620,1,0,0:0:0:0:
320,192,144705,1,0,0:0:0:0:
192,192,144789,1,0,0:0:0:0:
64,192,144874,1,0,0:0:0:0:
448,192,144874,1,0,0:0:0:0:
320,192,144958,1,0,0:0:0:0:
192,192,145043,1,0,0:0:0:0:
64,192,145127,1,0,0:0:0:0:
192,192,145212,128,0,145550:0:0:0:0:
448,192,145381,5,0,0:0:0:0:
320,192,145466,1,0,0:0:0:0:
64,192,145635,1,0,0:0:0:0:
448,192,145635,1,0,0:0:0:0:
192,192,145719,1,0,0:0:0:0:
320,192,145804,1,0,0:0:0:0:
448,192,145888,1,0,0:0:0:0:
64,192,145973,1,0,0:0:0:0:
192,192,146057,1,0,0:0:0:0:
448,192,146142,1,0,0:0:0:0:
320,192,146227,1,0,0:0:0:0:
192,192,146311,1,0,0:0:0:0:
64,192,146396,1,0,0:0:0:0:
192,192,146480,1,0,0:0:0:0:
448,192,146565,1,0,0:0:0:0:
320,192,146649,1,0,0:0:0:0:
64,192,146734,1,0,0:0:0:0:
192,192,146818,1,0,0:0:0:0:
64,192,146903,1,0,0:0:0:0:
448,192,146903,1,0,0:0:0:0:
192,192,146988,1,0,0:0:0:0:
64,192,147072,1,0,0:0:0:0:
192,192,147157,128,0,147495:0:0:0:0:
448,192,147157,1,0,0:0:0:0:
320,192,147326,1,0,0:0:0:0:
64,192,147495,1,0,0:0:0:0:
448,192,147579,128,0,147918:0:0:0:0:
320,192,147664,1,0,0:0:0:0:
192,192,147749,1,0,0:0:0:0:
64,192,147918,1,0,0:0:0:0:
64,192,148171,1,0,0:0:0:0:
192,192,148256,1,0,0:0:0:0:
320,192,148340,1,0,0:0:0:0:
448,192,148425,1,0,0:0:0:0:
64,192,148425,1,0,0:0:0:0:
320,192,148510,1,0,0:0:0:0:
192,192,148594,1,0,0:0:0:0:
64,192,148679,1,0,0:0:0:0:
448,192,148679,1,0,0:0:0:0:
192,192,148763,1,0,0:0:0:0:
320,192,148848,1,0,0:0:0:0:
448,192,148932,1,0,0:0:0:0:
320,192,149017,1,0,0:0:0:0:
448,192,149101,1,0,0:0:0:0:
320,192,149186,1,0,0:0:0:0:
64,192,149271,1,0,0:0:0:0:
192,192,149355,1,0,0:0:0:0:
320,192,149440,1,0,0:0:0:0:
64,192,149524,1,0,0:0:0:0:
192,192,149524,1,0,0:0:0:0:
320,192,149693,1,0,0:0:0:0:
448,192,149862,1,0,0:0:0:0:
320,192,149862,1,0,0:0:0:0:
64,192,149947,1,0,0:0:0:0:
192,192,150032,1,0,0:0:0:0:
320,192,150201,1,0,0:0:0:0:
448,192,150285,1,0,0:0:0:0:
64,192,150285,1,0,0:0:0:0:
320,192,150370,1,0,0:0:0:0:
448,192,150454,1,0,0:0:0:0:
320,192,150539,1,0,0:0:0:0:
64,192,150623,1,0,0:0:0:0:
192,192,150708,1,0,0:0:0:0:
320,192,150793,1,0,0:0:0:0:
192,192,150877,1,0,0:0:0:0:
64,192,150877,1,0,0:0:0:0:
192,192,151046,1,0,0:0:0:0:
320,192,151046,1,0,0:0:0:0:
448,192,151215,1,0,0:0:0:0:
320,192,151215,1,0,0:0:0:0:
64,192,151215,1,0,0:0:0:0:
192,192,151384,1,0,0:0:0:0:
448,192,151384,1,0,0:0:0:0:
320,192,151469,1,0,0:0:0:0:
192,192,151554,1,0,0:0:0:0:
448,192,151554,1,0,0:0:0:0:
64,192,151638,1,0,0:0:0:0:
192,192,151723,1,0,0:0:0:0:
320,192,151807,1,0,0:0:0:0:
192,192,151892,1,0,0:0:0:0:
320,192,151976,1,0,0:0:0:0:
64,192,152061,1,0,0:0:0:0:
192,192,152145,1,0,0:0:0:0:
320,192,152230,1,0,0:0:0:0:
448,192,152315,1,0,0:0:0:0:
64,192,152315,1,0,0:0:0:0:
320,192,152399,1,0,0:0:0:0:
192,192,152484,1,0,0:0:0:0:
448,192,152568,1,0,0:0:0:0:
320,192,152653,1,0,0:0:0:0:
64,192,152737,1,0,0:0:0:0:
192,192,152822,1,0,0:0:0:0:
320,192,152906,1,0,0:0:0:0:
64,192,152991,1,0,0:0:0:0:
448,192,153076,1,0,0:0:0:0:
192,192,153076,1,0,0:0:0:0:
320,192,153160,1,0,0:0:0:0:
64,192,153160,1,0,0:0:0:0:
192,192,153245,1,0,0:0:0:0:
64,192,153414,1,0,0:0:0:0:
320,192,153498,1,0,0:0:0:0:
192,192,153583,1,0,0:0:0:0:
448,192,153583,1,0,0:0:0:0:
320,192,153667,1,0,0:0:0:0:
320,192,153837,1,0,0:0:0:0:
64,192,153837,1,0,0:0:0:0:
192,192,154006,1,0,0:0:0:0:
192,192,154175,1,0,0:0:0:0:
448,192,154259,1,0,0:0:0:0:
320,192,154344,1,0,0:0:0:0:
320,192,154513,1,0,0:0:0:0:
64,192,154597,1,0,0:0:0:0:
64,192,154767,1,0,0:0:0:0:
320,192,154851,1,0,0:0:0:0:
448,192,155020,1,0,0:0:0:0:
192,192,155020,1,0,0:0:0:0:
320,192,155105,1,0,0:0:0:0:
448,192,155189,1,0,0:0:0:0:
64,192,155189,1,0,0:0:0:0:
320,192,155274,1,0,0:0:0:0:
448,192,155358,1,0,0:0:0:0:
320,192,155443,1,0,0:0:0:0:
192,192,155612,1,0,0:0:0:0:
64,192,155697,1,0,0:0:0:0:
448,192,155697,1,0,0:0:0:0:
192,192,155781,1,0,0:0:0:0:
320,192,155866,1,0,0:0:0:0:
192,192,156035,1,0,0:0:0:0:
64,192,156119,1,0,0:0:0:0:
320,192,156204,1,0,0:0:0:0:
448,192,156289,1,0,0:0:0:0:
320,192,156373,128,0,157641:0:0:0:0:
64,192,156458,1,0,0:0:0:0:
192,192,156542,1,0,0:0:0:0:
64,192,156627,1,0,0:0:0:0:
192,192,156711,1,0,0:0:0:0:
64,192,156796,1,0,0:0:0:0:
192,192,156880,1,0,0:0:0:0:
64,192,156965,1,0,0:0:0:0:
192,192,157050,1,0,0:0:0:0:
64,192,157134,1,0,0:0:0:0:
192,192,157219,1,0,0:0:0:0:
64,192,157303,1,0,0:0:0:0:
192,192,157388,1,0,0:0:0:0:
64,192,157472,1,0,0:0:0:0:
192,192,157557,1,0,0:0:0:0:
64,192,157641,1,0,0:0:0:0:
192,192,157726,1,0,0:0:0:0:
320,192,157811,1,0,0:0:0:0:
448,192,157895,1,0,0:0:0:0:
64,192,157895,1,0,0:0:0:0:
320,192,157980,1,0,0:0:0:0:
192,192,158064,128,0,158656:0:0:0:0:
320,192,158149,1,0,0:0:0:0:
448,192,158233,1,0,0:0:0:0:
320,192,158318,1,0,0:0:0:0:
64,192,158402,1,0,0:0:0:0:
320,192,158487,1,0,0:0:0:0:
448,192,158572,1,0,0:0:0:0:
320,192,158656,1,0,0:0:0:0:
64,192,158825,1,0,0:0:0:0:
192,192,158910,1,0,0:0:0:0:
320,192,158994,1,0,0:0:0:0:
448,192,159079,1,0,0:0:0:0:
192,192,159079,1,0,0:0:0:0:
320,192,159163,1,0,0:0:0:0:
64,192,159248,1,0,0:0:0:0:
192,192,159333,1,0,0:0:0:0:
320,192,159417,1,0,0:0:0:0:
448,192,159502,1,0,0:0:0:0:
64,192,159502,1,0,0:0:0:0:
320,192,159586,1,0,0:0:0:0:
192,192,159671,1,0,0:0:0:0:
64,192,159755,1,0,0:0:0:0:
448,192,159755,1,0,0:0:0:0:
192,192,159840,1,0,0:0:0:0:
320,192,159924,1,0,0:0:0:0:
448,192,160009,1,0,0:0:0:0:
64,192,160009,1,0,0:0:0:0:
320,192,160094,1,0,0:0:0:0:
192,192,160094,128,0,160432:0:0:0:0:
64,192,160347,1,0,0:0:0:0:
320,192,160516,1,0,0:0:0:0:
448,192,160601,1,0,0:0:0:0:
64,192,160601,1,0,0:0:0:0:
320,192,160685,1,0,0:0:0:0:
192,192,160770,1,0,0:0:0:0:
64,192,160855,1,0,0:0:0:0:
320,192,160855,1,0,0:0:0:0:
192,192,160939,1,0,0:0:0:0:
448,192,160939,1,0,0:0:0:0:
320,192,161024,1,0,0:0:0:0:
192,192,161108,1,0,0:0:0:0:
64,192,161193,1,0,0:0:0:0:
448,192,161193,1,0,0:0:0:0:
320,192,161277,1,0,0:0:0:0:
192,192,161362,1,0,0:0:0:0:
64,192,161446,1,0,0:0:0:0:
192,192,161531,1,0,0:0:0:0:
448,192,161616,1,0,0:0:0:0:
320,192,161700,1,0,0:0:0:0:
64,192,161785,1,0,0:0:0:0:
192,192,161785,1,0,0:0:0:0:
320,192,161954,1,0,0:0:0:0:
448,192,161954,1,0,0:0:0:0:
192,192,162038,1,0,0:0:0:0:
64,192,162123,1,0,0:0:0:0:
192,192,162207,1,0,0:0:0:0:
320,192,162207,1,0,0:0:0:0:
448,192,162377,1,0,0:0:0:0:
320,192,162377,1,0,0:0:0:0:
64,192,162546,1,0,0:0:0:0:
192,192,162546,1,0,0:0:0:0:
320,192,162630,1,0,0:0:0:0:
64,192,162715,1,0,0:0:0:0:
192,192,162799,1,0,0:0:0:0:
320,192,162884,1,0,0:0:0:0:
192,192,163053,1,0,0:0:0:0:
64,192,163138,1,0,0:0:0:0:
320,192,163222,1,0,0:0:0:0:
448,192,163307,1,0,0:0:0:0:
64,192,163391,1,0,0:0:0:0:
192,192,163476,1,0,0:0:0:0:
320,192,163560,1,0,0:0:0:0:
448,192,163645,1,0,0:0:0:0:
64,192,163645,1,0,0:0:0:0:
192,192,163729,1,0,0:0:0:0:
320,192,163814,1,0,0:0:0:0:
64,192,163899,1,0,0:0:0:0:
192,192,163983,1,0,0:0:0:0:
320,192,164068,1,0,0:0:0:0:
448,192,164152,1,0,0:0:0:0:
64,192,164237,1,0,0:0:0:0:
192,192,164321,1,0,0:0:0:0:
64,192,164406,1,0,0:0:0:0:
192,192,164490,1,0,0:0:0:0:
320,192,164660,1,0,0:0:0:0:
448,192,164744,1,0,0:0:0:0:
192,192,164829,1,0,0:0:0:0:
64,192,164913,1,0,0:0:0:0:
320,192,164998,1,0,0:0:0:0:
448,192,165082,1,0,0:0:0:0:
64,192,165082,1,0,0:0:0:0:
192,192,165167,1,0,0:0:0:0:
320,192,165251,1,0,0:0:0:0:
448,192,165336,1,0,0:0:0:0:
64,192,165336,1,0,0:0:0:0:
192,192,165420,1,0,0:0:0:0:
320,192,165505,1,0,0:0:0:0:
448,192,165590,1,0,0:0:0:0:
192,192,165590,1,0,0:0:0:0:
320,192,165674,1,0,0:0:0:0:
448,192,165843,1,0,0:0:0:0:
320,192,165928,1,0,0:0:0:0:
64,192,166012,1,0,0:0:0:0:
192,192,166097,1,0,0:0:0:0:
320,192,166266,1,0,0:0:0:0:
448,192,166351,1,0,0:0:0:0:
192,192,166435,1,0,0:0:0:0:
64,192,166520,1,0,0:0:0:0:
448,192,166520,1,0,0:0:0:0:
320,192,166604,1,0,0:0:0:0:
192,192,166689,1,0,0:0:0:0:
64,192,166773,1,0,0:0:0:0:
448,192,166773,1,0,0:0:0:0:
320,192,166858,1,0,0:0:0:0:
192,192,166942,1,0,0:0:0:0:
64,192,167112,1,0,0:0:0:0:
192,192,167196,1,0,0:0:0:0:
320,192,167281,1,0,0:0:0:0:
448,192,167365,1,0,0:0:0:0:
64,192,167365,1,0,0:0:0:0:
320,192,167450,1,0,0:0:0:0:
192,192,167534,1,0,0:0:0:0:
64,192,167619,1,0,0:0:0:0:
448,192,167619,1,0,0:0:0:0:
192,192,167703,1,0,0:0:0:0:
320,192,167788,1,0,0:0:0:0:
448,192,167873,1,0,0:0:0:0:
320,192,167957,1,0,0:0:0:0:
64,192,168042,1,0,0:0:0:0:
192,192,168126,1,0,0:0:0:0:
320,192,168211,1,0,0:0:0:0:
64,192,168211,1,0,0:0:0:0:
448,192,168295,1,0,0:0:0:0:
192,192,168295,1,0,0:0:0:0:
320,192,168380,1,0,0:0:0:0:
64,192,168380,1,0,0:0:0:0:
448,192,168464,1,0,0:0:0:0:
192,192,168464,1,0,0:0:0:0:
320,192,168549,1,0,0:0:0:0:
448,192,168634,1,0,0:0:0:0:
320,192,168718,1,0,0:0:0:0:
192,192,168803,1,0,0:0:0:0:
448,192,168803,1,0,0:0:0:0:
64,192,168887,1,0,0:0:0:0:
320,192,168887,1,0,0:0:0:0:
192,192,168972,1,0,0:0:0:0:
448,192,168972,1,0,0:0:0:0:
320,192,169056,1,0,0:0:0:0:
192,192,169141,1,0,0:0:0:0:
64,192,169225,1,0,0:0:0:0:
448,192,169225,1,0,0:0:0:0:
192,192,169310,1,0,0:0:0:0:
320,192,169395,1,0,0:0:0:0:
448,192,169479,1,0,0:0:0:0:
192,192,169479,1,0,0:0:0:0:
320,192,169564,1,0,0:0:0:0:
64,192,169564,128,0,169986:0:0:0:0:
192,192,169817,1,0,0:0:0:0:
320,192,169902,1,0,0:0:0:0:
448,192,169986,1,0,0:0:0:0:
320,192,170071,1,0,0:0:0:0:
192,192,170156,1,0,0:0:0:0:
64,192,170240,1,0,0:0:0:0:
448,192,170240,1,0,0:0:0:0:
320,192,170325,1,0,0:0:0:0:
192,192,170409,1,0,0:0:0:0:
448,192,170494,1,0,0:0:0:0:
320,192,170578,1,0,0:0:0:0:
192,192,170663,1,0,0:0:0:0:
64,192,170747,1,0,0:0:0:0:
192,192,170832,1,0,0:0:0:0:
320,192,170917,1,0,0:0:0:0:
448,192,171001,1,0,0:0:0:0:
64,192,171086,1,0,0:0:0:0:
192,192,171170,1,0,0:0:0:0:
448,192,171170,1,0,0:0:0:0:
320,192,171255,1,0,0:0:0:0:
64,192,171339,1,0,0:0:0:0:
192,192,171424,1,0,0:0:0:0:
448,192,171508,1,0,0:0:0:0:
320,192,171593,1,0,0:0:0:0:
64,192,171678,1,0,0:0:0:0:
192,192,171762,1,0,0:0:0:0:
320,192,171847,1,0,0:0:0:0:
64,192,171847,1,0,0:0:0:0:
448,192,171931,1,0,0:0:0:0:
192,192,171931,1,0,0:0:0:0:
320,192,172016,1,0,0:0:0:0:
192,192,172100,1,0,0:0:0:0:
64,192,172185,1,0,0:0:0:0:
192,192,172354,1,0,0:0:0:0:
320,192,172439,1,0,0:0:0:0:
448,192,172523,1,0,0:0:0:0:
64,192,172523,1,0,0:0:0:0:
320,192,172608,1,0,0:0:0:0:
192,192,172692,1,0,0:0:0:0:
64,192,172777,1,0,0:0:0:0:
448,192,172777,1,0,0:0:0:0:
192,192,172861,1,0,0:0:0:0:
320,192,172861,1,0,0:0:0:0:
64,192,173030,1,0,0:0:0:0:
192,192,173030,1,0,0:0:0:0:
448,192,173115,1,0,0:0:0:0:
320,192,173200,1,0,0:0:0:0:
192,192,173284,1,0,0:0:0:0:
320,192,173369,1,0,0:0:0:0:
448,192,173453,1,0,0:0:0:0:
64,192,173453,1,0,0:0:0:0:
192,192,173538,1,0,0:0:0:0:
448,192,173622,1,0,0:0:0:0:
320,192,173707,1,0,0:0:0:0:
192,192,173791,1,0,0:0:0:0:
448,192,173791,1,0,0:0:0:0:
64,192,173876,1,0,0:0:0:0:
320,192,173876,1,0,0:0:0:0:
192,192,173961,1,0,0:0:0:0:
64,192,174045,1,0,0:0:0:0:
192,192,174130,1,0,0:0:0:0:
320,192,174214,1,0,0:0:0:0:
448,192,174299,1,0,0:0:0:0:
64,192,174299,1,0,0:0:0:0:
320,192,174383,1,0,0:0:0:0:
192,192,174468,1,0,0:0:0:0:
64,192,174552,1,0,0:0:0:0:
448,192,174552,1,0,0:0:0:0:
192,192,174637,1,0,0:0:0:0:
320,192,174722,1,0,0:0:0:0:
448,192,174806,1,0,0:0:0:0:
320,192,174891,1,0,0:0:0:0:
192,192,174975,1,0,0:0:0:0:
448,192,174975,1,0,0:0:0:0:
64,192,175060,1,0,0:0:0:0:
320,192,175060,1,0,0:0:0:0:
192,192,175144,1,0,0:0:0:0:
448,192,175144,1,0,0:0:0:0:
320,192,175229,1,0,0:0:0:0:
192,192,175313,1,0,0:0:0:0:
64,192,175398,1,0,0:0:0:0:
448,192,175398,1,0,0:0:0:0:
320,192,175483,1,0,0:0:0:0:
192,192,175567,1,0,0:0:0:0:
64,192,175652,1,0,0:0:0:0:
448,192,175652,1,0,0:0:0:0:
320,192,175736,1,0,0:0:0:0:
192,192,175821,1,0,0:0:0:0:
448,192,175905,1,0,0:0:0:0:
320,192,175990,1,0,0:0:0:0:
192,192,176074,1,0,0:0:0:0:
64,192,176159,1,0,0:0:0:0:
448,192,176159,1,0,0:0:0:0:
320,192,176243,1,0,0:0:0:0:
192,192,176328,1,0,0:0:0:0:
448,192,176413,1,0,0:0:0:0:
320,192,176497,1,0,0:0:0:0:
192,192,176582,1,0,0:0:0:0:
64,192,176666,1,0,0:0:0:0:
448,192,176666,1,0,0:0:0:0:
320,192,176751,1,0,0:0:0:0:
192,192,176835,1,0,0:0:0:0:
64,192,176920,1,0,0:0:0:0:
192,192,177004,1,0,0:0:0:0:
64,192,177089,1,0,0:0:0:0:
448,192,177089,1,0,0:0:0:0:
192,192,177174,1,0,0:0:0:0:
320,192,177174,1,0,0:0:0:0:
448,192,177258,1,0,0:0:0:0:
320,192,177343,1,0,0:0:0:0:
448,192,177427,1,0,0:0:0:0:
320,192,177512,1,0,0:0:0:0:
448,192,177681,1,0,0:0:0:0:
320,192,177765,1,0,0:0:0:0:
192,192,177850,1,0,0:0:0:0:
448,192,177850,1,0,0:0:0:0:
320,192,177935,1,0,0:0:0:0:
448,192,178019,1,0,0:0:0:0:
192,192,178019,1,0,0:0:0:0:
320,192,178104,128,0,178780:0:0:0:0:
64,192,178104,128,0,178780:0:0:0:0:
192,192,178611,1,0,0:0:0:0:
448,192,178696,1,0,0:0:0:0:
192,192,178865,1,0,0:0:0:0:
64,192,178949,1,0,0:0:0:0:
192,192,179034,1,0,0:0:0:0:
320,192,179118,1,0,0:0:0:0:
64,192,179118,1,0,0:0:0:0:
448,192,179203,1,0,0:0:0:0:
192,192,179203,1,0,0:0:0:0:
320,192,179287,1,0,0:0:0:0:
64,192,179372,1,0,0:0:0:0:
192,192,179457,1,0,0:0:0:0:
320,192,179541,1,0,0:0:0:0:
448,192,179626,1,0,0:0:0:0:
64,192,179626,1,0,0:0:0:0:
320,192,179710,1,0,0:0:0:0:
192,192,179795,1,0,0:0:0:0:
64,192,179879,1,0,0:0:0:0:
448,192,179879,1,0,0:0:0:0:
192,192,179964,1,0,0:0:0:0:
320,192,180048,1,0,0:0:0:0:
448,192,180133,1,0,0:0:0:0:
192,192,180133,1,0,0:0:0:0:
320,192,180218,1,0,0:0:0:0:
64,192,180302,1,0,0:0:0:0:
192,192,180387,1,0,0:0:0:0:
320,192,180471,1,0,0:0:0:0:
64,192,180556,1,0,0:0:0:0:
192,192,180640,1,0,0:0:0:0:
320,192,180725,1,0,0:0:0:0:
448,192,180809,1,0,0:0:0:0:
64,192,180809,1,0,0:0:0:0:
320,192,180894,1,0,0:0:0:0:
192,192,180979,1,0,0:0:0:0:
64,192,181063,1,0,0:0:0:0:
448,192,181063,1,0,0:0:0:0:
192,192,181148,1,0,0:0:0:0:
320,192,181232,1,0,0:0:0:0:
448,192,181317,1,0,0:0:0:0:
320,192,181401,1,0,0:0:0:0:
64,192,181401,1,0,0:0:0:0:
192,192,181486,1,0,0:0:0:0:
64,192,181570,1,0,0:0:0:0:
448,192,181909,1,0,0:0:0:0:
320,192,181993,1,0,0:0:0:0:
64,192,182078,1,0,0:0:0:0:
192,192,182162,1,0,0:0:0:0:
320,192,182331,1,0,0:0:0:0:
448,192,182416,1,0,0:0:0:0:
192,192,182501,1,0,0:0:0:0:
64,192,182585,1,0,0:0:0:0:
192,192,182670,1,0,0:0:0:0:
448,192,182754,1,0,0:0:0:0:
320,192,182839,1,0,0:0:0:0:
192,192,182923,1,0,0:0:0:0:
448,192,182923,1,0,0:0:0:0:
64,192,183008,1,0,0:0:0:0:
320,192,183008,1,0,0:0:0:0:
192,192,183092,1,0,0:0:0:0:
64,192,183177,1,0,0:0:0:0:
64,192,183346,1,0,0:0:0:0:
192,192,183431,1,0,0:0:0:0:
320,192,183515,1,0,0:0:0:0:
64,192,183515,1,0,0:0:0:0:
448,192,183600,1,0,0:0:0:0:
192,192,183600,128,0,183769:0:0:0:0:
320,192,183684,128,0,183853:0:0:0:0:
448,192,183853,1,0,0:0:0:0:
64,192,183938,128,0,184445:0:0:0:0:
192,192,184276,1,0,0:0:0:0:
320,192,184361,1,0,0:0:0:0:
448,192,184445,1,0,0:0:0:0:
192,192,184445,1,0,0:0:0:0:
320,192,184530,1,0,0:0:0:0:
448,192,184614,1,0,0:0:0:0:
320,192,184699,1,0,0:0:0:0:
192,192,184784,1,0,0:0:0:0:
64,192,184868,1,0,0:0:0:0:
448,192,184868,1,0,0:0:0:0:
192,192,184953,1,0,0:0:0:0:
320,192,185037,1,0,0:0:0:0:
448,192,185122,1,0,0:0:0:0:
64,192,185122,1,0,0:0:0:0:
320,192,185206,1,0,0:0:0:0:
192,192,185291,1,0,0:0:0:0:
64,192,185375,1,0,0:0:0:0:
448,192,185375,1,0,0:0:0:0:
192,192,185460,1,0,0:0:0:0:
320,192,185545,1,0,0:0:0:0:
448,192,185629,1,0,0:0:0:0:
320,192,185714,1,0,0:0:0:0:
192,192,185883,1,0,0:0:0:0:
64,192,186052,1,0,0:0:0:0:
192,192,186136,1,0,0:0:0:0:
320,192,186221,1,0,0:0:0:0:
64,192,186221,1,0,0:0:0:0:
448,192,186305,1,0,0:0:0:0:
192,192,186305,1,0,0:0:0:0:
320,192,186390,1,0,0:0:0:0:
448,192,186475,1,0,0:0:0:0:
448,192,186728,1,0,0:0:0:0:
320,192,186813,1,0,0:0:0:0:
192,192,186897,1,0,0:0:0:0:
448,192,186897,1,0,0:0:0:0:
64,192,186982,1,0,0:0:0:0:
320,192,186982,1,0,0:0:0:0:
192,192,187066,1,0,0:0:0:0:
320,192,187151,1,0,0:0:0:0:
448,192,187236,1,0,0:0:0:0:
320,192,187320,1,0,0:0:0:0:
192,192,187405,1,0,0:0:0:0:
64,192,187489,1,0,0:0:0:0:
448,192,187489,1,0,0:0:0:0:
320,192,187574,1,0,0:0:0:0:
192,192,187658,1,0,0:0:0:0:
448,192,187743,1,0,0:0:0:0:
320,192,187827,1,0,0:0:0:0:
192,192,187912,1,0,0:0:0:0:
64,192,187997,1,0,0:0:0:0:
448,192,187997,1,0,0:0:0:0:
320,192,188081,1,0,0:0:0:0:
192,192,188166,1,0,0:0:0:0:
448,192,188250,1,0,0:0:0:0:
320,192,188335,1,0,0:0:0:0:
192,192,188419,1,0,0:0:0:0:
64,192,188504,1,0,0:0:0:0:
448,192,188758,1,0,0:0:0:0:
320,192,188842,1,0,0:0:0:0:
192,192,188927,1,0,0:0:0:0:
64,192,189011,1,0,0:0:0:0:
448,192,189011,1,0,0:0:0:0:
320,192,189096,1,0,0:0:0:0:
192,192,189180,1,0,0:0:0:0:
448,192,189265,1,0,0:0:0:0:
320,192,189349,1,0,0:0:0:0:
192,192,189434,1,0,0:0:0:0:
64,192,189519,1,0,0:0:0:0:
448,192,189519,1,0,0:0:0:0:
320,192,189603,1,0,0:0:0:0:
192,192,189688,1,0,0:0:0:0:
448,192,189772,1,0,0:0:0:0:
320,192,189857,1,0,0:0:0:0:
192,192,189941,1,0,0:0:0:0:
64,192,190026,1,0,0:0:0:0:
448,192,190026,1,0,0:0:0:0:
320,192,190110,1,0,0:0:0:0:
192,192,190195,128,0,191463:0:0:0:0:
320,192,191463,128,0,192816:0:0:0:0:
192,192,192816,128,0,193831:0:0:0:0:
64,192,193493,1,0,0:0:0:0:
320,192,193577,1,0,0:0:0:0:
448,192,193662,1,0,0:0:0:0:
64,192,193746,1,0,0:0:0:0:
320,192,193831,1,0,0:0:0:0:
448,192,193915,1,0,0:0:0:0:
320,192,194000,1,0,0:0:0:0:
192,192,194085,1,0,0:0:0:0:
64,192,194169,1,0,0:0:0:0:
320,192,194169,1,0,0:0:0:0:
192,192,194254,1,0,0:0:0:0:
