osu file format v14

[General]
AudioFilename: audio.mp3
AudioLeadIn: 0
PreviewTime: 18929
Countdown: 0
SampleSet: Normal
StackLeniency: 0.7
Mode: 0
LetterboxInBreaks: 0
WidescreenStoryboard: 0

[Editor]
DistanceSpacing: 0.4
BeatDivisor: 4
GridSize: 8
TimelineZoom: 1

[Metadata]
Title:Baptised in Fire
TitleUnicode:Baptised in Fire
Artist:Wardrum
ArtistUnicode:Wardrum
Creator:DygnitarZ
Version:Hot
Source:
Tags:
BeatmapID:1225111
BeatmapSetID:578630

[Difficulty]
HPDrainRate:8.5
CircleSize:4.5
OverallDifficulty:8
ApproachRate:9.6
SliderMultiplier:1.4
SliderTickRate:1

[Events]
//Background and Video events
//Break Periods
//Storyboard Layer 0 (Background)
//Storyboard Layer 1 (Fail)
//Storyboard Layer 2 (Pass)
//Storyboard Layer 3 (Foreground)
//Storyboard Sound Samples

[TimingPoints]
1106,500,4,1,0,100,1,0
2481,-76.9230769230769,4,1,0,100,0,0
3106,-50,4,1,0,100,0,0

[Colours]
Combo1 : 255,255,0
Combo2 : 255,0,255
Combo3 : 0,128,255
Combo4 : 0,255,0

[HitObjects]
24,192,1106,5,0,0:0:0:0:
64,160,1231,1,0,0:0:0:0:
104,192,1356,1,0,0:0:0:0:
192,248,1481,1,0,0:0:0:0:
232,280,1606,1,0,0:0:0:0:
280,264,1731,2,0,L|352:152,2,105
168,144,2606,1,0,0:0:0:0:
96,272,2856,1,0,0:0:0:0:
432,312,3106,2,0,L|488:264,1,70
328,200,3356,2,0,L|256:160,1,70
448,128,3606,2,0,L|472:56,1,70
288,64,3856,2,0,L|216:24,1,70
112,32,4106,1,0,0:0:0:0:
32,104,4231,1,0,0:0:0:0:
32,208,4356,1,0,0:0:0:0:
112,296,4481,2,0,L|152:376,1,70
208,336,4731,2,0,L|280:352,1,70
296,288,4981,2,0,L|376:264,2,70
184,192,5356,1,0,0:0:0:0:
304,192,5481,1,0,0:0:0:0:
160,192,5606,1,0,0:0:0:0:
336,192,5731,1,0,0:0:0:0:
456,120,5856,1,0,0:0:0:0:
456,120,5981,1,0,0:0:0:0:
344,48,6106,2,0,L|264:24,1,70
136,40,6356,2,0,L|64:88,1,70
24,192,6606,2,0,L|24:272,3,70
144,328,7106,2,0,L|224:328,1,70
360,272,7356,1,0,0:0:0:0:
360,272,7481,1,0,0:0:0:0:
256,192,7606,1,0,0:0:0:0:
256,192,7731,1,0,0:0:0:0:
256,64,7856,2,0,L|184:64,1,70
352,144,8106,1,0,0:0:0:0:
152,144,8231,1,0,0:0:0:0:
488,192,8481,1,0,0:0:0:0:
24,192,8731,1,0,0:0:0:0:
288,320,9106,1,0,0:0:0:0:
312,320,9168,1,0,0:0:0:0:
336,320,9231,1,0,0:0:0:0:
360,320,9293,1,0,0:0:0:0:
384,320,9356,2,0,P|424:280|448:240,3,70
232,192,9856,1,0,0:0:0:0:
208,192,9918,1,0,0:0:0:0:
184,192,9981,1,0,0:0:0:0:
160,192,10043,1,0,0:0:0:0:
136,192,10106,2,0,L|96:192,7,35
88,192,10606,2,0,B|64:136|64:96|40:96|88:96|72:96|48:96|80:96|80:96|56:96|56:96|32:96|32:96|24:96|24:96|24:64,1,140
168,32,10981,2,0,L|248:48,1,70
360,40,11231,2,0,L|392:104,1,70
480,176,11481,2,0,L|472:256,1,70
416,336,11731,2,0,L|336:360,1,70
216,296,11981,1,0,0:0:0:0:
352,192,12106,1,0,0:0:0:0:
168,192,12231,1,0,0:0:0:0:
496,96,12481,1,0,0:0:0:0:
32,64,12731,1,0,0:0:0:0:
152,24,12856,2,0,B|208:48|264:96,1,70
376,216,13106,2,0,P|399:297|392:368,1,140
136,168,13606,2,0,P|112:86|120:16,1,140
416,256,14106,2,0,L|488:256,1,70
88,256,14356,2,0,L|16:256,1,70
416,128,14606,2,0,L|488:104,1,70
320,96,14856,2,0,L|280:80,3,35
256,80,15106,2,0,P|184:96|112:136,1,140
56,224,15481,1,0,0:0:0:0:
40,352,15606,1,0,0:0:0:0:
160,256,15731,1,0,0:0:0:0:
40,352,15856,1,0,0:0:0:0:
200,352,15981,1,0,0:0:0:0:
392,296,16106,1,0,0:0:0:0:
144,232,16231,1,0,0:0:0:0:
496,112,16481,1,0,0:0:0:0:
8,24,16731,1,0,0:0:0:0:
256,120,17106,2,0,P|312:200|320:248,1,140
96,304,17606,2,0,L|56:240,1,70
152,160,17856,2,0,L|200:232,1,70
272,304,18106,1,0,0:0:0:0:
384,344,18231,1,0,0:0:0:0:
488,304,18356,1,0,0:0:0:0:
