osu file format v14

[General]
AudioFilename: audio.mp3
AudioLeadIn: 0
PreviewTime: 120911
Countdown: 0
SampleSet: Soft
StackLeniency: 0.4
Mode: 0
LetterboxInBreaks: 0
WidescreenStoryboard: 0

[Editor]
Bookmarks: 9042,132158
DistanceSpacing: 2.5
BeatDivisor: 2
GridSize: 8
TimelineZoom: 2.799999

[Metadata]
Title:Slow Motion (feat. DongGeyoung)
TitleUnicode:Slow Motion (feat. 동경)
Artist:Warak
ArtistUnicode:Warak
Creator:NeonLights
Version:Dada's Hard
Source:HIGH5
Tags:video game rhythm korean pop kpop k-pop 하이파이브 high five 5 agatsu deviouspanda dada sparhten amiya slowmotion
BeatmapID:2218241
BeatmapSetID:1014716

[Difficulty]
HPDrainRate:4
CircleSize:3.5
OverallDifficulty:6.5
ApproachRate:7.5
SliderMultiplier:1.4
SliderTickRate:1

[Events]
//Background and Video events
0,0,"OP-.jpg",0,0
//Break Periods
2,88767,89617
2,120642,123367
2,148767,149617
//Storyboard Layer 0 (Background)
//Storyboard Layer 1 (Fail)
//Storyboard Layer 2 (Pass)
//Storyboard Layer 3 (Foreground)
//Storyboard Layer 4 (Overlay)
//Storyboard Sound Samples

[TimingPoints]
677,468.75,4,2,2,55,1,0
15677,-100,4,2,3,75,0,0
15911,-100,4,2,2,75,0,0
24582,-100,4,2,3,75,0,0
24817,-100,4,2,2,75,0,0
30207,-100,4,2,2,55,0,0
30324,-100,4,2,2,50,0,0
30442,-100,4,2,2,45,0,0
30559,-100,4,2,2,40,0,0
30676,-100,4,2,3,75,0,0
31145,-100,4,2,2,75,0,0
32668,-100,4,2,2,5,0,0
32785,-100,4,2,2,75,0,0
33137,-100,4,2,2,5,0,0
33254,-100,4,2,2,75,0,0
39582,-100,4,2,3,75,0,0
39817,-100,4,2,2,75,0,0
41692,-100,4,2,2,80,0,0
43567,-100,4,2,3,80,0,0
44035,-100,4,2,2,80,0,0
45442,-100,4,2,3,75,0,0
45910,-100,4,2,2,75,0,0
49192,-100,4,2,3,75,0,0
49660,-100,4,2,2,75,0,0
52473,-100,4,2,2,77,0,0
52590,-100,4,2,2,79,0,0
52707,-100,4,2,2,81,0,0
52825,-100,4,2,2,83,0,0
52942,-100,4,2,3,85,0,0
53410,-100,4,2,2,85,0,0
59387,-100,4,2,2,87,0,0
59738,-100,4,2,2,89,0,0
60090,-100,4,2,2,91,0,0
60442,-83.3333333333333,4,2,3,95,0,1
60910,-83.3333333333333,4,2,2,95,0,1
68176,-83.3333333333333,4,2,3,95,0,1
68410,-83.3333333333333,4,2,2,95,0,1
74622,-83.3333333333333,4,2,2,80,0,1
74973,-83.3333333333333,4,2,2,90,0,1
75442,-83.3333333333333,4,2,3,95,0,1
75910,-83.3333333333333,4,2,2,95,0,1
83176,-83.3333333333333,4,2,3,95,0,1
83410,-83.3333333333333,4,2,2,95,0,1
88567,-100,4,2,2,85,0,0
90442,-100,4,2,3,85,0,0
90910,-100,4,2,2,85,0,0
94192,-100,4,2,3,85,0,0
94543,-100,4,2,2,85,0,0
97942,-100,4,2,3,85,0,0
98410,-100,4,2,2,85,0,0
101692,-100,4,2,3,85,0,0
102981,-100,4,2,2,85,0,0
103567,-100,4,2,3,85,0,0
104035,-100,4,2,2,85,0,0
105442,-100,4,2,3,80,0,0
105793,-100,4,2,2,80,0,0
107082,-100,4,2,3,80,0,0
107317,-100,4,2,2,80,0,0
112942,-100,4,2,3,80,0,0
113410,-100,4,2,2,80,0,0
116692,-100,4,2,3,80,0,0
117863,-100,4,2,2,70,0,0
118567,-100,4,2,3,80,0,0
118918,-100,4,2,2,80,0,0
124192,-83.3333333333333,4,2,3,95,0,1
124660,-83.3333333333333,4,2,2,95,0,1
128176,-83.3333333333333,4,2,3,95,0,1
128645,-83.3333333333333,4,2,2,95,0,1
134622,-83.3333333333333,4,2,2,80,0,1
134973,-83.3333333333333,4,2,2,90,0,1
135442,-83.3333333333333,4,2,3,95,0,1
135910,-83.3333333333333,4,2,2,95,0,1
143176,-83.3333333333333,4,2,3,95,0,1
143410,-83.3333333333333,4,2,2,95,0,1
148567,-100,4,2,2,80,0,0
150442,-100,4,2,2,60,0,0
150677,-100,4,2,2,60,0,0
150911,-100,4,2,2,60,0,0
151145,-100,4,2,2,60,0,0
151380,-100,4,2,2,60,0,0
151614,-100,4,2,2,60,0,0
151848,-100,4,2,2,60,0,0
152083,-100,4,2,2,60,0,0
152317,-100,4,2,2,60,0,0

[Colours]
Combo1 : 223,199,60
Combo2 : 130,255,233
Combo3 : 51,84,123
Combo4 : 230,181,194

[HitObjects]
147,182,911,5,0,0:0:0:0:
147,182,1145,1,2,0:0:0:0:
353,218,1614,1,2,0:0:0:0:
148,264,2083,1,2,0:0:0:0:
354,300,2552,1,2,0:0:0:0:
149,346,3020,5,2,0:0:0:0:
252,323,3255,1,0,0:0:0:0:
354,300,3489,1,2,0:0:0:0:
284,224,3723,1,2,0:0:0:0:
79,270,4192,1,2,0:0:0:0:
103,297,5598,5,2,0:0:0:0:
203,267,5833,1,0,0:0:0:0:
263,353,6067,1,2,0:0:0:0:
249,353,7473,5,2,0:0:0:0:
309,267,7708,1,0,0:0:0:0:
409,297,7942,2,0,P|442:319|463:347,1,70,2|0,0:0|1:0,0:0:0:0:
184,191,8880,5,2,0:0:0:0:
87,234,9114,1,6,0:0:0:0:
98,340,9348,1,0,0:0:0:0:
201,362,9583,1,2,0:0:0:0:
255,270,9817,1,2,0:0:0:0:
328,191,10989,5,2,0:0:0:0:
425,234,11223,1,0,0:0:0:0:
382,331,11458,1,0,0:0:0:0:
285,288,11692,1,2,0:0:0:0:
371,94,12161,5,2,0:0:0:0:
328,191,12395,1,0,0:0:0:0:
246,125,12630,1,0,0:0:0:0:
203,222,12864,1,2,0:0:0:0:
160,319,13098,1,0,0:0:0:0:
78,253,13333,1,0,0:0:0:0:
121,156,13567,1,2,0:0:0:0:
256,192,14973,5,8,3:0:0:0:
256,192,15208,1,0,1:0:0:0:
450,115,15677,6,0,P|460:150|465:196,1,70,4|4,1:2|0:0,0:0:0:0:
435,284,16145,1,8,0:0:0:0:
365,204,16380,1,0,0:0:0:0:
365,204,16497,1,0,0:0:0:0:
365,204,16614,1,4,1:3:0:0:
331,305,16848,1,4,1:3:0:0:
231,271,17083,1,4,0:3:0:0:
131,237,17317,6,0,P|69:251|0:286,1,140,12|0,0:0|1:0,0:0:0:0:
89,341,18020,1,8,0:0:0:0:
193,329,18255,2,0,P|219:295|233:261,1,70,4|0,0:0|1:0,0:0:0:0:
230,165,18723,1,0,1:0:0:0:
148,98,18958,1,8,0:0:0:0:
148,98,19075,1,0,1:0:0:0:
148,98,19192,1,0,0:0:0:0:
49,136,19427,1,0,1:0:0:0:
247,60,19895,6,0,P|292:46|328:48,1,70,4|4,2:3|0:0,0:0:0:0:
355,78,20247,1,0,0:0:0:0:
355,78,20364,1,4,1:3:0:0:
287,158,20598,1,4,1:3:0:0:
367,226,20833,1,4,0:3:0:0:
435,146,21067,6,0,P|435:75|457:7,1,140,12|0,0:0|1:0,0:0:0:0:
511,99,21770,1,8,0:0:0:0:
509,203,22005,1,4,0:0:0:0:
509,203,22122,1,0,0:0:0:0:
509,203,22239,1,0,1:0:0:0:
507,307,22473,1,0,1:0:0:0:
416,254,22708,1,8,0:0:0:0:
416,254,22825,1,0,1:0:0:0:
416,254,22942,1,4,0:0:0:0:
363,345,23177,1,0,1:0:0:0:
300,144,23645,6,0,P|251:151|215:168,1,70,8|0,0:0|0:0,0:0:0:0:
173,245,24114,1,4,1:3:0:0:
191,348,24348,1,4,1:3:0:0:
89,284,24583,5,12,0:3:0:0:
107,181,24817,2,0,P|112:128|106:35,1,140,4|0,1:2|1:0,0:0:0:0:
14,92,25520,5,8,0:0:0:0:
14,92,25755,2,0,P|11:137|13:164,1,70,4|0,0:0|1:0,0:0:0:0:
32,265,26223,1,0,1:0:0:0:
32,265,26341,1,0,0:0:0:0:
32,265,26458,1,8,0:0:0:0:
7,367,26692,6,0,P|53:361|160:366,1,140,4|0,1:2|1:0,0:0:0:0:
250,380,27395,1,8,0:0:0:0:
210,282,27630,1,4,0:0:0:0:
308,242,27864,1,0,1:0:0:0:
348,340,28098,1,0,1:0:0:0:
365,343,28216,1,0,0:0:0:0:
382,346,28333,1,8,0:0:0:0:
399,349,28450,1,0,0:0:0:0:
416,352,28567,5,4,1:2:0:0:
482,208,29036,1,0,1:0:0:0:
383,170,29270,1,8,0:0:0:0:
383,170,29387,1,8,0:0:0:0:
383,170,29505,1,8,3:0:0:0:
465,105,29739,1,8,3:0:0:0:
484,242,30208,5,8,3:0:0:0:
464,259,30325,1,8,3:0:0:0:
478,276,30442,1,8,3:0:0:0:
457,293,30559,1,8,3:0:0:0:
471,310,30677,6,0,P|431:309|393:317,1,70,4|0,1:2|0:0,0:0:0:0:
307,362,31145,1,8,0:0:0:0:
307,362,31262,1,0,0:0:0:0:
307,362,31380,1,0,0:0:0:0:
234,285,31614,5,4,1:3:0:0:
311,212,31848,1,4,1:3:0:0:
238,135,32083,1,4,0:3:0:0:
315,62,32317,6,0,P|367:57|459:63,1,140,12|0,0:0|1:2,0:0:0:0:
507,153,33020,1,8,0:0:0:0:
407,185,33255,1,4,1:2:0:0:
348,272,33489,1,0,1:0:0:0:
348,272,33606,1,0,0:0:0:0:
348,272,33723,1,0,1:0:0:0:
451,288,33958,1,8,0:2:0:0:
451,288,34075,1,0,1:0:0:0:
451,288,34192,1,4,0:0:0:0:
407,185,34427,5,0,1:0:0:0:
302,176,34661,1,2,0:0:0:0:
241,262,34895,1,8,0:0:0:0:
285,357,35130,1,4,0:0:0:0:
285,357,35247,1,0,0:0:0:0:
285,357,35364,5,4,1:3:0:0:
241,262,35598,1,4,1:3:0:0:
181,348,35833,1,4,0:3:0:0:
137,253,36067,6,0,P|140:204|132:102,1,140,12|0,0:0|1:0,0:0:0:0:
49,50,36770,1,8,0:0:0:0:
146,12,37005,2,0,B|183:4|183:4|298:45,1,140,4|0,0:0|1:0,0:0:0:0:
284,143,37708,1,8,0:0:0:0:
284,143,37825,1,0,1:0:0:0:
284,143,37942,5,4,0:0:0:0:
373,196,38177,1,0,1:0:0:0:
462,143,38411,1,2,0:0:0:0:
462,143,38528,1,0,0:0:0:0:
462,143,38645,1,8,0:0:0:0:
373,196,38880,1,4,0:0:0:0:
426,285,39114,6,0,P|442:335|443:363,1,70,4|4,1:3|1:3,0:0:0:0:
339,333,39583,1,12,0:3:0:0:
279,245,39817,2,0,P|236:251|133:287,1,140,4|0,1:2|1:0,0:0:0:0:
121,328,40403,1,0,0:0:0:0:
121,328,40520,1,8,0:0:0:0:
225,336,40755,1,0,0:0:0:0:
279,245,40989,1,0,1:0:0:0:
330,337,41223,5,4,1:2:0:0:
384,246,41458,1,8,0:0:0:0:
333,154,41692,2,0,P|285:139|238:143,1,70,4|0,1:2|0:0,0:0:0:0:
207,51,42161,2,0,P|255:36|302:40,1,70,0|8,1:0|0:0,0:0:0:0:
319,62,42512,1,4,1:2:0:0:
319,62,42630,1,0,0:0:0:0:
207,51,42864,5,8,3:0:0:0:
189,54,42981,1,8,0:0:0:0:
172,57,43098,1,0,1:0:0:0:
155,60,43216,1,8,0:0:0:0:
138,63,43333,1,8,3:0:0:0:
57,131,43567,5,4,1:2:0:0:
209,275,44036,5,8,3:0:0:0:
133,204,44270,1,8,3:0:0:0:
62,280,44505,1,0,0:0:0:0:
62,280,44622,1,8,1:3:0:0:
138,351,44856,1,0,1:0:0:0:
138,351,44973,1,8,3:0:0:0:
38,383,45208,1,8,0:0:0:0:
62,280,45442,5,4,1:2:0:0:
267,237,45911,1,0,0:0:0:0:
246,340,46145,2,0,P|282:346|318:341,1,70,12|0,0:0|1:0,0:0:0:0:
373,254,46614,2,0,P|408:287|419:315,2,70,8|0|0,0:0|0:0|0:0,0:0:0:0:
267,237,47317,6,0,P|222:232|150:161,1,140,4|4,1:2|1:2,0:0:0:0:
152,65,48020,1,0,1:0:0:0:
244,115,48255,2,0,P|292:121|333:111,1,70,0|8,1:2|0:0,0:0:0:0:
399,57,48723,1,0,1:0:0:0:
284,233,49192,6,0,P|226:227|132:233,1,140,4|2,1:2|0:0,0:0:0:0:
213,310,49895,1,2,0:0:0:0:
284,233,50130,1,2,1:2:0:0:
253,134,50364,5,8,0:0:0:0:
354,156,50598,1,0,0:0:0:0:
455,178,50833,1,0,0:0:0:0:
424,79,51067,2,0,P|362:45|276:22,1,140,2|0,1:2|1:0,0:0:0:0:
193,48,51770,1,0,1:0:0:0:
166,149,52005,6,0,P|128:145|72:159,1,70,0|8,1:0|0:0,0:0:0:0:
37,236,52473,2,0,P|75:232|131:246,1,70,2|2,1:2|0:0,0:0:0:0:
166,323,52942,2,0,P|128:319|72:333,2,70,4|0|4,0:0|0:0|0:0,0:0:0:0:
265,358,53645,1,8,0:0:0:0:
300,259,53880,5,2,0:0:0:0:
399,294,54114,1,0,1:0:0:0:
434,195,54348,1,2,0:0:0:0:
335,160,54583,6,0,P|298:156|239:171,1,70,8|0,0:0|0:0,0:0:0:0:
226,196,54934,1,0,0:0:0:0:
226,196,55052,1,0,1:0:0:0:
165,110,55286,1,0,0:0:0:0:
228,26,55520,1,8,0:0:0:0:
327,59,55755,1,0,1:0:0:0:
327,59,55989,5,0,1:0:0:0:
228,26,56223,1,0,1:0:0:0:
165,110,56458,1,8,0:0:0:0:
66,77,56692,6,0,P|51:120|51:186,1,105,2|0,0:0|0:0,0:0:0:0:
92,209,57161,1,8,0:0:0:0:
32,295,57395,1,8,0:0:0:0:
96,379,57630,1,0,1:0:0:0:
96,379,57747,1,8,0:0:0:0:
96,379,57864,1,8,0:0:0:0:
32,295,58098,1,0,1:0:0:0:
92,209,58333,1,0,0:0:0:0:
193,240,58567,6,0,P|237:254|279:255,1,70,4|0,0:0|0:0,0:0:0:0:
304,226,58919,1,8,0:0:0:0:
304,226,59036,1,10,0:0:0:0:
295,330,59270,1,10,0:0:0:0:
399,339,59505,5,0,0:0:0:0:
395,321,59622,1,0,0:0:0:0:
392,304,59739,1,10,0:0:0:0:
389,287,59856,1,8,0:0:0:0:
386,270,59973,1,0,0:0:0:0:
481,224,60208,5,8,0:0:0:0:
478,242,60325,1,8,0:0:0:0:
475,259,60442,2,0,P|447:189|410:138,1,125.999996154785,12|0,0:2|0:0,0:0:0:0:
371,136,60911,5,0,1:2:0:0:
277,221,61145,2,0,P|235:201|205:174,1,83.9999974365235,10|0,0:0|0:0,0:0:0:0:
203,128,61497,1,0,0:0:0:0:
203,128,61614,1,2,1:2:0:0:
130,231,61848,1,0,1:0:0:0:
27,158,62083,6,0,P|20:112|31:61,1,83.9999974365235,10|2,0:2|1:2,0:0:0:0:
127,0,62552,2,0,P|170:16|209:51,1,83.9999974365235,4|0,0:3|1:0,0:0:0:0:
213,165,63020,2,0,P|176:194|126:210,1,83.9999974365235,10|2,0:0|0:0,0:0:0:0:
100,191,63372,1,0,0:0:0:0:
100,191,63489,5,2,1:2:0:0:
131,313,63723,1,6,1:2:0:0:
131,313,63958,1,10,0:0:0:0:
246,261,64192,2,0,P|288:258|338:268,1,83.9999974365235,2|0,0:0|1:0,0:0:0:0:
410,361,64661,5,2,1:2:0:0:
287,384,64895,1,10,0:0:0:0:
329,265,65130,1,2,0:0:0:0:
452,242,65364,1,2,1:2:0:0:
371,146,65598,6,0,P|327:139|286:140,1,83.9999974365235,2|8,1:2|0:0,0:0:0:0:
170,187,66067,2,0,P|191:143|216:27,1,167.999994873047,6|2,1:2|1:2,0:0:0:0:
110,96,66770,1,10,0:0:0:0:
4,166,67005,1,2,0:0:0:0:
7,186,67122,1,0,0:0:0:0:
11,207,67239,1,0,1:0:0:0:
14,228,67356,1,0,0:0:0:0:
18,248,67473,1,4,1:2:0:0:
130,307,67708,1,8,0:0:0:0:
225,223,67942,2,0,L|229:181,1,41.9999987182618,2|0,0:0|0:0,0:0:0:0:
260,229,68177,6,0,P|246:296|250:329,1,83.9999974365235,4|2,1:2|1:2,0:0:0:0:
358,250,68645,2,0,P|372:183|368:150,1,83.9999974365235,10|0,0:0|0:0,0:0:0:0:
343,129,68997,1,0,0:0:0:0:
343,129,69114,1,2,1:2:0:0:
449,60,69348,1,2,1:2:0:0:
330,17,69583,6,0,P|283:16|242:27,1,83.9999974365235,10|2,0:0|1:2,0:0:0:0:
165,120,70052,2,0,P|212:121|253:110,1,83.9999974365235,6|0,0:0|1:0,0:0:0:0:
154,27,70520,5,10,0:0:0:0:
76,126,70755,1,2,0:0:0:0:
175,204,70989,2,0,P|185:245|179:289,1,83.9999974365235,2|6,1:2|1:2,0:0:0:0:
59,249,71458,1,8,0:0:0:0:
122,357,71692,6,0,B|173:374|173:374|258:361,1,125.999996154785,6|0,1:2|0:0,0:0:0:0:
279,333,72161,1,2,1:2:0:0:
279,333,72278,1,2,0:0:0:0:
279,333,72395,1,10,0:0:0:0:
404,319,72630,6,0,B|393:266|393:266|339:199,1,125.999996154785,4|0,1:2|0:0,0:0:0:0:
304,195,73098,1,2,1:2:0:0:
304,195,73216,1,2,0:0:0:0:
304,195,73333,1,8,0:0:0:0:
231,94,73567,6,0,B|190:129|190:129|159:209,1,125.999996154785,4|0,1:2|0:0,0:0:0:0:
173,242,74036,1,0,1:0:0:0:
104,135,74270,1,8,0:0:0:0:
104,135,74387,1,0,1:0:0:0:
68,233,74622,1,4,0:0:0:0:
51,44,74973,5,8,0:0:0:0:
68,41,75091,1,8,3:0:0:0:
85,38,75208,1,8,3:0:0:0:
103,35,75325,1,0,3:0:0:0:
120,32,75442,1,4,1:2:0:0:
229,93,75677,1,0,0:0:0:0:
323,9,75911,5,2,1:2:0:0:
432,70,76145,2,0,P|475:63|511:47,1,83.9999974365235,10|0,0:0|0:0,0:0:0:0:
512,7,76497,1,0,0:0:0:0:
512,7,76614,1,2,1:2:0:0:
511,133,76848,1,0,1:0:0:0:
399,192,77083,5,10,0:0:0:0:
432,70,77317,1,2,1:2:0:0:
310,37,77552,2,0,P|271:69|252:103,1,83.9999974365235,4|2,0:3|1:2,0:0:0:0:
267,147,77903,1,0,0:0:0:0:
267,147,78020,5,10,0:0:0:0:
170,65,78255,1,2,0:0:0:0:
88,162,78489,1,4,1:3:0:0:
91,182,78606,1,0,0:0:0:0:
95,203,78723,1,6,1:2:0:0:
192,285,78958,1,8,0:0:0:0:
300,219,79192,6,0,P|350:214|400:220,1,83.9999974365235,2|0,0:0|1:0,0:0:0:0:
490,282,79661,1,2,1:2:0:0:
383,216,79895,1,10,0:0:0:0:
449,109,80130,1,2,0:2:0:0:
342,43,80364,1,2,1:2:0:0:
276,150,80598,6,0,P|225:162|179:159,1,83.9999974365235,2|10,1:2|0:0,0:0:0:0:
83,99,81067,2,0,P|65:155|48:281,1,167.999994873047,6|2,1:2|1:2,0:0:0:0:
138,351,81770,1,10,0:0:0:0:
262,333,82005,1,2,0:0:0:0:
282,329,82122,1,0,0:0:0:0:
303,325,82239,5,4,1:3:0:0:
390,234,82473,1,4,1:2:0:0:
428,353,82708,1,8,0:0:0:0:
303,325,82942,1,0,0:0:0:0:
264,202,83177,6,0,P|224:177|178:167,1,83.9999974365235,4|2,1:2|0:0,0:0:0:0:
144,191,83528,1,0,0:0:0:0:
144,191,83645,1,10,0:0:0:0:
218,89,83880,1,0,0:0:0:0:
116,15,84114,6,0,P|70:30|40:55,1,83.9999974365235,2|2,1:2|1:2,0:0:0:0:
0,171,84583,2,0,P|46:156|76:131,1,83.9999974365235,10|2,0:0|1:2,0:0:0:0:
116,15,85052,5,2,0:0:0:0:
218,89,85286,1,2,1:2:0:0:
238,85,85403,1,2,0:0:0:0:
259,81,85520,1,10,0:0:0:0:
357,1,85755,1,0,0:0:0:0:
438,99,85989,5,2,1:2:0:0:
341,180,86223,2,0,P|331:234|333:271,1,83.9999974365235,6|8,1:2|0:0,0:0:0:0:
425,348,86692,6,0,P|377:342|265:356,1,125.999996154785,6|8,1:2|0:3,0:0:0:0:
263,376,87161,1,8,3:0:0:0:
147,326,87395,1,8,3:0:0:0:
147,326,87512,1,8,3:0:0:0:
147,326,87630,1,0,3:0:0:0:
247,250,87864,5,8,0:0:0:0:
247,250,87981,1,8,0:0:0:0:
247,250,88098,1,2,1:2:0:0:
131,200,88333,1,8,0:0:0:0:
131,200,88450,1,8,0:0:0:0:
131,200,88567,1,6,1:2:0:0:
35,322,90442,6,0,P|63:295|108:213,1,105,4|0,0:0|0:0,0:0:0:0:
86,199,90911,1,2,1:2:0:0:
86,199,91028,1,2,0:0:0:0:
86,199,91145,1,10,0:0:0:0:
158,123,91380,1,2,0:0:0:0:
158,123,91497,1,0,0:0:0:0:
158,123,91614,1,2,1:2:0:0:
188,224,91848,5,2,1:2:0:0:
260,148,92083,1,10,0:0:0:0:
355,193,92317,2,0,P|405:209|502:214,1,140,2|2,1:2|1:2,0:0:0:0:
436,90,93137,1,2,0:0:0:0:
436,90,93255,6,0,L|428:133,1,35,2|2,0:0|0:2,0:0:0:0:
377,119,93489,2,0,L|369:162,2,35,2|2|2,1:2|0:0|1:2,0:0:0:0:
332,145,93841,2,0,L|324:188,2,35,2|2|2,0:2|0:0|1:2,0:0:0:0:
273,174,94192,1,12,0:0:0:0:
236,17,94544,1,10,0:2:0:0:
236,17,94661,6,0,L|270:11,2,35,2|2|10,1:2|0:2|0:2,0:0:0:0:
141,82,95130,1,2,1:2:0:0:
141,82,95247,1,2,0:0:0:0:
141,82,95364,1,2,0:0:0:0:
207,162,95598,1,2,1:2:0:0:
122,223,95833,5,10,0:0:0:0:
122,223,95950,1,0,0:0:0:0:
122,223,96067,2,0,P|103:263|91:368,1,140,0|0,1:0|1:0,0:0:0:0:
213,259,96887,1,2,0:2:0:0:
213,259,97005,6,0,L|262:249,1,35,10|2,3:2|0:2,0:0:0:0:
276,208,97239,2,0,L|325:198,1,35,2|10,0:2|3:2,0:0:0:0:
338,158,97473,2,0,L|347:207,1,35,2|2,1:2|0:2,0:0:0:0:
389,221,97708,2,0,L|379:270,1,35,10|2,0:2|0:2,0:0:0:0:
338,283,97942,1,4,1:2:0:0:
204,120,98411,5,0,1:0:0:0:
99,129,98645,1,8,0:0:0:0:
76,232,98880,2,0,P|79:280|90:315,1,70,2|0,0:0|0:0,0:0:0:0:
196,322,99348,5,0,1:0:0:0:
240,226,99583,1,8,0:0:0:0:
163,155,99817,2,0,P|119:133|84:125,1,70,2|0,1:2|0:0,0:0:0:0:
10,184,100286,5,2,1:2:0:0:
172,50,100755,1,2,0:0:0:0:
350,163,101223,1,2,1:2:0:0:
512,29,101692,2,0,P|487:65|475:151,1,105,4|0,1:2|0:0,0:0:0:0:
505,165,102161,5,0,1:0:0:0:
418,224,102395,1,8,0:0:0:0:
448,325,102630,1,4,1:2:0:0:
238,380,103098,5,0,1:0:0:0:
274,281,103333,1,8,0:0:0:0:
274,281,103450,1,8,0:0:0:0:
274,281,103567,1,4,1:2:0:0:
64,283,104036,5,8,0:0:0:0:
87,180,104270,1,0,1:0:0:0:
190,203,104505,1,8,0:0:0:0:
213,100,104739,2,0,P|230:49|252:20,1,70,8|0,0:0|0:0,0:0:0:0:
314,108,105208,1,8,0:0:0:0:
314,108,105325,1,8,0:0:0:0:
314,108,105442,6,0,P|297:159|275:188,1,70,6|0,1:2|0:0,0:0:0:0:
190,203,105911,1,2,1:2:0:0:
271,269,106145,1,10,0:0:0:0:
180,322,106380,1,2,0:0:0:0:
180,322,106497,1,0,0:0:0:0:
180,322,106614,5,4,1:3:0:0:
271,269,106848,1,4,1:3:0:0:
350,340,107083,1,12,0:3:0:0:
441,287,107317,2,0,P|470:236|490:154,1,140,6|0,1:2|1:0,0:0:0:0:
471,53,108020,1,8,0:0:0:0:
372,17,108255,6,0,P|332:39|309:71,1,70,0|0,0:0|1:0,0:0:0:0:
282,156,108723,2,0,P|242:134|219:102,1,70,0|8,1:0|0:0,0:0:0:0:
223,70,109075,1,0,1:0:0:0:
223,70,109192,2,0,L|122:87,1,70,0|0,0:0|1:0,0:0:0:0:
103,174,109661,5,0,1:0:0:0:
20,108,109895,1,8,0:0:0:0:
97,40,110130,2,0,P|138:67|168:98,1,70,2|0,0:0|1:0,0:0:0:0:
103,174,110598,5,4,1:3:0:0:
207,171,110833,1,4,1:3:0:0:
242,269,111067,2,0,P|282:283|384:280,1,140,14|0,0:0|1:0,0:0:0:0:
431,190,111770,2,0,P|385:174|355:172,1,70,8|0,0:0|0:0,0:0:0:0:
318,197,112122,1,0,0:0:0:0:
318,197,112239,1,0,1:0:0:0:
294,94,112473,1,4,1:2:0:0:
385,40,112708,1,8,0:0:0:0:
385,40,112825,1,8,0:0:0:0:
385,40,112942,2,0,B|396:12|396:12|435:5|474:17,1,105,4|0,1:2|0:0,0:0:0:0:
503,56,113411,5,0,1:0:0:0:
422,123,113645,1,8,0:0:0:0:
489,204,113880,1,0,0:0:0:0:
408,271,114114,2,0,P|365:278|324:272,1,70,0|0,1:0|1:0,0:0:0:0:
280,192,114583,5,8,0:0:0:0:
226,282,114817,1,0,0:0:0:0:
136,228,115052,1,0,1:0:0:0:
136,228,115169,1,0,0:0:0:0:
136,228,115286,1,0,1:0:0:0:
57,297,115520,1,8,0:0:0:0:
37,194,115755,6,0,P|31:151|37:109,1,70,4|0,1:2|1:0,0:0:0:0:
49,20,116223,1,0,1:0:0:0:
130,85,116458,1,8,0:0:0:0:
33,124,116692,6,0,P|31:159|48:235,1,105,6|0,1:2|0:0,0:0:0:0:
88,256,117161,1,8,0:0:0:0:
45,352,117395,1,8,0:0:0:0:
150,342,117630,6,0,P|199:324|223:303,1,70,6|8,1:2|0:0,0:0:0:0:
261,220,118098,1,0,1:0:0:0:
314,310,118333,1,8,3:0:0:0:
314,310,118450,1,0,0:0:0:0:
314,310,118567,6,0,L|401:325,1,70,6|0,1:2|0:0,0:0:0:0:
432,305,118919,1,8,0:0:0:0:
432,305,119036,1,8,0:0:0:0:
415,202,119270,1,8,0:0:0:0:
397,98,119505,5,0,1:0:0:0:
379,96,119622,1,0,1:0:0:0:
362,94,119739,1,8,3:0:0:0:
345,92,119856,1,8,3:0:0:0:
328,90,119973,1,8,3:0:0:0:
223,75,120208,1,0,1:0:0:0:
119,62,120442,1,0,1:0:0:0:
51,223,124192,6,0,P|105:221|145:207,1,83.9999974365235,6|0,1:2|0:0,0:0:0:0:
156,171,124544,1,0,0:0:0:0:
156,171,124661,1,2,1:2:0:0:
142,296,124895,1,10,0:0:0:0:
257,348,125130,1,2,0:0:0:0:
277,344,125247,1,0,0:0:0:0:
298,340,125364,1,2,1:2:0:0:
366,234,125598,2,0,P|329:211|281:206,1,83.9999974365235,2|10,1:2|0:2,0:0:0:0:
404,152,126067,6,0,P|424:103|462:62,1,83.9999974365235,2|0,1:2|0:0,0:0:0:0:
492,69,126419,1,0,0:0:0:0:
492,69,126536,1,2,1:2:0:0:
375,19,126770,1,10,0:0:0:0:
292,115,127005,5,2,0:0:0:0:
271,111,127122,1,0,0:0:0:0:
250,107,127239,1,0,1:0:0:0:
229,104,127356,1,0,0:0:0:0:
209,100,127473,1,2,1:2:0:0:
136,203,127708,1,10,0:2:0:0:
157,199,127825,1,2,1:2:0:0:
177,196,127942,1,2,0:2:0:0:
198,192,128059,1,2,0:2:0:0:
219,188,128177,6,0,P|271:199|304:221,1,83.9999974365235,4|2,1:2|0:0,0:0:0:0:
310,267,128528,1,0,0:0:0:0:
310,267,128645,1,10,0:0:0:0:
194,316,128880,1,0,0:0:0:0:
136,203,129114,6,0,L|52:188,1,83.9999974365235,2|2,1:2|1:2,0:0:0:0:
153,111,129583,1,10,0:0:0:0:
277,89,129817,1,2,1:2:0:0:
299,213,130052,2,0,P|344:240|377:245,1,83.9999974365235,2|2,0:0|1:2,0:0:0:0:
421,222,130403,1,0,0:0:0:0:
421,222,130520,5,10,0:0:0:0:
395,332,130755,1,0,0:0:0:0:
391,352,130872,1,0,0:0:0:0:
387,373,130989,1,2,1:2:0:0:
261,383,131223,2,0,P|224:348|204:309,1,83.9999974365235,2|10,1:2|0:0,0:0:0:0:
240,197,131692,6,0,P|197:228|120:250,1,125.999996154785,6|0,1:2|0:0,0:0:0:0:
82,228,132161,1,2,1:2:0:0:
116,349,132395,1,10,0:0:0:0:
237,315,132630,1,4,1:2:0:0:
478,241,133098,5,2,1:2:0:0:
444,120,133333,1,8,0:0:0:0:
323,154,133567,2,0,P|270:170|236:169,1,83.9999974365235,4|0,1:2|0:0,0:0:0:0:
131,109,134036,1,0,1:0:0:0:
221,21,134270,5,8,0:0:0:0:
241,17,134387,1,0,0:0:0:0:
262,13,134505,1,0,1:0:0:0:
283,10,134622,1,4,0:0:0:0:
94,23,134973,5,10,0:0:0:0:
73,19,135091,1,10,3:0:0:0:
52,16,135208,1,10,3:0:0:0:
32,12,135325,1,2,3:0:0:0:
11,8,135442,5,4,1:2:0:0:
88,107,135677,1,0,0:0:0:0:
18,211,135911,1,2,1:2:0:0:
95,310,136145,6,0,P|148:324|182:324,1,83.9999974365235,10|0,0:0|0:0,0:0:0:0:
232,211,136614,2,0,P|179:197|145:197,1,83.9999974365235,2|0,1:2|1:0,0:0:0:0:
105,226,136966,1,0,0:0:0:0:
105,226,137083,1,10,0:0:0:0:
170,117,137317,1,2,1:2:0:0:
294,146,137552,6,0,P|351:154|392:149,1,83.9999974365235,2|2,0:0|1:2,0:0:0:0:
417,120,137903,1,0,0:0:0:0:
417,120,138020,1,10,0:0:0:0:
359,231,138255,1,0,0:0:0:0:
447,321,138489,5,2,1:2:0:0:
325,352,138723,2,0,P|272:348|235:336,1,83.9999974365235,2|8,1:2|0:0,0:0:0:0:
177,231,139192,6,0,P|160:274|110:341,1,125.999996154785,2|0,0:0|0:0,0:0:0:0:
62,349,139661,1,2,1:2:0:0:
2,237,139895,1,10,0:2:0:0:
114,177,140130,2,0,P|140:144|159:90,1,83.9999974365235,2|0,0:0|1:0,0:0:0:0:
31,83,140598,5,2,1:2:0:0:
114,177,140833,1,10,0:0:0:0:
230,128,141067,2,0,P|287:114|371:130,1,125.999996154785,2|0,1:2|0:0,0:0:0:0:
380,165,141536,1,2,1:2:0:0:
402,40,141770,1,10,0:0:0:0:
277,18,142005,1,2,0:0:0:0:
256,21,142122,1,0,0:0:0:0:
235,25,142239,5,0,1:0:0:0:
284,141,142473,1,4,1:2:0:0:
189,223,142708,1,8,0:0:0:0:
81,157,142942,1,0,0:0:0:0:
84,136,143059,1,0,0:0:0:0:
88,115,143177,6,0,P|117:81|152:58,1,83.9999974365235,4|2,1:2|0:0,0:0:0:0:
199,63,143528,1,0,0:0:0:0:
199,63,143645,1,10,0:0:0:0:
89,1,143880,1,0,0:0:0:0:
0,90,144114,6,0,P|-5:144|-2:176,1,83.9999974365235,2|0,1:2|1:2,0:0:0:0:
61,282,144583,2,0,P|110:259|136:240,1,83.9999974365235,10|2,0:0|1:2,0:0:0:0:
146,193,144934,1,0,0:0:0:0:
146,193,145052,5,2,0:0:0:0:
196,308,145286,1,2,1:2:0:0:
311,258,145520,2,0,P|361:245|405:250,1,83.9999974365235,10|0,0:0|0:0,0:0:0:0:
488,328,145989,5,2,1:2:0:0:
369,371,146223,1,6,1:2:0:0:
392,247,146458,1,8,0:0:0:0:
511,205,146692,1,4,1:2:0:0:
278,108,147161,5,8,3:0:0:0:
175,182,147395,1,8,3:0:0:0:
154,178,147512,1,8,3:0:0:0:
133,174,147630,1,0,1:0:0:0:
58,275,147864,1,8,0:0:0:0:
78,271,147981,1,8,0:0:0:0:
99,268,148098,1,2,1:2:0:0:
175,368,148333,1,8,0:0:0:0:
155,364,148450,1,8,0:0:0:0:
134,361,148567,5,14,0:0:0:0:
256,192,150442,12,0,152552,0:0:0:0:
