osu file format v14

[General]
AudioFilename: audio.mp3
AudioLeadIn: 0
PreviewTime: 117881
Countdown: 0
SampleSet: Soft
StackLeniency: 0.7
Mode: 1
LetterboxInBreaks: 0
WidescreenStoryboard: 1

[Editor]
Bookmarks: 4088,76847,79605
DistanceSpacing: 1
BeatDivisor: 2
GridSize: 32
TimelineZoom: 1.4

[Metadata]
Title:Reanimate
TitleUnicode:Reanimate
Artist:Warak
ArtistUnicode:Warak
Creator:Evelynn
Version:Lucy X Jason [Muzukashii]
Source:节奏大师
Tags:Jason X Lucy BaronVonAnime rhythm master tencent games symphonic drumstep
BeatmapID:1438470
BeatmapSetID:674581

[Difficulty]
HPDrainRate:6
CircleSize:4
OverallDifficulty:8
ApproachRate:9
SliderMultiplier:1.4
SliderTickRate:1

[Events]
//Background and Video events
0,0,"2.jpg",0,0
//Break Periods
//Storyboard Layer 0 (Background)
//Storyboard Layer 1 (Fail)
//Storyboard Layer 2 (Pass)
//Storyboard Layer 3 (Foreground)
//Storyboard Sound Samples

[TimingPoints]
2364.53757225434,344.827586206897,4,2,0,100,1,0
46502,-100,4,2,0,100,0,1
67192,-100,4,2,0,100,0,0
118226,-100,4,2,0,100,0,1
145123,-100,4,2,0,100,0,0

[HitObjects]
192,256,2364,5,4,0:0:0:0:
192,128,2709,1,0,0:0:0:0:
192,128,2881,1,0,0:0:0:0:
320,128,3054,1,8,0:0:0:0:
192,128,3399,1,0,0:0:0:0:
192,128,3571,1,0,0:0:0:0:
320,128,3743,1,8,0:0:0:0:
320,128,3916,1,8,0:0:0:0:
192,128,4088,1,0,0:0:0:0:
320,128,5123,1,8,0:0:0:0:
192,128,5295,1,0,0:0:0:0:
192,128,5467,1,0,0:0:0:0:
192,128,5640,1,0,0:0:0:0:
320,128,5812,1,8,0:0:0:0:
320,128,6157,1,8,0:0:0:0:
192,128,6330,1,0,0:0:0:0:
320,128,6502,1,8,0:0:0:0:
192,128,6847,1,0,0:0:0:0:
320,128,7881,1,8,0:0:0:0:
320,128,8054,1,8,0:0:0:0:
192,128,8226,1,0,0:0:0:0:
192,128,8399,1,0,0:0:0:0:
320,128,8571,1,8,0:0:0:0:
192,128,8916,1,0,0:0:0:0:
192,128,9088,1,0,0:0:0:0:
320,128,9261,1,8,0:0:0:0:
192,128,9605,1,0,0:0:0:0:
320,128,9950,1,8,0:0:0:0:
320,128,10640,1,8,0:0:0:0:
192,128,10985,1,0,0:0:0:0:
320,128,11330,1,8,0:0:0:0:
192,128,11674,1,0,0:0:0:0:
320,128,12019,1,8,0:0:0:0:
320,128,12192,1,8,0:0:0:0:
192,128,12364,1,0,0:0:0:0:
320,128,12709,1,8,0:0:0:0:
320,128,13399,1,8,0:0:0:0:
192,128,13743,1,0,0:0:0:0:
320,128,14088,1,8,0:0:0:0:
192,128,14433,1,0,0:0:0:0:
192,128,14605,1,0,0:0:0:0:
192,128,14778,1,0,0:0:0:0:
320,128,14950,1,8,0:0:0:0:
320,128,15123,1,8,0:0:0:0:
320,128,15467,1,8,0:0:0:0:
320,128,16157,1,8,0:0:0:0:
192,128,16502,1,0,0:0:0:0:
320,128,16847,1,8,0:0:0:0:
192,128,17192,1,0,0:0:0:0:
192,128,17364,1,0,0:0:0:0:
192,128,17536,1,0,0:0:0:0:
320,128,17709,1,8,0:0:0:0:
192,128,17881,1,0,0:0:0:0:
320,128,18226,1,8,0:0:0:0:
320,128,18916,1,8,0:0:0:0:
192,128,19261,1,0,0:0:0:0:
320,128,19605,1,8,0:0:0:0:
320,128,19950,1,8,0:0:0:0:
192,128,20123,1,0,0:0:0:0:
192,128,20295,1,0,0:0:0:0:
320,128,20467,1,8,0:0:0:0:
320,128,20640,1,8,0:0:0:0:
320,128,20985,1,8,0:0:0:0:
192,128,21674,1,0,0:0:0:0:
192,128,22019,1,0,0:0:0:0:
320,128,22364,1,8,0:0:0:0:
192,128,23226,1,0,0:0:0:0:
320,128,23399,1,8,0:0:0:0:
320,128,23743,1,8,0:0:0:0:
192,256,24433,1,4,0:0:0:0:
192,128,26157,1,0,0:0:0:0:
192,128,26502,1,0,0:0:0:0:
192,128,26847,1,0,0:0:0:0:
320,128,27192,1,8,0:0:0:0:
192,128,27881,1,0,0:0:0:0:
320,128,28571,1,8,0:0:0:0:
192,128,28916,1,0,0:0:0:0:
192,128,29261,1,0,0:0:0:0:
192,128,29605,1,0,0:0:0:0:
192,128,29950,1,0,0:0:0:0:
320,128,30640,1,8,0:0:0:0:
192,128,31330,1,0,0:0:0:0:
320,128,31674,1,8,0:0:0:0:
192,128,32019,1,0,0:0:0:0:
320,128,32709,1,8,0:0:0:0:
192,128,33399,1,0,0:0:0:0:
320,128,34088,1,8,0:0:0:0:
320,128,34433,1,8,0:0:0:0:
192,128,34778,1,0,0:0:0:0:
192,128,35123,1,0,0:0:0:0:
320,128,35467,1,8,0:0:0:0:
192,128,36157,1,0,0:0:0:0:
192,128,36847,1,0,0:0:0:0:
320,128,37192,1,8,0:0:0:0:
320,128,37536,1,8,0:0:0:0:
192,128,37881,1,0,0:0:0:0:
320,128,38226,1,8,0:0:0:0:
192,128,38916,1,0,0:0:0:0:
320,128,39605,1,8,0:0:0:0:
192,128,39950,1,0,0:0:0:0:
320,128,40295,1,8,0:0:0:0:
320,128,40640,1,8,0:0:0:0:
192,128,40985,1,0,0:0:0:0:
320,128,41674,1,8,0:0:0:0:
192,128,42364,1,0,0:0:0:0:
192,128,42709,1,0,0:0:0:0:
320,128,43054,1,8,0:0:0:0:
192,128,43743,1,0,0:0:0:0:
320,128,44433,1,8,0:0:0:0:
192,128,45123,1,0,0:0:0:0:
192,256,45467,1,4,0:0:0:0:
320,256,45812,1,6,0:0:0:0:
192,256,46502,1,4,0:0:0:0:
320,128,46847,1,8,0:0:0:0:
320,128,47019,1,8,0:0:0:0:
192,128,47192,1,0,0:0:0:0:
192,128,47364,1,0,0:0:0:0:
320,128,47536,1,8,0:0:0:0:
192,128,47709,1,0,0:0:0:0:
192,128,47881,1,0,0:0:0:0:
320,128,48226,1,8,0:0:0:0:
192,128,48571,1,0,0:0:0:0:
320,128,49261,1,8,0:0:0:0:
192,128,49605,1,0,0:0:0:0:
320,128,49778,1,8,0:0:0:0:
192,128,49950,1,0,0:0:0:0:
320,128,50123,1,8,0:0:0:0:
192,128,50295,1,0,0:0:0:0:
320,128,50467,1,8,0:0:0:0:
192,128,50640,1,0,0:0:0:0:
320,128,50985,1,8,0:0:0:0:
320,128,51330,1,8,0:0:0:0:
192,128,52019,1,0,0:0:0:0:
320,128,52364,1,8,0:0:0:0:
320,128,52536,1,8,0:0:0:0:
192,128,52709,1,0,0:0:0:0:
320,128,53054,1,8,0:0:0:0:
192,128,53399,1,0,0:0:0:0:
320,128,54088,1,8,0:0:0:0:
192,128,54778,1,0,0:0:0:0:
192,128,55123,1,0,0:0:0:0:
192,128,55295,1,0,0:0:0:0:
320,128,55467,1,8,0:0:0:0:
320,128,55640,1,8,0:0:0:0:
192,128,55812,1,0,0:0:0:0:
320,128,55985,1,8,0:0:0:0:
192,256,56157,1,4,0:0:0:0:
192,256,56502,1,4,0:0:0:0:
192,256,56847,1,4,0:0:0:0:
320,256,57192,1,6,0:0:0:0:
192,256,57536,1,4,0:0:0:0:
320,128,58226,1,8,0:0:0:0:
320,128,58399,1,8,0:0:0:0:
192,128,58916,1,0,0:0:0:0:
320,128,59088,1,8,0:0:0:0:
192,128,59261,1,0,0:0:0:0:
320,128,59433,1,8,0:0:0:0:
320,128,59605,1,8,0:0:0:0:
320,128,59950,1,8,0:0:0:0:
192,128,60295,1,0,0:0:0:0:
320,128,60985,1,8,0:0:0:0:
192,128,61674,1,0,0:0:0:0:
320,128,62019,1,8,0:0:0:0:
320,128,62192,1,8,0:0:0:0:
192,128,62364,1,0,0:0:0:0:
320,128,62709,1,8,0:0:0:0:
192,128,63054,1,0,0:0:0:0:
320,128,63743,1,8,0:0:0:0:
192,128,64261,1,0,0:0:0:0:
320,128,64433,1,8,0:0:0:0:
192,128,64778,1,0,0:0:0:0:
320,128,64950,1,8,0:0:0:0:
192,128,65123,1,0,0:0:0:0:
320,128,65295,1,8,0:0:0:0:
192,128,65467,1,0,0:0:0:0:
320,128,65640,1,8,0:0:0:0:
192,128,65812,1,0,0:0:0:0:
320,128,66157,1,8,0:0:0:0:
192,128,66330,1,0,0:0:0:0:
320,128,66502,1,8,0:0:0:0:
320,128,66674,1,8,0:0:0:0:
192,128,66847,1,0,0:0:0:0:
192,128,67019,1,0,0:0:0:0:
320,128,67192,1,8,0:0:0:0:
192,128,67881,1,0,0:0:0:0:
320,256,68571,1,6,0:0:0:0:
320,128,69261,1,8,0:0:0:0:
192,128,70123,1,0,0:0:0:0:
192,128,70295,1,0,0:0:0:0:
320,128,70640,1,8,0:0:0:0:
192,128,71330,1,0,0:0:0:0:
320,128,72019,1,8,0:0:0:0:
192,128,72881,1,0,0:0:0:0:
192,128,73054,1,0,0:0:0:0:
320,128,73399,1,8,0:0:0:0:
192,128,74088,1,0,0:0:0:0:
320,128,74778,1,8,0:0:0:0:
192,128,75640,1,0,0:0:0:0:
192,128,75812,1,0,0:0:0:0:
320,128,76157,1,8,0:0:0:0:
192,128,76847,1,0,0:0:0:0:
192,128,79605,1,0,0:0:0:0:
320,128,80295,1,8,0:0:0:0:
192,128,81157,1,0,0:0:0:0:
192,128,81330,1,0,0:0:0:0:
320,128,81674,1,8,0:0:0:0:
192,128,82364,1,0,0:0:0:0:
320,128,83054,1,8,0:0:0:0:
192,128,83916,1,0,0:0:0:0:
192,128,84088,1,0,0:0:0:0:
320,128,84433,1,8,0:0:0:0:
192,128,85123,1,0,0:0:0:0:
320,128,85812,1,8,0:0:0:0:
192,128,86674,1,0,0:0:0:0:
192,128,86847,1,0,0:0:0:0:
320,128,87192,1,8,0:0:0:0:
192,128,87881,1,0,0:0:0:0:
320,128,88571,1,8,0:0:0:0:
192,128,89433,1,0,0:0:0:0:
192,128,89605,1,0,0:0:0:0:
320,128,89950,1,8,0:0:0:0:
192,128,90640,1,0,0:0:0:0:
320,128,91330,1,8,0:0:0:0:
192,128,92192,1,0,0:0:0:0:
192,128,92364,1,0,0:0:0:0:
320,128,92709,1,8,0:0:0:0:
192,128,93399,1,0,0:0:0:0:
320,128,94088,1,8,0:0:0:0:
192,128,94950,1,0,0:0:0:0:
192,128,95123,1,0,0:0:0:0:
320,128,95467,1,8,0:0:0:0:
192,128,96157,1,0,0:0:0:0:
320,128,96847,1,8,0:0:0:0:
192,128,97709,1,0,0:0:0:0:
192,128,97881,1,0,0:0:0:0:
320,128,98226,1,8,0:0:0:0:
192,128,98916,1,0,0:0:0:0:
192,128,99605,1,0,0:0:0:0:
192,128,100295,1,0,0:0:0:0:
192,128,100640,1,0,0:0:0:0:
192,128,100985,1,0,0:0:0:0:
192,128,101330,1,0,0:0:0:0:
192,128,101674,1,0,0:0:0:0:
192,128,102364,1,0,0:0:0:0:
192,128,103054,1,0,0:0:0:0:
192,128,103399,1,0,0:0:0:0:
192,128,104433,1,0,0:0:0:0:
192,128,105123,1,0,0:0:0:0:
192,128,105812,1,0,0:0:0:0:
192,128,106157,1,0,0:0:0:0:
192,128,107192,1,0,0:0:0:0:
192,128,107881,1,0,0:0:0:0:
192,128,108571,1,0,0:0:0:0:
192,128,108916,1,0,0:0:0:0:
192,128,109261,1,0,0:0:0:0:
192,128,109950,1,0,0:0:0:0:
192,128,110640,1,0,0:0:0:0:
192,128,111330,1,0,0:0:0:0:
256,192,111674,12,0,116847,0:0:0:0:
192,128,117881,5,0,0:0:0:0:
192,256,118226,1,4,0:0:0:0:
192,128,118571,1,0,0:0:0:0:
192,128,118743,1,0,0:0:0:0:
320,128,118916,1,8,0:0:0:0:
320,128,119088,1,8,0:0:0:0:
192,128,119261,1,0,0:0:0:0:
192,128,119605,1,0,0:0:0:0:
320,128,119778,1,8,0:0:0:0:
192,128,119950,1,0,0:0:0:0:
320,128,120123,1,8,0:0:0:0:
192,128,120295,1,0,0:0:0:0:
320,128,120467,1,8,0:0:0:0:
192,128,120640,1,0,0:0:0:0:
320,128,120812,1,8,0:0:0:0:
320,128,120985,1,8,0:0:0:0:
192,128,121674,1,0,0:0:0:0:
320,128,122364,1,8,0:0:0:0:
192,128,122709,1,0,0:0:0:0:
320,128,123054,1,8,0:0:0:0:
320,128,123226,1,8,0:0:0:0:
192,128,123399,1,0,0:0:0:0:
192,128,123571,1,0,0:0:0:0:
320,128,123743,1,8,0:0:0:0:
192,128,124433,1,0,0:0:0:0:
320,128,124778,1,8,0:0:0:0:
192,128,125123,1,0,0:0:0:0:
320,128,125467,1,8,0:0:0:0:
192,128,125640,1,0,0:0:0:0:
320,128,125812,1,8,0:0:0:0:
320,128,125985,1,8,0:0:0:0:
192,128,126157,1,0,0:0:0:0:
192,128,126502,1,0,0:0:0:0:
192,128,127019,1,0,0:0:0:0:
320,128,127192,1,8,0:0:0:0:
192,128,127536,1,0,0:0:0:0:
320,128,127881,1,8,0:0:0:0:
320,128,128226,1,8,0:0:0:0:
192,128,128571,1,0,0:0:0:0:
192,128,128916,1,0,0:0:0:0:
320,128,129261,1,8,0:0:0:0:
192,128,129950,1,0,0:0:0:0:
320,128,130640,1,8,0:0:0:0:
192,128,130812,1,0,0:0:0:0:
320,128,130985,1,8,0:0:0:0:
192,128,131330,1,0,0:0:0:0:
320,128,132019,1,8,0:0:0:0:
192,128,132709,1,0,0:0:0:0:
320,128,133399,1,8,0:0:0:0:
192,128,133743,1,0,0:0:0:0:
320,128,134088,1,8,0:0:0:0:
320,128,134433,1,8,0:0:0:0:
192,128,134778,1,0,0:0:0:0:
320,128,135467,1,8,0:0:0:0:
192,128,136157,1,0,0:0:0:0:
192,128,136330,1,0,0:0:0:0:
320,128,136502,1,8,0:0:0:0:
192,128,136847,1,0,0:0:0:0:
192,128,137536,1,0,0:0:0:0:
320,128,138226,1,8,0:0:0:0:
192,256,138916,1,4,0:0:0:0:
320,128,139605,1,8,0:0:0:0:
192,256,140295,1,4,0:0:0:0:
320,128,140985,1,8,0:0:0:0:
192,128,141330,1,0,0:0:0:0:
192,256,141674,1,4,0:0:0:0:
320,128,142364,1,8,0:0:0:0:
192,256,143054,1,4,0:0:0:0:
192,128,143399,1,0,0:0:0:0:
320,256,143743,1,6,0:0:0:0:
192,128,144433,1,0,0:0:0:0:
192,128,144778,1,0,0:0:0:0:
320,256,145123,1,6,0:0:0:0:
192,128,146157,1,0,0:0:0:0:
192,128,146502,1,0,0:0:0:0:
192,128,146847,1,0,0:0:0:0:
320,128,147192,1,8,0:0:0:0:
192,128,147709,1,0,0:0:0:0:
192,128,147881,1,0,0:0:0:0:
192,128,148226,1,0,0:0:0:0:
320,128,148571,1,8,0:0:0:0:
192,128,149261,1,0,0:0:0:0:
192,128,149950,1,0,0:0:0:0:
320,256,150295,1,6,0:0:0:0:
192,256,150640,1,4,0:0:0:0:
