osu file format v14

[General]
AudioFilename: Warak - Reanimate.mp3
AudioLeadIn: 0
PreviewTime: -1
Countdown: 0
SampleSet: Soft
StackLeniency: 0.7
Mode: 3
LetterboxInBreaks: 0
SpecialStyle: 0
WidescreenStoryboard: 1

[Editor]
Bookmarks: 1296,12330,23364,45433
DistanceSpacing: 0.8
BeatDivisor: 4
GridSize: 4
TimelineZoom: 1.2

[Metadata]
Title:Reanimate
TitleUnicode:暗夜苏醒
Artist:Warak
ArtistUnicode:Warak
Creator:Chronocide
Version:Hard
Source:节奏大师
Tags:rhythm master tencent games skystar spectator dubstep drumstep
BeatmapID:898286
BeatmapSetID:414395

[Difficulty]
HPDrainRate:7
CircleSize:4
OverallDifficulty:7
ApproachRate:5
SliderMultiplier:1.4
SliderTickRate:1

[Events]
//Background and Video events
0,0,"Untitled.jpg",0,0
//Break Periods
//Storyboard Layer 0 (Background)
//Storyboard Layer 1 (Fail)
//Storyboard Layer 2 (Pass)
//Storyboard Layer 3 (Foreground)
//Storyboard Sound Samples

[TimingPoints]
1296,344.827586206897,4,2,0,50,1,0

[HitObjects]
64,192,1296,5,0,0:0:0:0:
192,192,1296,1,0,0:0:0:0:
448,192,1382,1,0,0:0:0:0:
192,192,1468,1,0,0:0:0:0:
320,192,1554,1,0,0:0:0:0:
64,192,1640,1,0,0:0:0:0:
320,192,1813,1,0,0:0:0:0:
448,192,1813,128,0,1985:0:0:0:0:
192,192,1985,128,0,2330:0:0:0:0:
448,192,2330,1,0,0:0:0:0:
64,192,2416,1,0,0:0:0:0:
320,192,2502,1,0,0:0:0:0:
64,192,2589,1,0,0:0:0:0:
192,192,2675,1,0,0:0:0:0:
320,192,2847,1,0,0:0:0:0:
448,192,3020,128,0,3709:0:0:0:0:
64,192,3364,1,0,0:0:0:0:
192,192,3537,1,0,0:0:0:0:
320,192,3709,128,0,4054:0:0:0:0:
64,192,4054,1,0,0:0:0:0:
192,192,4140,1,0,0:0:0:0:
64,192,4227,1,0,0:0:0:0:
192,192,4313,1,0,0:0:0:0:
448,192,4399,1,0,0:0:0:0:
320,192,4571,1,0,0:0:0:0:
64,192,4744,128,0,5089:0:0:0:0:
192,192,5089,128,0,5261:0:0:0:0:
448,192,5261,1,0,0:0:0:0:
320,192,5433,1,0,0:0:0:0:
192,192,5692,1,0,0:0:0:0:
64,192,5778,128,0,6468:0:0:0:0:
448,192,6123,1,0,0:0:0:0:
320,192,6382,1,0,0:0:0:0:
192,192,6468,128,0,6813:0:0:0:0:
320,192,6813,1,0,0:0:0:0:
448,192,6899,1,0,0:0:0:0:
320,192,6985,1,0,0:0:0:0:
64,192,7071,1,0,0:0:0:0:
192,192,7158,1,0,0:0:0:0:
320,192,7330,1,0,0:0:0:0:
448,192,7502,1,0,0:0:0:0:
192,192,7502,128,0,7847:0:0:0:0:
64,192,7847,1,0,0:0:0:0:
448,192,8020,1,0,0:0:0:0:
320,192,8192,1,0,0:0:0:0:
192,192,8278,1,0,0:0:0:0:
64,192,8364,1,0,0:0:0:0:
192,192,8451,1,0,0:0:0:0:
64,192,8537,1,0,0:0:0:0:
192,192,8623,1,0,0:0:0:0:
320,192,8709,1,0,0:0:0:0:
192,192,8796,1,0,0:0:0:0:
448,192,8882,128,0,9227:0:0:0:0:
192,192,9399,1,0,0:0:0:0:
320,192,9485,1,0,0:0:0:0:
448,192,9571,1,0,0:0:0:0:
192,192,9830,1,0,0:0:0:0:
64,192,9916,1,0,0:0:0:0:
320,192,10175,1,0,0:0:0:0:
448,192,10261,1,0,0:0:0:0:
192,192,10520,1,0,0:0:0:0:
64,192,10606,1,0,0:0:0:0:
320,192,10864,1,0,0:0:0:0:
448,192,10951,1,0,0:0:0:0:
192,192,11123,1,0,0:0:0:0:
64,192,11209,1,0,0:0:0:0:
320,192,11296,128,0,11985:0:0:0:0:
192,192,11640,128,0,11985:0:0:0:0:
64,192,11985,128,0,12330:0:0:0:0:
448,192,12330,1,0,0:0:0:0:
320,192,12416,1,0,0:0:0:0:
448,192,12502,1,0,0:0:0:0:
320,192,12589,1,0,0:0:0:0:
448,192,12675,1,0,0:0:0:0:
192,192,12847,1,0,0:0:0:0:
64,192,13020,1,0,0:0:0:0:
448,192,13020,1,0,0:0:0:0:
320,192,13364,1,0,0:0:0:0:
192,192,13451,1,0,0:0:0:0:
64,192,13537,1,0,0:0:0:0:
192,192,13623,1,0,0:0:0:0:
448,192,13709,1,0,0:0:0:0:
320,192,13709,1,0,0:0:0:0:
192,192,13882,1,0,0:0:0:0:
64,192,13882,1,0,0:0:0:0:
192,192,14054,1,0,0:0:0:0:
320,192,14054,1,0,0:0:0:0:
192,192,14399,1,0,0:0:0:0:
64,192,14399,1,0,0:0:0:0:
320,192,14571,1,0,0:0:0:0:
448,192,14571,1,0,0:0:0:0:
192,192,14744,1,0,0:0:0:0:
320,192,14744,1,0,0:0:0:0:
448,192,15089,1,0,0:0:0:0:
320,192,15175,1,0,0:0:0:0:
192,192,15261,1,0,0:0:0:0:
64,192,15347,1,0,0:0:0:0:
192,192,15433,1,0,0:0:0:0:
320,192,15606,1,0,0:0:0:0:
64,192,15778,1,0,0:0:0:0:
448,192,15778,1,0,0:0:0:0:
192,192,16123,1,0,0:0:0:0:
320,192,16296,1,0,0:0:0:0:
64,192,16468,1,0,0:0:0:0:
448,192,16468,1,0,0:0:0:0:
320,192,16727,1,0,0:0:0:0:
192,192,16813,1,0,0:0:0:0:
64,192,16813,1,0,0:0:0:0:
320,192,17158,1,0,0:0:0:0:
192,192,17416,1,0,0:0:0:0:
320,192,17502,1,0,0:0:0:0:
448,192,17502,1,0,0:0:0:0:
64,192,17847,1,0,0:0:0:0:
448,192,17847,1,0,0:0:0:0:
320,192,17933,1,0,0:0:0:0:
448,192,18020,1,0,0:0:0:0:
320,192,18106,1,0,0:0:0:0:
448,192,18192,1,0,0:0:0:0:
192,192,18364,1,0,0:0:0:0:
448,192,18537,1,0,0:0:0:0:
64,192,18537,1,0,0:0:0:0:
320,192,18882,1,0,0:0:0:0:
64,192,19054,1,0,0:0:0:0:
448,192,19227,1,0,0:0:0:0:
320,192,19313,1,0,0:0:0:0:
192,192,19399,1,0,0:0:0:0:
64,192,19485,1,0,0:0:0:0:
192,192,19571,1,0,0:0:0:0:
64,192,19658,1,0,0:0:0:0:
192,192,19744,1,0,0:0:0:0:
320,192,19830,1,0,0:0:0:0:
448,192,19916,1,0,0:0:0:0:
192,192,20433,1,0,0:0:0:0:
192,192,20606,1,0,0:0:0:0:
64,192,20692,1,0,0:0:0:0:
448,192,20778,1,0,0:0:0:0:
320,192,20864,1,0,0:0:0:0:
192,192,20951,1,0,0:0:0:0:
64,192,21037,1,0,0:0:0:0:
448,192,21123,1,0,0:0:0:0:
320,192,21209,1,0,0:0:0:0:
192,192,21296,1,0,0:0:0:0:
64,192,21296,128,0,21813:0:0:0:0:
320,192,21899,1,0,0:0:0:0:
448,192,21985,128,0,23364:0:0:0:0:
64,192,22158,1,0,0:0:0:0:
192,192,22330,1,0,0:0:0:0:
64,192,22675,1,0,0:0:0:0:
320,192,22675,1,0,0:0:0:0:
64,192,23020,128,0,23364:0:0:0:0:
192,192,23364,1,0,0:0:0:0:
320,192,23364,1,0,0:0:0:0:
64,192,23709,1,0,0:0:0:0:
320,192,23709,1,0,0:0:0:0:
320,192,24054,1,0,0:0:0:0:
192,192,24054,1,0,0:0:0:0:
192,192,24399,1,0,0:0:0:0:
448,192,24399,1,0,0:0:0:0:
448,192,24744,1,0,0:0:0:0:
64,192,24744,1,0,0:0:0:0:
448,192,25089,128,0,25433:0:0:0:0:
64,192,25433,128,0,25778:0:0:0:0:
320,192,25778,128,0,26123:0:0:0:0:
64,192,26123,1,0,0:0:0:0:
448,192,26123,1,0,0:0:0:0:
192,192,26468,1,0,0:0:0:0:
448,192,26468,1,0,0:0:0:0:
448,192,26813,1,0,0:0:0:0:
64,192,26813,1,0,0:0:0:0:
320,192,27330,1,0,0:0:0:0:
64,192,27330,1,0,0:0:0:0:
192,192,27502,1,0,0:0:0:0:
448,192,27502,1,0,0:0:0:0:
448,192,27847,128,0,28192:0:0:0:0:
64,192,28192,128,0,28537:0:0:0:0:
320,192,28537,128,0,28882:0:0:0:0:
448,192,28882,1,0,0:0:0:0:
64,192,28882,1,0,0:0:0:0:
192,192,29571,1,0,0:0:0:0:
64,192,29571,1,0,0:0:0:0:
448,192,30261,1,0,0:0:0:0:
320,192,30261,1,0,0:0:0:0:
64,192,30606,1,0,0:0:0:0:
192,192,30606,1,0,0:0:0:0:
192,192,30951,1,0,0:0:0:0:
320,192,30951,1,0,0:0:0:0:
448,192,31640,1,0,0:0:0:0:
64,192,31640,1,0,0:0:0:0:
320,192,32330,1,0,0:0:0:0:
192,192,32330,1,0,0:0:0:0:
448,192,33020,1,0,0:0:0:0:
320,192,33020,1,0,0:0:0:0:
192,192,33364,1,0,0:0:0:0:
64,192,33364,1,0,0:0:0:0:
192,192,33709,1,0,0:0:0:0:
320,192,33709,1,0,0:0:0:0:
320,192,34227,128,0,34399:0:0:0:0:
448,192,34399,1,0,0:0:0:0:
64,192,34399,1,0,0:0:0:0:
192,192,34744,128,0,35089:0:0:0:0:
448,192,35089,128,0,35433:0:0:0:0:
64,192,35433,128,0,35778:0:0:0:0:
320,192,35778,128,0,36123:0:0:0:0:
448,192,36123,128,0,36468:0:0:0:0:
192,192,36123,1,0,0:0:0:0:
64,192,36468,1,0,0:0:0:0:
320,192,36468,128,0,36813:0:0:0:0:
448,192,36813,128,0,37158:0:0:0:0:
192,192,36813,1,0,0:0:0:0:
64,192,37158,1,0,0:0:0:0:
320,192,37158,1,0,0:0:0:0:
192,192,37502,128,0,37847:0:0:0:0:
448,192,37847,128,0,38364:0:0:0:0:
192,192,38364,128,0,38537:0:0:0:0:
320,192,38537,128,0,38882:0:0:0:0:
448,192,38882,128,0,39227:0:0:0:0:
192,192,38882,1,0,0:0:0:0:
320,192,39227,128,0,39571:0:0:0:0:
64,192,39227,1,0,0:0:0:0:
448,192,39571,128,0,39916:0:0:0:0:
192,192,39571,1,0,0:0:0:0:
64,192,39916,1,0,0:0:0:0:
192,192,40606,1,0,0:0:0:0:
320,192,40606,1,0,0:0:0:0:
448,192,41296,1,0,0:0:0:0:
320,192,41296,1,0,0:0:0:0:
192,192,41640,1,0,0:0:0:0:
64,192,41640,1,0,0:0:0:0:
192,192,41985,1,0,0:0:0:0:
320,192,41985,1,0,0:0:0:0:
448,192,42675,1,0,0:0:0:0:
64,192,42675,1,0,0:0:0:0:
192,192,43364,1,0,0:0:0:0:
64,192,43364,1,0,0:0:0:0:
448,192,44054,1,0,0:0:0:0:
64,192,44054,1,0,0:0:0:0:
192,192,44399,128,0,44744:0:0:0:0:
320,192,44399,128,0,44744:0:0:0:0:
448,192,44744,128,0,45433:0:0:0:0:
64,192,44744,128,0,45433:0:0:0:0:
192,192,45433,1,0,0:0:0:0:
320,192,45433,1,0,0:0:0:0:
448,192,45778,1,0,0:0:0:0:
192,192,45778,1,0,0:0:0:0:
64,192,45951,1,0,0:0:0:0:
320,192,46123,1,0,0:0:0:0:
320,192,46296,1,0,0:0:0:0:
448,192,46468,1,0,0:0:0:0:
64,192,46468,1,0,0:0:0:0:
192,192,46640,1,0,0:0:0:0:
448,192,46813,1,0,0:0:0:0:
192,192,46813,1,0,0:0:0:0:
64,192,46813,1,0,0:0:0:0:
320,192,46985,1,0,0:0:0:0:
448,192,47158,1,0,0:0:0:0:
192,192,47158,1,0,0:0:0:0:
64,192,47330,128,0,48192:0:0:0:0:
320,192,47675,1,0,0:0:0:0:
448,192,47847,1,0,0:0:0:0:
192,192,47847,1,0,0:0:0:0:
320,192,48020,1,0,0:0:0:0:
320,192,48192,1,0,0:0:0:0:
192,192,48364,1,0,0:0:0:0:
448,192,48537,1,0,0:0:0:0:
64,192,48537,1,0,0:0:0:0:
448,192,48709,1,0,0:0:0:0:
64,192,48709,1,0,0:0:0:0:
64,192,48882,1,0,0:0:0:0:
448,192,48882,1,0,0:0:0:0:
448,192,49054,1,0,0:0:0:0:
64,192,49054,1,0,0:0:0:0:
64,192,49227,1,0,0:0:0:0:
448,192,49227,1,0,0:0:0:0:
448,192,49399,1,0,0:0:0:0:
64,192,49399,1,0,0:0:0:0:
64,192,49571,1,0,0:0:0:0:
448,192,49571,1,0,0:0:0:0:
320,192,49571,128,0,49744:0:0:0:0:
192,192,49744,128,0,49916:0:0:0:0:
448,192,49916,128,0,50089:0:0:0:0:
320,192,50089,128,0,50261:0:0:0:0:
192,192,50261,128,0,50606:0:0:0:0:
64,192,50606,1,0,0:0:0:0:
448,192,50606,1,0,0:0:0:0:
320,192,50778,1,0,0:0:0:0:
192,192,50951,1,0,0:0:0:0:
448,192,50951,1,0,0:0:0:0:
64,192,50951,1,0,0:0:0:0:
320,192,51296,1,0,0:0:0:0:
448,192,51468,1,0,0:0:0:0:
192,192,51640,1,0,0:0:0:0:
64,192,51727,1,0,0:0:0:0:
192,192,51813,1,0,0:0:0:0:
192,192,51985,1,0,0:0:0:0:
320,192,52158,128,0,52330:0:0:0:0:
64,192,52330,1,0,0:0:0:0:
448,192,52330,1,0,0:0:0:0:
192,192,52502,1,0,0:0:0:0:
320,192,52675,1,0,0:0:0:0:
192,192,52847,128,0,53709:0:0:0:0:
448,192,53192,1,0,0:0:0:0:
320,192,53364,1,0,0:0:0:0:
448,192,53537,1,0,0:0:0:0:
320,192,53709,1,0,0:0:0:0:
64,192,53709,1,0,0:0:0:0:
448,192,54054,1,0,0:0:0:0:
192,192,54054,1,0,0:0:0:0:
320,192,54140,1,0,0:0:0:0:
64,192,54140,1,0,0:0:0:0:
192,192,54227,1,0,0:0:0:0:
448,192,54227,1,0,0:0:0:0:
320,192,54313,1,0,0:0:0:0:
64,192,54313,1,0,0:0:0:0:
448,192,54399,1,0,0:0:0:0:
192,192,54399,1,0,0:0:0:0:
192,192,54571,1,0,0:0:0:0:
448,192,54571,1,0,0:0:0:0:
448,192,54744,1,0,0:0:0:0:
192,192,54744,1,0,0:0:0:0:
192,192,54916,1,0,0:0:0:0:
448,192,54916,1,0,0:0:0:0:
64,192,55089,128,0,56468:0:0:0:0:
448,192,55089,128,0,55433:0:0:0:0:
320,192,55433,128,0,55778:0:0:0:0:
192,192,55778,128,0,56123:0:0:0:0:
448,192,56123,128,0,56468:0:0:0:0:
192,192,56468,1,0,0:0:0:0:
320,192,56468,1,0,0:0:0:0:
320,192,56813,1,0,0:0:0:0:
192,192,56985,1,0,0:0:0:0:
448,192,57158,1,0,0:0:0:0:
448,192,57330,1,0,0:0:0:0:
320,192,57502,1,0,0:0:0:0:
64,192,57502,1,0,0:0:0:0:
192,192,57675,128,0,57847:0:0:0:0:
64,192,57847,1,0,0:0:0:0:
448,192,57847,1,0,0:0:0:0:
320,192,58020,1,0,0:0:0:0:
320,192,58192,1,0,0:0:0:0:
320,192,58364,1,0,0:0:0:0:
320,192,58537,1,0,0:0:0:0:
320,192,58709,1,0,0:0:0:0:
320,192,58882,1,0,0:0:0:0:
192,192,58882,1,0,0:0:0:0:
320,192,59054,1,0,0:0:0:0:
448,192,59054,1,0,0:0:0:0:
192,192,59227,1,0,0:0:0:0:
64,192,59227,1,0,0:0:0:0:
448,192,59571,1,0,0:0:0:0:
64,192,59744,1,0,0:0:0:0:
320,192,59916,128,0,60606:0:0:0:0:
192,192,60089,1,0,0:0:0:0:
64,192,60261,1,0,0:0:0:0:
448,192,60261,1,0,0:0:0:0:
192,192,60433,1,0,0:0:0:0:
448,192,60606,1,0,0:0:0:0:
64,192,60778,1,0,0:0:0:0:
192,192,60951,1,0,0:0:0:0:
320,192,61123,1,0,0:0:0:0:
448,192,61296,1,0,0:0:0:0:
64,192,61468,1,0,0:0:0:0:
192,192,61640,1,0,0:0:0:0:
320,192,61813,1,0,0:0:0:0:
448,192,61985,1,0,0:0:0:0:
64,192,61985,1,0,0:0:0:0:
192,192,62330,1,0,0:0:0:0:
320,192,62330,1,0,0:0:0:0:
448,192,62675,1,0,0:0:0:0:
320,192,62761,1,0,0:0:0:0:
448,192,62847,1,0,0:0:0:0:
320,192,62933,1,0,0:0:0:0:
448,192,63020,1,0,0:0:0:0:
64,192,63192,1,0,0:0:0:0:
192,192,63364,1,0,0:0:0:0:
448,192,63364,1,0,0:0:0:0:
320,192,63709,1,0,0:0:0:0:
320,192,63882,1,0,0:0:0:0:
320,192,64054,1,0,0:0:0:0:
320,192,64227,1,0,0:0:0:0:
192,192,64399,128,0,64571:0:0:0:0:
320,192,64571,128,0,64744:0:0:0:0:
448,192,64744,1,0,0:0:0:0:
64,192,64744,1,0,0:0:0:0:
192,192,65089,1,0,0:0:0:0:
64,192,65089,1,0,0:0:0:0:
448,192,65261,1,0,0:0:0:0:
320,192,65433,1,0,0:0:0:0:
192,192,65520,1,0,0:0:0:0:
448,192,65606,1,0,0:0:0:0:
64,192,65692,1,0,0:0:0:0:
320,192,65778,1,0,0:0:0:0:
192,192,65951,1,0,0:0:0:0:
64,192,66123,1,0,0:0:0:0:
448,192,66123,128,0,66813:0:0:0:0:
320,192,66813,128,0,67502:0:0:0:0:
64,192,67502,1,0,0:0:0:0:
448,192,67502,1,0,0:0:0:0:
192,192,67847,128,0,68192:0:0:0:0:
448,192,68192,1,0,0:0:0:0:
64,192,68192,1,0,0:0:0:0:
320,192,68364,1,0,0:0:0:0:
320,192,68537,1,0,0:0:0:0:
320,192,68709,1,0,0:0:0:0:
320,192,68882,1,0,0:0:0:0:
192,192,69054,1,0,0:0:0:0:
64,192,69054,1,0,0:0:0:0:
448,192,69227,1,0,0:0:0:0:
320,192,69227,1,0,0:0:0:0:
320,192,69571,1,0,0:0:0:0:
64,192,69571,128,0,70261:0:0:0:0:
448,192,70261,1,0,0:0:0:0:
320,192,70261,1,0,0:0:0:0:
192,192,70606,128,0,70951:0:0:0:0:
448,192,70951,1,0,0:0:0:0:
320,192,71037,1,0,0:0:0:0:
192,192,71123,1,0,0:0:0:0:
64,192,71209,1,0,0:0:0:0:
192,192,71296,1,0,0:0:0:0:
320,192,71382,1,0,0:0:0:0:
448,192,71468,1,0,0:0:0:0:
320,192,71554,1,0,0:0:0:0:
192,192,71640,1,0,0:0:0:0:
320,192,71813,1,0,0:0:0:0:
448,192,71813,1,0,0:0:0:0:
192,192,71985,1,0,0:0:0:0:
64,192,71985,1,0,0:0:0:0:
448,192,72330,1,0,0:0:0:0:
64,192,72330,1,0,0:0:0:0:
192,192,72502,1,0,0:0:0:0:
192,192,72675,1,0,0:0:0:0:
320,192,73020,1,0,0:0:0:0:
64,192,73020,1,0,0:0:0:0:
192,192,73364,128,0,73709:0:0:0:0:
448,192,73709,1,0,0:0:0:0:
320,192,73882,1,0,0:0:0:0:
320,192,74054,1,0,0:0:0:0:
320,192,74227,1,0,0:0:0:0:
320,192,74399,1,0,0:0:0:0:
192,192,74571,1,0,0:0:0:0:
64,192,74571,1,0,0:0:0:0:
320,192,74744,1,0,0:0:0:0:
448,192,74744,1,0,0:0:0:0:
448,192,75089,1,0,0:0:0:0:
64,192,75089,128,0,75778:0:0:0:0:
320,192,75778,128,0,76123:0:0:0:0:
448,192,76123,128,0,76468:0:0:0:0:
320,192,76468,1,0,0:0:0:0:
192,192,76554,1,0,0:0:0:0:
64,192,76640,1,0,0:0:0:0:
192,192,76727,1,0,0:0:0:0:
320,192,76813,1,0,0:0:0:0:
448,192,76899,1,0,0:0:0:0:
320,192,76985,1,0,0:0:0:0:
192,192,77071,1,0,0:0:0:0:
64,192,77158,128,0,77330:0:0:0:0:
320,192,77330,128,0,77502:0:0:0:0:
192,192,77502,128,0,77675:0:0:0:0:
448,192,77675,128,0,77847:0:0:0:0:
64,192,77847,128,0,78020:0:0:0:0:
320,192,78020,128,0,78192:0:0:0:0:
192,192,78192,128,0,78364:0:0:0:0:
448,192,78364,128,0,78537:0:0:0:0:
192,192,78537,1,0,0:0:0:0:
64,192,78537,1,0,0:0:0:0:
320,192,78537,1,0,0:0:0:0:
448,192,79227,1,0,0:0:0:0:
320,192,79227,1,0,0:0:0:0:
64,192,79227,1,0,0:0:0:0:
192,192,79916,128,0,80089:0:0:0:0:
320,192,80089,1,0,0:0:0:0:
448,192,80089,1,0,0:0:0:0:
192,192,80261,1,0,0:0:0:0:
64,192,80261,1,0,0:0:0:0:
448,192,80606,1,0,0:0:0:0:
320,192,80606,1,0,0:0:0:0:
64,192,80606,1,0,0:0:0:0:
64,192,81296,1,0,0:0:0:0:
192,192,81296,1,0,0:0:0:0:
448,192,81296,1,0,0:0:0:0:
448,192,81985,1,0,0:0:0:0:
320,192,81985,1,0,0:0:0:0:
64,192,81985,1,0,0:0:0:0:
192,192,82675,128,0,82847:0:0:0:0:
448,192,82847,1,0,0:0:0:0:
320,192,82847,1,0,0:0:0:0:
192,192,83020,1,0,0:0:0:0:
64,192,83020,1,0,0:0:0:0:
448,192,83364,1,0,0:0:0:0:
320,192,83364,1,0,0:0:0:0:
64,192,83364,1,0,0:0:0:0:
448,192,84054,1,0,0:0:0:0:
192,192,84054,1,0,0:0:0:0:
64,192,84054,1,0,0:0:0:0:
448,192,84744,1,0,0:0:0:0:
320,192,84744,1,0,0:0:0:0:
64,192,84744,1,0,0:0:0:0:
192,192,85433,128,0,85606:0:0:0:0:
448,192,85606,1,0,0:0:0:0:
320,192,85606,1,0,0:0:0:0:
192,192,85778,1,0,0:0:0:0:
64,192,85778,1,0,0:0:0:0:
448,192,86123,1,0,0:0:0:0:
320,192,86123,1,0,0:0:0:0:
64,192,86123,1,0,0:0:0:0:
448,192,86813,1,0,0:0:0:0:
64,192,86813,1,0,0:0:0:0:
192,192,86813,1,0,0:0:0:0:
448,192,87502,1,0,0:0:0:0:
320,192,87502,1,0,0:0:0:0:
64,192,87502,1,0,0:0:0:0:
192,192,88192,128,0,88364:0:0:0:0:
320,192,88364,1,0,0:0:0:0:
448,192,88364,1,0,0:0:0:0:
192,192,88537,1,0,0:0:0:0:
64,192,88537,1,0,0:0:0:0:
448,192,88882,1,0,0:0:0:0:
320,192,88882,1,0,0:0:0:0:
64,192,88882,1,0,0:0:0:0:
448,192,89571,1,0,0:0:0:0:
192,192,89571,1,0,0:0:0:0:
192,192,89686,1,0,0:0:0:0:
192,192,89801,1,0,0:0:0:0:
192,192,89916,1,0,0:0:0:0:
64,192,90261,1,0,0:0:0:0:
320,192,90261,1,0,0:0:0:0:
320,192,90376,1,0,0:0:0:0:
320,192,90491,1,0,0:0:0:0:
320,192,90606,1,0,0:0:0:0:
320,192,90721,1,0,0:0:0:0:
320,192,90836,1,0,0:0:0:0:
320,192,90951,1,0,0:0:0:0:
192,192,91123,1,0,0:0:0:0:
448,192,91296,1,0,0:0:0:0:
64,192,91296,1,0,0:0:0:0:
192,192,91640,1,0,0:0:0:0:
448,192,91640,1,0,0:0:0:0:
448,192,92330,1,0,0:0:0:0:
192,192,92330,1,0,0:0:0:0:
192,192,92445,1,0,0:0:0:0:
192,192,92560,1,0,0:0:0:0:
192,192,92675,1,0,0:0:0:0:
64,192,93020,1,0,0:0:0:0:
320,192,93020,1,0,0:0:0:0:
320,192,93135,1,0,0:0:0:0:
320,192,93250,1,0,0:0:0:0:
320,192,93364,1,0,0:0:0:0:
320,192,93479,1,0,0:0:0:0:
320,192,93594,1,0,0:0:0:0:
320,192,93709,1,0,0:0:0:0:
192,192,93882,1,0,0:0:0:0:
64,192,93882,1,0,0:0:0:0:
320,192,94054,1,0,0:0:0:0:
448,192,94054,1,0,0:0:0:0:
448,192,94399,1,0,0:0:0:0:
64,192,94399,1,0,0:0:0:0:
192,192,94399,1,0,0:0:0:0:
192,192,95089,1,0,0:0:0:0:
448,192,95089,1,0,0:0:0:0:
192,192,95204,1,0,0:0:0:0:
192,192,95318,1,0,0:0:0:0:
192,192,95433,1,0,0:0:0:0:
320,192,95778,1,0,0:0:0:0:
64,192,95778,1,0,0:0:0:0:
320,192,95893,1,0,0:0:0:0:
320,192,96008,1,0,0:0:0:0:
320,192,96123,1,0,0:0:0:0:
320,192,96238,1,0,0:0:0:0:
320,192,96353,1,0,0:0:0:0:
320,192,96468,1,0,0:0:0:0:
192,192,96640,128,0,96813:0:0:0:0:
64,192,96813,1,0,0:0:0:0:
448,192,96813,1,0,0:0:0:0:
64,192,97158,1,0,0:0:0:0:
320,192,97158,1,0,0:0:0:0:
448,192,97158,1,0,0:0:0:0:
448,192,97847,1,0,0:0:0:0:
192,192,97847,1,0,0:0:0:0:
192,192,97962,1,0,0:0:0:0:
192,192,98077,1,0,0:0:0:0:
192,192,98192,1,0,0:0:0:0:
64,192,98537,1,0,0:0:0:0:
320,192,98537,1,0,0:0:0:0:
320,192,98652,1,0,0:0:0:0:
320,192,98767,1,0,0:0:0:0:
320,192,98882,1,0,0:0:0:0:
320,192,98997,1,0,0:0:0:0:
320,192,99112,1,0,0:0:0:0:
320,192,99227,128,0,100606:0:0:0:0:
64,192,99227,1,0,0:0:0:0:
192,192,99571,1,0,0:0:0:0:
448,192,99916,1,0,0:0:0:0:
64,192,100261,1,0,0:0:0:0:
192,192,100606,1,0,0:0:0:0:
64,192,100692,1,0,0:0:0:0:
192,192,100778,1,0,0:0:0:0:
64,192,100864,1,0,0:0:0:0:
192,192,100951,1,0,0:0:0:0:
448,192,101123,1,0,0:0:0:0:
320,192,101296,128,0,101640:0:0:0:0:
192,192,101640,1,0,0:0:0:0:
64,192,101727,1,0,0:0:0:0:
192,192,101813,1,0,0:0:0:0:
64,192,101899,1,0,0:0:0:0:
192,192,101985,1,0,0:0:0:0:
320,192,102158,1,0,0:0:0:0:
448,192,102330,128,0,103364:0:0:0:0:
320,192,103364,1,0,0:0:0:0:
64,192,103451,1,0,0:0:0:0:
320,192,103537,1,0,0:0:0:0:
192,192,103623,1,0,0:0:0:0:
448,192,103709,1,0,0:0:0:0:
320,192,103882,1,0,0:0:0:0:
64,192,104054,128,0,104399:0:0:0:0:
192,192,104399,1,0,0:0:0:0:
448,192,104571,1,0,0:0:0:0:
320,192,104744,1,0,0:0:0:0:
192,192,105002,1,0,0:0:0:0:
64,192,105089,128,0,106123:0:0:0:0:
192,192,106123,1,0,0:0:0:0:
448,192,106209,1,0,0:0:0:0:
64,192,106296,1,0,0:0:0:0:
320,192,106382,1,0,0:0:0:0:
192,192,106468,1,0,0:0:0:0:
320,192,106640,1,0,0:0:0:0:
448,192,106813,128,0,107158:0:0:0:0:
192,192,107158,1,0,0:0:0:0:
320,192,107330,1,0,0:0:0:0:
64,192,107502,128,0,107675:0:0:0:0:
192,192,107675,1,0,0:0:0:0:
448,192,107761,1,0,0:0:0:0:
64,192,107847,1,0,0:0:0:0:
320,192,107933,1,0,0:0:0:0:
192,192,108020,1,0,0:0:0:0:
448,192,108106,1,0,0:0:0:0:
64,192,108192,128,0,108537:0:0:0:0:
192,192,108709,1,0,0:0:0:0:
320,192,108796,1,0,0:0:0:0:
64,192,108882,128,0,109054:0:0:0:0:
192,192,109054,1,0,0:0:0:0:
448,192,109140,1,0,0:0:0:0:
320,192,109227,1,0,0:0:0:0:
64,192,109313,1,0,0:0:0:0:
192,192,109399,1,0,0:0:0:0:
448,192,109485,1,0,0:0:0:0:
320,192,109571,128,0,110175:0:0:0:0:
192,192,110175,1,0,0:0:0:0:
64,192,110261,1,0,0:0:0:0:
448,192,110261,128,0,111985:0:0:0:0:
320,192,111985,128,0,112330:0:0:0:0:
64,192,112330,128,0,112675:0:0:0:0:
448,192,112675,128,0,113020:0:0:0:0:
192,192,113020,128,0,113537:0:0:0:0:
320,192,113537,128,0,113709:0:0:0:0:
448,192,113709,128,0,114054:0:0:0:0:
192,192,114054,128,0,114399:0:0:0:0:
320,192,114399,128,0,115089:0:0:0:0:
448,192,115089,128,0,115778:0:0:0:0:
320,192,115778,128,0,115951:0:0:0:0:
192,192,116813,128,0,117158:0:0:0:0:
64,192,117158,1,0,0:0:0:0:
448,192,117158,1,0,0:0:0:0:
320,192,117330,1,0,0:0:0:0:
320,192,117502,1,0,0:0:0:0:
192,192,117502,1,0,0:0:0:0:
64,192,117675,1,0,0:0:0:0:
448,192,117847,1,0,0:0:0:0:
448,192,118020,1,0,0:0:0:0:
448,192,118192,1,0,0:0:0:0:
192,192,118192,1,0,0:0:0:0:
320,192,118364,128,0,118537:0:0:0:0:
64,192,118537,1,0,0:0:0:0:
192,192,118709,1,0,0:0:0:0:
192,192,118882,1,0,0:0:0:0:
192,192,119054,1,0,0:0:0:0:
192,192,119227,1,0,0:0:0:0:
192,192,119399,1,0,0:0:0:0:
64,192,119399,1,0,0:0:0:0:
448,192,119571,1,0,0:0:0:0:
320,192,119571,128,0,119744:0:0:0:0:
192,192,119744,128,0,119916:0:0:0:0:
64,192,119916,1,0,0:0:0:0:
448,192,119916,1,0,0:0:0:0:
320,192,120089,1,0,0:0:0:0:
192,192,120261,1,0,0:0:0:0:
64,192,120261,1,0,0:0:0:0:
448,192,120433,1,0,0:0:0:0:
320,192,120606,1,0,0:0:0:0:
192,192,120778,1,0,0:0:0:0:
64,192,120778,1,0,0:0:0:0:
448,192,120951,1,0,0:0:0:0:
64,192,120951,1,0,0:0:0:0:
320,192,121123,1,0,0:0:0:0:
192,192,121296,1,0,0:0:0:0:
64,192,121468,128,0,121640:0:0:0:0:
192,192,121640,128,0,121813:0:0:0:0:
320,192,121813,128,0,121985:0:0:0:0:
448,192,121985,128,0,122158:0:0:0:0:
64,192,122158,128,0,122330:0:0:0:0:
192,192,122330,128,0,122502:0:0:0:0:
320,192,122502,128,0,122675:0:0:0:0:
448,192,122675,1,0,0:0:0:0:
64,192,122675,1,0,0:0:0:0:
64,192,123020,1,0,0:0:0:0:
192,192,123020,1,0,0:0:0:0:
448,192,123020,1,0,0:0:0:0:
320,192,123364,1,0,0:0:0:0:
448,192,123451,1,0,0:0:0:0:
320,192,123537,1,0,0:0:0:0:
448,192,123623,1,0,0:0:0:0:
320,192,123709,1,0,0:0:0:0:
192,192,123882,1,0,0:0:0:0:
64,192,124054,1,0,0:0:0:0:
448,192,124054,1,0,0:0:0:0:
320,192,124227,1,0,0:0:0:0:
192,192,124399,1,0,0:0:0:0:
192,192,124571,1,0,0:0:0:0:
192,192,124744,1,0,0:0:0:0:
192,192,124916,1,0,0:0:0:0:
192,192,125089,1,0,0:0:0:0:
448,192,125089,1,0,0:0:0:0:
320,192,125261,1,0,0:0:0:0:
64,192,125261,1,0,0:0:0:0:
448,192,125433,1,0,0:0:0:0:
64,192,125433,128,0,125778:0:0:0:0:
192,192,125433,1,0,0:0:0:0:
192,192,125778,1,0,0:0:0:0:
320,192,125951,1,0,0:0:0:0:
448,192,126037,1,0,0:0:0:0:
320,192,126123,1,0,0:0:0:0:
192,192,126209,1,0,0:0:0:0:
64,192,126296,1,0,0:0:0:0:
64,192,126468,1,0,0:0:0:0:
192,192,126468,1,0,0:0:0:0:
448,192,126640,1,0,0:0:0:0:
192,192,126813,1,0,0:0:0:0:
64,192,126813,1,0,0:0:0:0:
448,192,126985,1,0,0:0:0:0:
192,192,127158,1,0,0:0:0:0:
64,192,127158,1,0,0:0:0:0:
448,192,127330,1,0,0:0:0:0:
64,192,127502,128,0,128192:0:0:0:0:
192,192,127502,1,0,0:0:0:0:
320,192,127589,1,0,0:0:0:0:
448,192,127675,1,0,0:0:0:0:
320,192,127761,1,0,0:0:0:0:
192,192,127847,1,0,0:0:0:0:
448,192,128192,1,0,0:0:0:0:
64,192,128537,1,0,0:0:0:0:
448,192,128537,1,0,0:0:0:0:
320,192,128537,1,0,0:0:0:0:
64,192,128882,1,0,0:0:0:0:
192,192,128882,1,0,0:0:0:0:
448,192,128882,1,0,0:0:0:0:
192,192,129054,1,0,0:0:0:0:
192,192,129227,1,0,0:0:0:0:
448,192,129227,1,0,0:0:0:0:
192,192,129399,1,0,0:0:0:0:
192,192,129571,1,0,0:0:0:0:
64,192,129571,1,0,0:0:0:0:
320,192,129744,1,0,0:0:0:0:
320,192,129916,128,0,130261:0:0:0:0:
64,192,130261,128,0,130951:0:0:0:0:
448,192,130261,1,0,0:0:0:0:
320,192,130433,1,0,0:0:0:0:
448,192,130606,1,0,0:0:0:0:
448,192,130951,1,0,0:0:0:0:
320,192,130951,1,0,0:0:0:0:
64,192,131296,1,0,0:0:0:0:
448,192,131296,1,0,0:0:0:0:
192,192,131296,128,0,131640:0:0:0:0:
320,192,131640,1,0,0:0:0:0:
448,192,131727,1,0,0:0:0:0:
320,192,131813,1,0,0:0:0:0:
192,192,131899,1,0,0:0:0:0:
64,192,131985,1,0,0:0:0:0:
192,192,132071,1,0,0:0:0:0:
320,192,132158,1,0,0:0:0:0:
448,192,132244,1,0,0:0:0:0:
192,192,132330,1,0,0:0:0:0:
64,192,132330,128,0,132675:0:0:0:0:
448,192,132675,128,0,133020:0:0:0:0:
320,192,132675,1,0,0:0:0:0:
64,192,133020,128,0,133364:0:0:0:0:
192,192,133020,1,0,0:0:0:0:
320,192,133192,1,0,0:0:0:0:
448,192,133364,1,0,0:0:0:0:
192,192,133537,1,0,0:0:0:0:
448,192,133709,1,0,0:0:0:0:
64,192,133709,1,0,0:0:0:0:
64,192,134054,1,0,0:0:0:0:
320,192,134054,1,0,0:0:0:0:
448,192,134054,1,0,0:0:0:0:
64,192,134399,1,0,0:0:0:0:
192,192,134399,1,0,0:0:0:0:
448,192,134399,1,0,0:0:0:0:
192,192,134571,1,0,0:0:0:0:
192,192,134744,1,0,0:0:0:0:
448,192,134744,1,0,0:0:0:0:
192,192,134916,1,0,0:0:0:0:
192,192,135089,1,0,0:0:0:0:
64,192,135089,1,0,0:0:0:0:
448,192,135261,1,0,0:0:0:0:
320,192,135433,1,0,0:0:0:0:
192,192,135433,1,0,0:0:0:0:
64,192,135778,128,0,136123:0:0:0:0:
320,192,135951,1,0,0:0:0:0:
448,192,136123,1,0,0:0:0:0:
192,192,136296,1,0,0:0:0:0:
64,192,136468,1,0,0:0:0:0:
448,192,136468,1,0,0:0:0:0:
64,192,136813,1,0,0:0:0:0:
448,192,136813,1,0,0:0:0:0:
320,192,136813,1,0,0:0:0:0:
192,192,136985,1,0,0:0:0:0:
448,192,137158,1,0,0:0:0:0:
64,192,137244,1,0,0:0:0:0:
320,192,137330,1,0,0:0:0:0:
192,192,137416,1,0,0:0:0:0:
448,192,137502,1,0,0:0:0:0:
64,192,137675,1,0,0:0:0:0:
320,192,137847,1,0,0:0:0:0:
448,192,137847,128,0,138020:0:0:0:0:
320,192,138020,128,0,138192:0:0:0:0:
192,192,138192,128,0,138364:0:0:0:0:
64,192,138364,128,0,138537:0:0:0:0:
448,192,138537,128,0,138709:0:0:0:0:
320,192,138709,128,0,138882:0:0:0:0:
192,192,138882,128,0,139054:0:0:0:0:
64,192,139054,128,0,139227:0:0:0:0:
448,192,139227,1,0,0:0:0:0:
320,192,139313,1,0,0:0:0:0:
448,192,139399,1,0,0:0:0:0:
320,192,139485,1,0,0:0:0:0:
448,192,139571,1,0,0:0:0:0:
192,192,139744,1,0,0:0:0:0:
64,192,139916,128,0,140261:0:0:0:0:
192,192,140261,1,0,0:0:0:0:
320,192,140347,1,0,0:0:0:0:
448,192,140433,1,0,0:0:0:0:
320,192,140520,1,0,0:0:0:0:
192,192,140606,1,0,0:0:0:0:
64,192,140606,128,0,140951:0:0:0:0:
320,192,140951,1,0,0:0:0:0:
448,192,141123,1,0,0:0:0:0:
192,192,141296,128,0,141640:0:0:0:0:
320,192,141640,1,0,0:0:0:0:
448,192,141727,1,0,0:0:0:0:
320,192,141813,1,0,0:0:0:0:
192,192,141899,1,0,0:0:0:0:
64,192,141985,128,0,142330:0:0:0:0:
192,192,142502,1,0,0:0:0:0:
448,192,142675,128,0,143020:0:0:0:0:
64,192,143020,1,0,0:0:0:0:
192,192,143106,1,0,0:0:0:0:
320,192,143192,1,0,0:0:0:0:
448,192,143278,1,0,0:0:0:0:
192,192,143364,1,0,0:0:0:0:
64,192,143364,1,0,0:0:0:0:
448,192,143709,1,0,0:0:0:0:
320,192,143709,1,0,0:0:0:0:
448,192,144054,1,0,0:0:0:0:
64,192,144054,1,0,0:0:0:0:
192,192,144054,1,0,0:0:0:0:
64,192,144744,1,0,0:0:0:0:
320,192,145089,1,0,0:0:0:0:
192,192,145433,1,0,0:0:0:0:
448,192,145778,1,0,0:0:0:0:
192,192,146123,1,0,0:0:0:0:
64,192,146123,1,0,0:0:0:0:
320,192,146640,1,0,0:0:0:0:
320,192,146813,1,0,0:0:0:0:
192,192,147158,1,0,0:0:0:0:
64,192,147502,1,0,0:0:0:0:
448,192,148192,1,0,0:0:0:0:
64,192,148882,1,0,0:0:0:0:
448,192,149227,1,0,0:0:0:0:
320,192,149227,1,0,0:0:0:0:
192,192,149571,1,0,0:0:0:0:
64,192,149571,1,0,0:0:0:0:
