osu file format v14

[General]
AudioFilename: REANIMATE.mp3
AudioLeadIn: 0
PreviewTime: 117953
Countdown: 0
SampleSet: None
StackLeniency: 0.5
Mode: 3
LetterboxInBreaks: 0
SpecialStyle: 0
WidescreenStoryboard: 0

[Editor]
DistanceSpacing: 0.8
BeatDivisor: 4
GridSize: 16
TimelineZoom: 1.972001

[Metadata]
Title:REANIMATE
TitleUnicode:暗夜苏醒
Artist:Warak
ArtistUnicode:Warak
Creator:puxtu
Version:Lv.7
Source:节奏大师
Tags:o2jam wubstep节奏大师 symphonic drumstep Shiguri Ayyri _Gezo_ Gezoda Nwolf Raiden rhythm master tencent games symphony drumstep reanim8
BeatmapID:893639
BeatmapSetID:411866

[Difficulty]
HPDrainRate:8
CircleSize:4
OverallDifficulty:8
ApproachRate:9.3
SliderMultiplier:1.30000000596047
SliderTickRate:1

[Events]
//Background and Video events
0,0,"Nanomortis.full.1506306.jpg",0,0
//Break Periods
//Storyboard Layer 0 (Background)
//Storyboard Layer 1 (Fail)
//Storyboard Layer 2 (Pass)
//Storyboard Layer 3 (Foreground)
//Storyboard Sound Samples

[TimingPoints]
2436,344.827586206897,4,3,69,50,1,0
2522,-100,4,3,69,20,0,0
13470,-100,4,3,69,50,0,0
46573,-100,4,3,69,50,0,1
68642,-100,4,3,69,50,0,0
101746,-100,4,3,69,20,0,0
111401,-100,4,3,69,50,0,0
113125,-100,4,3,69,20,0,0
117953,-100,4,3,69,50,0,0
118298,-100,4,3,69,50,0,1
140367,-100,4,3,69,50,0,0
145194,-102.040816326531,4,3,69,50,0,0
145309,-104.166666666667,4,3,69,50,0,0
145424,-106.382978723404,4,3,69,50,0,0
145539,-108.695652173913,4,3,69,50,0,0
145654,-111.111111111111,4,3,69,50,0,0
145769,-113.636363636364,4,3,69,50,0,0
145884,-116.279069767442,4,3,69,20,0,0

[HitObjects]
64,192,2436,5,4,1:0:0:0:
320,192,2436,1,0,0:0:0:0:
448,192,2436,1,0,0:0:0:0:
192,192,2522,1,0,0:0:0:0:
448,192,2608,1,0,2:0:0:0:
64,192,2694,1,0,0:0:0:0:
320,192,2780,1,0,2:0:0:0:
192,192,2953,1,0,2:0:0:0:
448,192,3125,1,0,2:0:0:0:
64,192,3125,1,0,0:0:0:0:
192,192,3470,1,0,2:0:0:0:
448,192,3470,1,0,0:0:0:0:
64,192,3556,1,0,0:0:0:0:
448,192,3642,1,0,2:0:0:0:
192,192,3729,1,0,0:0:0:0:
320,192,3815,1,0,2:0:0:0:
192,192,3987,1,0,2:0:0:0:
448,192,4160,1,0,2:0:0:0:
64,192,4160,1,0,0:0:0:0:
320,192,4504,1,0,2:0:0:0:
192,192,4677,1,0,2:0:0:0:
448,192,4849,1,0,2:0:0:0:
64,192,5194,1,0,2:0:0:0:
320,192,5194,1,0,0:0:0:0:
448,192,5280,1,0,0:0:0:0:
192,192,5367,1,0,2:0:0:0:
320,192,5453,1,0,0:0:0:0:
64,192,5539,1,0,2:0:0:0:
320,192,5711,1,0,2:0:0:0:
448,192,5884,1,0,2:0:0:0:
192,192,5884,1,0,0:0:0:0:
192,192,6229,1,0,2:0:0:0:
320,192,6229,1,0,0:0:0:0:
448,192,6401,1,0,2:0:0:0:
64,192,6573,1,0,2:0:0:0:
320,192,6573,1,0,0:0:0:0:
192,192,6832,1,0,2:0:0:0:
448,192,6918,1,0,2:0:0:0:
64,192,6918,1,0,0:0:0:0:
320,192,7263,1,0,2:0:0:0:
192,192,7263,1,0,0:0:0:0:
320,192,7522,1,0,2:0:0:0:
64,192,7608,1,0,2:0:0:0:
448,192,7608,1,0,0:0:0:0:
192,192,7953,1,0,2:0:0:0:
64,192,7953,1,0,0:0:0:0:
448,192,8039,1,0,0:0:0:0:
64,192,8125,1,0,2:0:0:0:
320,192,8211,1,0,0:0:0:0:
448,192,8298,1,0,2:0:0:0:
192,192,8470,1,0,2:0:0:0:
64,192,8642,1,0,2:0:0:0:
448,192,8642,1,0,0:0:0:0:
192,192,8987,1,0,2:0:0:0:
448,192,8987,1,0,0:0:0:0:
320,192,9160,1,0,2:0:0:0:
64,192,9332,1,0,2:0:0:0:
192,192,9332,1,0,0:0:0:0:
320,192,9504,1,0,0:0:0:0:
192,192,9591,1,0,0:0:0:0:
320,192,9677,1,0,2:0:0:0:
64,192,9677,1,0,0:0:0:0:
448,192,9763,1,0,0:0:0:0:
192,192,9849,1,0,0:0:0:0:
320,192,9936,1,0,0:0:0:0:
64,192,10022,1,0,2:0:0:0:
448,192,10022,1,0,0:0:0:0:
192,192,10194,1,0,0:0:0:0:
320,192,10280,1,0,0:0:0:0:
448,192,10367,1,0,0:0:0:0:
192,192,10539,1,0,2:0:0:0:
64,192,10625,1,0,0:0:0:0:
448,192,10711,1,0,2:0:0:0:
320,192,10711,1,0,0:0:0:0:
64,192,10970,1,0,2:0:0:0:
192,192,11056,1,0,2:0:0:0:
448,192,11056,1,0,0:0:0:0:
448,192,11315,1,0,2:0:0:0:
320,192,11401,1,0,2:0:0:0:
64,192,11401,1,0,0:0:0:0:
192,192,11660,1,0,2:0:0:0:
64,192,11746,1,0,2:0:0:0:
320,192,11746,1,0,0:0:0:0:
320,192,12004,1,0,2:0:0:0:
192,192,12091,1,0,2:0:0:0:
448,192,12091,1,0,0:0:0:0:
320,192,12263,1,0,2:0:0:0:
192,192,12349,1,0,0:0:0:0:
448,192,12436,1,0,2:0:0:0:
64,192,12436,1,0,0:0:0:0:
448,192,12780,1,0,2:0:0:0:
192,192,12867,1,0,0:0:0:0:
320,192,12953,1,0,2:0:0:0:
64,192,13039,1,0,0:0:0:0:
192,192,13125,1,0,2:0:0:0:
448,192,13470,5,4,1:0:0:0:
64,192,13470,1,0,2:0:0:0:
192,192,13470,1,0,0:0:0:0:
320,192,13556,1,0,0:0:0:0:
64,192,13642,1,0,2:0:0:0:
448,192,13729,1,0,0:0:0:0:
192,192,13815,1,0,2:0:0:0:
320,192,13987,1,0,2:0:0:0:
448,192,14160,1,0,2:0:0:0:
192,192,14160,1,2,0:0:0:0:
64,192,14160,1,0,0:0:0:0:
64,192,14504,1,0,2:0:0:0:
320,192,14504,1,0,0:0:0:0:
448,192,14591,1,0,0:0:0:0:
192,192,14677,1,0,2:0:0:0:
320,192,14763,1,0,0:0:0:0:
64,192,14849,1,0,2:0:0:0:
448,192,15022,1,0,2:0:0:0:
320,192,15022,1,0,0:0:0:0:
192,192,15194,1,0,2:0:0:0:
64,192,15194,1,0,0:0:0:0:
64,192,15539,1,0,2:0:0:0:
448,192,15539,1,2,0:0:0:0:
192,192,15539,1,0,0:0:0:0:
320,192,15711,1,0,2:0:0:0:
192,192,15884,1,0,2:0:0:0:
448,192,16229,1,4,1:0:0:0:
320,192,16229,1,0,2:0:0:0:
64,192,16229,1,0,0:0:0:0:
192,192,16315,1,0,0:0:0:0:
320,192,16401,1,0,2:0:0:0:
448,192,16487,1,0,0:0:0:0:
192,192,16573,1,0,2:0:0:0:
64,192,16746,1,0,2:0:0:0:
320,192,16918,1,0,2:0:0:0:
448,192,16918,1,2,0:0:0:0:
192,192,16918,1,0,0:0:0:0:
192,192,17263,1,0,2:0:0:0:
64,192,17263,1,0,0:0:0:0:
448,192,17436,1,0,2:0:0:0:
192,192,17608,1,0,2:0:0:0:
448,192,17780,1,0,2:0:0:0:
64,192,17780,1,0,0:0:0:0:
320,192,17867,1,0,0:0:0:0:
192,192,17953,1,0,2:0:0:0:
448,192,17953,1,0,0:0:0:0:
320,192,18298,1,0,2:0:0:0:
64,192,18298,1,2,0:0:0:0:
448,192,18298,1,0,0:0:0:0:
192,192,18556,1,0,2:0:0:0:
64,192,18642,1,0,2:0:0:0:
448,192,18642,1,0,0:0:0:0:
448,192,18987,1,0,2:0:0:0:
320,192,18987,1,4,1:0:0:0:
192,192,18987,1,0,0:0:0:0:
64,192,19073,1,0,0:0:0:0:
320,192,19160,1,0,2:0:0:0:
64,192,19246,1,0,0:0:0:0:
448,192,19332,1,0,2:0:0:0:
192,192,19504,1,0,2:0:0:0:
320,192,19677,1,0,2:0:0:0:
448,192,19677,1,2,0:0:0:0:
64,192,19677,1,0,0:0:0:0:
64,192,20022,1,0,2:0:0:0:
448,192,20022,1,0,0:0:0:0:
320,192,20194,1,0,2:0:0:0:
192,192,20367,1,0,2:0:0:0:
64,192,20367,1,0,0:0:0:0:
320,192,20539,1,0,2:0:0:0:
448,192,20539,1,0,0:0:0:0:
192,192,20625,1,0,0:0:0:0:
64,192,20711,1,0,2:0:0:0:
448,192,20711,1,0,0:0:0:0:
320,192,20798,1,0,0:0:0:0:
192,192,20884,1,0,0:0:0:0:
320,192,20970,1,0,0:0:0:0:
448,192,21056,1,0,2:0:0:0:
64,192,21056,1,2,0:0:0:0:
192,192,21056,1,0,0:0:0:0:
448,192,21573,1,0,2:0:0:0:
192,192,21573,1,0,0:0:0:0:
320,192,21660,1,0,0:0:0:0:
64,192,21746,1,0,2:0:0:0:
192,192,21746,1,4,1:0:0:0:
320,192,21918,1,0,0:0:0:0:
64,192,22004,1,0,0:0:0:0:
448,192,22091,1,0,2:0:0:0:
64,192,22177,1,0,0:0:0:0:
448,192,22263,1,0,0:0:0:0:
192,192,22349,1,0,0:0:0:0:
64,192,22436,1,0,2:0:0:0:
320,192,22436,1,2,0:0:0:0:
448,192,22436,1,0,0:0:0:0:
448,192,22608,1,0,0:0:0:0:
192,192,22694,1,0,0:0:0:0:
320,192,22780,1,0,0:0:0:0:
64,192,22867,1,0,0:0:0:0:
192,192,22953,1,0,0:0:0:0:
448,192,23039,1,0,2:0:0:0:
192,192,23125,1,0,2:0:0:0:
64,192,23125,1,0,0:0:0:0:
448,192,23298,1,0,2:0:0:0:
320,192,23298,1,0,0:0:0:0:
64,192,23470,1,0,2:0:0:0:
192,192,23470,1,0,0:0:0:0:
64,192,23815,1,2,0:0:0:0:
448,192,23815,1,0,2:0:0:0:
192,192,23815,1,0,0:0:0:0:
64,192,24504,1,4,1:0:0:0:
448,192,24504,1,0,2:0:0:0:
320,192,24504,1,0,0:0:0:0:
192,192,24849,1,0,2:0:0:0:
448,192,25194,1,0,2:0:0:0:
64,192,25539,1,0,2:0:0:0:
320,192,25884,1,0,2:0:0:0:
192,192,26229,128,0,26573:2:0:0:0:
448,192,26573,128,0,26918:2:0:0:0:
64,192,26918,128,0,27263:2:0:0:0:
320,192,27263,1,0,2:0:0:0:
192,192,27608,1,0,2:0:0:0:
448,192,27953,1,0,2:0:0:0:
64,192,28298,1,0,2:0:0:0:
448,192,28470,1,0,2:0:0:0:
320,192,28642,1,0,2:0:0:0:
192,192,28987,128,0,29332:2:0:0:0:
448,192,29332,128,0,29677:2:0:0:0:
64,192,29677,128,0,30022:2:0:0:0:
320,192,30022,1,0,2:0:0:0:
64,192,30367,1,0,2:0:0:0:
448,192,30711,1,0,2:0:0:0:
192,192,31056,1,0,2:0:0:0:
320,192,31401,1,0,2:0:0:0:
192,192,31746,1,0,2:0:0:0:
64,192,31918,1,0,2:0:0:0:
448,192,32091,1,0,2:0:0:0:
320,192,32780,1,0,2:0:0:0:
64,192,33125,1,0,2:0:0:0:
448,192,33470,1,0,2:0:0:0:
192,192,33815,1,0,2:0:0:0:
320,192,34160,1,0,2:0:0:0:
320,192,34504,1,0,2:0:0:0:
448,192,34677,1,0,2:0:0:0:
192,192,34849,1,0,2:0:0:0:
192,192,35194,1,0,2:0:0:0:
448,192,35539,1,0,2:0:0:0:
64,192,35539,1,0,0:0:0:0:
320,192,35884,1,0,2:0:0:0:
64,192,36229,1,0,2:0:0:0:
192,192,36229,1,2,0:0:0:0:
448,192,36229,1,0,0:0:0:0:
448,192,36573,1,0,2:0:0:0:
192,192,36918,1,0,2:0:0:0:
320,192,36918,1,0,2:0:0:0:
320,192,37263,128,0,37608:2:0:0:0:
64,192,37608,128,0,37953:2:0:0:0:
448,192,37608,1,0,2:0:0:0:
448,192,37953,128,0,38298:2:0:0:0:
192,192,38298,1,0,2:0:0:0:
64,192,38298,1,0,2:0:0:0:
320,192,38642,1,0,2:0:0:0:
64,192,38987,1,0,2:0:0:0:
448,192,38987,1,0,0:0:0:0:
448,192,39332,1,0,0:0:0:0:
320,192,39504,1,0,2:0:0:0:
192,192,39677,1,0,2:0:0:0:
64,192,39677,1,0,2:0:0:0:
320,192,40022,128,0,40367:2:0:0:0:
64,192,40367,128,0,40711:2:0:0:0:
192,192,40367,1,0,2:0:0:0:
448,192,40711,128,0,41056:2:0:0:0:
320,192,41056,1,0,2:0:0:0:
64,192,41056,1,0,2:0:0:0:
448,192,41401,1,0,2:0:0:0:
64,192,41746,1,0,2:0:0:0:
192,192,41746,1,0,2:0:0:0:
320,192,42091,1,0,2:0:0:0:
192,192,42436,1,0,2:0:0:0:
448,192,42436,1,0,0:0:0:0:
320,192,42780,1,0,0:0:0:0:
448,192,42953,1,0,2:0:0:0:
64,192,43125,1,0,2:0:0:0:
192,192,43125,1,0,2:0:0:0:
320,192,43470,1,0,2:0:0:0:
64,192,43815,1,0,2:0:0:0:
448,192,43815,1,0,0:0:0:0:
320,192,44160,1,0,0:0:0:0:
192,192,44504,1,0,2:0:0:0:
448,192,44504,1,0,2:0:0:0:
320,192,44849,1,0,0:0:0:0:
192,192,45194,1,0,2:0:0:0:
64,192,45194,1,0,2:0:0:0:
64,192,45539,1,0,2:0:0:0:
448,192,45539,1,2,2:0:0:0:
448,192,45884,128,2,46573:2:0:0:0:
192,192,45884,1,0,2:0:0:0:
320,192,46573,1,4,1:0:0:0:
192,192,46573,1,8,0:0:0:0:
64,192,46573,1,0,0:0:0:0:
64,192,46918,1,2,0:0:0:0:
448,192,46918,1,0,0:0:0:0:
320,192,46918,1,0,0:0:0:0:
192,192,47091,128,0,47263:0:0:0:0:
64,192,47263,1,0,0:0:0:0:
448,192,47263,1,0,0:0:0:0:
448,192,47436,1,0,0:0:0:0:
320,192,47608,1,2,0:0:0:0:
64,192,47608,1,0,0:0:0:0:
192,192,47608,1,0,0:0:0:0:
64,192,47780,1,0,0:0:0:0:
192,192,47953,1,8,0:0:0:0:
320,192,47953,1,0,0:0:0:0:
448,192,47953,128,0,48298:0:0:0:0:
64,192,48298,1,2,0:0:0:0:
192,192,48298,1,0,0:0:0:0:
320,192,48470,128,0,48642:0:0:0:0:
64,192,48642,128,0,49332:0:0:0:0:
192,192,48815,1,0,0:0:0:0:
320,192,48987,1,2,0:0:0:0:
448,192,48987,1,0,0:0:0:0:
192,192,49160,1,0,0:0:0:0:
192,192,49332,1,4,1:0:0:0:
320,192,49332,1,8,0:0:0:0:
448,192,49332,1,0,0:0:0:0:
448,192,49677,1,2,0:0:0:0:
64,192,49677,1,0,0:0:0:0:
192,192,49677,1,0,0:0:0:0:
448,192,49849,1,0,0:0:0:0:
448,192,50022,1,0,0:0:0:0:
448,192,50194,1,0,0:0:0:0:
192,192,50194,1,0,0:0:0:0:
448,192,50367,1,2,0:0:0:0:
320,192,50367,1,0,0:0:0:0:
64,192,50367,1,0,0:0:0:0:
448,192,50539,1,0,0:0:0:0:
448,192,50711,128,0,50884:0:0:0:0:
320,192,50711,1,0,0:0:0:0:
192,192,50884,1,0,0:0:0:0:
320,192,51056,128,2,51229:0:0:0:0:
64,192,51056,1,0,0:0:0:0:
448,192,51056,1,0,0:0:0:0:
192,192,51229,1,0,0:0:0:0:
64,192,51401,128,0,51746:0:0:0:0:
448,192,51401,1,0,0:0:0:0:
192,192,51573,1,0,0:0:0:0:
320,192,51660,1,0,0:0:0:0:
192,192,51746,1,2,0:0:0:0:
448,192,51746,1,0,0:0:0:0:
320,192,51918,1,0,0:0:0:0:
64,192,51918,128,0,52091:0:0:0:0:
448,192,52091,1,8,0:0:0:0:
192,192,52091,1,4,1:0:0:0:
320,192,52091,1,0,0:0:0:0:
64,192,52436,1,2,0:0:0:0:
448,192,52436,1,0,0:0:0:0:
320,192,52436,1,0,0:0:0:0:
192,192,52608,128,0,52780:0:0:0:0:
320,192,52780,1,0,0:0:0:0:
64,192,52867,1,0,0:0:0:0:
448,192,52953,1,0,0:0:0:0:
320,192,52953,1,0,0:0:0:0:
64,192,53125,1,2,0:0:0:0:
192,192,53125,1,0,0:0:0:0:
448,192,53125,1,0,0:0:0:0:
320,192,53298,128,0,53470:0:0:0:0:
64,192,53470,1,4,1:0:0:0:
192,192,53470,1,8,0:0:0:0:
448,192,53470,1,0,0:0:0:0:
192,192,53642,1,0,0:0:0:0:
64,192,53815,1,2,0:0:0:0:
320,192,53815,1,0,0:0:0:0:
448,192,53815,1,0,0:0:0:0:
192,192,53987,128,0,54160:0:0:0:0:
64,192,54160,128,0,54849:0:0:0:0:
320,192,54160,1,0,0:0:0:0:
448,192,54332,1,0,0:0:0:0:
192,192,54504,1,0,0:0:0:0:
448,192,54504,1,0,0:0:0:0:
320,192,54677,1,0,0:0:0:0:
192,192,54849,1,4,1:0:0:0:
320,192,54849,1,8,0:0:0:0:
448,192,54849,1,0,0:0:0:0:
64,192,55194,1,2,0:0:0:0:
320,192,55194,1,0,0:0:0:0:
192,192,55194,1,0,0:0:0:0:
448,192,55280,1,0,0:0:0:0:
64,192,55367,1,0,0:0:0:0:
320,192,55453,1,0,0:0:0:0:
192,192,55539,1,0,0:0:0:0:
64,192,55539,1,0,0:0:0:0:
448,192,55711,1,0,0:0:0:0:
64,192,55711,1,0,0:0:0:0:
192,192,55884,1,2,0:0:0:0:
448,192,55884,1,0,0:0:0:0:
320,192,55884,1,0,0:0:0:0:
320,192,56056,1,0,0:0:0:0:
64,192,56056,1,0,0:0:0:0:
64,192,56229,1,2,0:0:0:0:
192,192,56229,1,8,0:0:0:0:
448,192,56229,1,4,1:0:0:0:
448,192,56401,1,0,0:0:0:0:
64,192,56573,1,2,0:0:0:0:
320,192,56573,1,4,1:0:0:0:
192,192,56573,1,8,0:0:0:0:
192,192,56746,1,0,0:0:0:0:
448,192,56918,1,8,0:0:0:0:
320,192,56918,1,2,0:0:0:0:
192,192,57004,1,8,0:0:0:0:
64,192,57004,1,2,0:0:0:0:
448,192,57091,1,0,0:0:0:0:
64,192,57177,1,0,0:0:0:0:
448,192,57263,1,4,1:0:0:0:
192,192,57263,1,8,0:0:0:0:
320,192,57263,128,2,57608:0:0:0:0:
64,192,57608,1,4,1:0:0:0:
192,192,57608,1,8,0:0:0:0:
448,192,57608,1,0,0:0:0:0:
64,192,57953,1,2,0:0:0:0:
192,192,57953,1,0,0:0:0:0:
448,192,57953,1,0,0:0:0:0:
320,192,58125,1,0,0:0:0:0:
192,192,58211,1,0,0:0:0:0:
448,192,58298,1,0,0:0:0:0:
320,192,58298,1,0,0:0:0:0:
192,192,58470,1,0,0:0:0:0:
64,192,58470,1,0,0:0:0:0:
64,192,58642,1,2,0:0:0:0:
320,192,58642,1,0,0:0:0:0:
448,192,58642,1,0,0:0:0:0:
192,192,58815,128,0,58987:0:0:0:0:
448,192,58987,1,8,0:0:0:0:
320,192,58987,1,4,1:0:0:0:
64,192,58987,1,0,0:0:0:0:
192,192,59160,1,0,0:0:0:0:
448,192,59160,1,0,0:0:0:0:
64,192,59332,1,2,0:0:0:0:
320,192,59332,1,0,0:0:0:0:
192,192,59332,1,0,0:0:0:0:
448,192,59504,1,0,0:0:0:0:
64,192,59504,1,0,0:0:0:0:
448,192,59677,1,0,0:0:0:0:
320,192,59677,1,0,0:0:0:0:
192,192,59849,1,0,0:0:0:0:
320,192,59849,1,0,0:0:0:0:
448,192,60022,1,2,0:0:0:0:
64,192,60022,1,0,0:0:0:0:
192,192,60022,1,0,0:0:0:0:
320,192,60194,128,0,60367:0:0:0:0:
64,192,60367,1,4,1:0:0:0:
192,192,60367,1,8,0:0:0:0:
448,192,60367,1,0,0:0:0:0:
64,192,60711,1,2,0:0:0:0:
192,192,60711,1,0,0:0:0:0:
320,192,60711,1,0,0:0:0:0:
448,192,60884,128,0,61056:0:0:0:0:
192,192,61056,1,0,0:0:0:0:
64,192,61056,128,0,61746:0:0:0:0:
320,192,61229,1,0,0:0:0:0:
448,192,61229,1,0,0:0:0:0:
320,192,61401,1,2,0:0:0:0:
192,192,61401,1,8,0:0:0:0:
448,192,61746,1,4,1:0:0:0:
320,192,61746,1,8,0:0:0:0:
192,192,61746,1,0,0:0:0:0:
448,192,61918,128,0,62091:0:0:0:0:
64,192,62091,128,2,62263:0:0:0:0:
192,192,62091,1,0,0:0:0:0:
320,192,62263,128,0,62436:0:0:0:0:
192,192,62436,128,0,62608:0:0:0:0:
448,192,62608,128,0,62780:0:0:0:0:
64,192,62608,1,0,0:0:0:0:
320,192,62694,1,0,0:0:0:0:
64,192,62780,128,2,62953:0:0:0:0:
192,192,62780,1,0,0:0:0:0:
320,192,62953,128,0,63125:0:0:0:0:
448,192,63125,1,8,0:0:0:0:
64,192,63125,1,4,1:0:0:0:
192,192,63125,1,0,0:0:0:0:
64,192,63470,128,2,63815:0:0:0:0:
192,192,63470,1,0,0:0:0:0:
448,192,63470,1,0,0:0:0:0:
320,192,63815,1,0,0:0:0:0:
448,192,63901,1,0,0:0:0:0:
192,192,63987,1,0,0:0:0:0:
320,192,64073,1,0,0:0:0:0:
64,192,64160,1,2,0:0:0:0:
192,192,64160,1,0,0:0:0:0:
448,192,64160,1,0,0:0:0:0:
320,192,64332,1,0,0:0:0:0:
64,192,64332,1,0,0:0:0:0:
64,192,64504,1,4,1:0:0:0:
192,192,64504,1,8,0:0:0:0:
448,192,64504,1,0,0:0:0:0:
64,192,64849,1,2,0:0:0:0:
320,192,64849,1,8,0:0:0:0:
448,192,64849,1,0,0:0:0:0:
64,192,65022,1,0,0:0:0:0:
192,192,65022,1,0,0:0:0:0:
448,192,65194,1,0,0:0:0:0:
320,192,65194,1,0,0:0:0:0:
448,192,65367,1,0,0:0:0:0:
192,192,65367,1,0,0:0:0:0:
320,192,65539,1,2,0:0:0:0:
64,192,65539,1,8,0:0:0:0:
192,192,65539,1,0,0:0:0:0:
448,192,65711,128,0,65884:0:0:0:0:
192,192,65884,1,8,0:0:0:0:
320,192,65884,1,4,1:0:0:0:
64,192,65884,1,0,0:0:0:0:
64,192,66229,1,2,0:0:0:0:
448,192,66229,1,0,0:0:0:0:
320,192,66229,1,0,0:0:0:0:
64,192,66401,1,0,0:0:0:0:
320,192,66573,1,2,0:0:0:0:
448,192,66573,1,0,0:0:0:0:
192,192,66660,1,2,0:0:0:0:
64,192,66660,1,0,0:0:0:0:
320,192,66746,1,0,0:0:0:0:
192,192,66832,1,0,0:0:0:0:
64,192,66918,1,2,0:0:0:0:
320,192,66918,1,0,0:0:0:0:
448,192,66918,1,0,0:0:0:0:
448,192,67091,1,0,0:0:0:0:
320,192,67263,1,8,0:0:0:0:
192,192,67263,1,4,1:0:0:0:
64,192,67263,128,0,67953:0:0:0:0:
448,192,67953,128,0,68642:0:0:0:0:
320,192,68642,1,8,0:0:0:0:
192,192,68642,1,4,1:0:0:0:
64,192,68642,1,0,0:0:0:0:
320,192,68987,128,0,69332:0:0:0:0:
192,192,69332,1,2,0:0:0:0:
64,192,69332,1,0,0:0:0:0:
448,192,69332,1,0,0:0:0:0:
192,192,69504,1,0,0:0:0:0:
448,192,69677,1,0,0:0:0:0:
448,192,69849,1,0,0:0:0:0:
64,192,70022,1,0,0:0:0:0:
64,192,70194,1,0,0:0:0:0:
192,192,70194,1,0,0:0:0:0:
320,192,70367,1,0,0:0:0:0:
448,192,70367,1,0,0:0:0:0:
320,192,70539,1,0,0:0:0:0:
64,192,70711,1,2,0:0:0:0:
192,192,70711,128,0,71401:0:0:0:0:
448,192,70711,128,0,71056:0:0:0:0:
64,192,71401,1,4,1:0:0:0:
448,192,71401,1,8,0:0:0:0:
320,192,71401,1,0,0:0:0:0:
64,192,71746,128,0,72091:0:0:0:0:
192,192,72091,1,2,0:0:0:0:
320,192,72091,1,0,0:0:0:0:
448,192,72091,1,0,0:0:0:0:
64,192,72177,1,0,0:0:0:0:
320,192,72263,1,0,0:0:0:0:
192,192,72349,1,0,0:0:0:0:
448,192,72436,1,0,0:0:0:0:
320,192,72522,1,0,0:0:0:0:
448,192,72608,1,0,0:0:0:0:
192,192,72694,1,0,0:0:0:0:
320,192,72780,1,0,0:0:0:0:
64,192,72780,128,0,73125:0:0:0:0:
448,192,72953,1,0,0:0:0:0:
192,192,72953,1,0,0:0:0:0:
192,192,73125,1,0,0:0:0:0:
448,192,73125,1,0,0:0:0:0:
192,192,73470,1,2,0:0:0:0:
320,192,73470,1,0,0:0:0:0:
448,192,73470,128,0,73815:0:0:0:0:
64,192,73642,1,0,0:0:0:0:
64,192,73815,128,0,74160:0:0:0:0:
192,192,74160,1,4,1:0:0:0:
448,192,74160,1,8,0:0:0:0:
320,192,74160,1,0,0:0:0:0:
192,192,74504,128,0,74849:0:0:0:0:
320,192,74849,1,2,0:0:0:0:
448,192,74849,1,0,0:0:0:0:
64,192,74849,1,0,0:0:0:0:
320,192,75022,1,0,0:0:0:0:
64,192,75194,1,0,0:0:0:0:
64,192,75367,1,0,0:0:0:0:
448,192,75539,1,0,0:0:0:0:
448,192,75711,1,0,0:0:0:0:
320,192,75711,1,0,0:0:0:0:
192,192,75884,1,0,0:0:0:0:
64,192,75884,1,0,0:0:0:0:
192,192,76056,1,0,0:0:0:0:
320,192,76229,1,2,0:0:0:0:
448,192,76229,128,0,76918:0:0:0:0:
64,192,76229,128,0,76573:0:0:0:0:
320,192,76918,1,4,1:0:0:0:
64,192,76918,1,8,0:0:0:0:
192,192,76918,1,0,0:0:0:0:
192,192,77263,128,0,77608:0:0:0:0:
320,192,77608,1,0,0:0:0:0:
448,192,77694,1,0,0:0:0:0:
192,192,77780,1,0,0:0:0:0:
320,192,77867,1,0,0:0:0:0:
64,192,77953,1,0,0:0:0:0:
192,192,78039,1,0,0:0:0:0:
448,192,78125,1,0,0:0:0:0:
320,192,78211,1,0,0:0:0:0:
192,192,78298,128,0,78470:0:0:0:0:
320,192,78470,128,0,78642:0:0:0:0:
64,192,78642,128,0,78815:0:0:0:0:
448,192,78815,128,0,78987:0:0:0:0:
192,192,78987,128,0,79160:0:0:0:0:
320,192,79160,128,0,79332:0:0:0:0:
64,192,79332,128,0,79504:0:0:0:0:
448,192,79504,128,0,79677:0:0:0:0:
320,192,79677,1,4,1:0:0:0:
64,192,79677,1,4,0:0:0:0:
192,192,79677,1,8,0:0:0:0:
64,192,80022,1,0,0:0:0:0:
448,192,80252,1,0,0:0:0:0:
192,192,80367,1,2,0:0:0:0:
320,192,80367,1,8,0:0:0:0:
64,192,80367,1,0,0:0:0:0:
448,192,80711,1,0,0:0:0:0:
64,192,80941,1,0,0:0:0:0:
192,192,81056,1,8,0:0:0:0:
320,192,81056,1,0,0:0:0:0:
64,192,81229,1,8,0:0:0:0:
448,192,81229,1,0,0:0:0:0:
320,192,81229,1,0,0:0:0:0:
64,192,81401,1,8,0:0:0:0:
320,192,81401,1,0,0:0:0:0:
448,192,81401,1,0,0:0:0:0:
64,192,81746,1,2,0:0:0:0:
192,192,81746,1,8,0:0:0:0:
448,192,81746,1,0,0:0:0:0:
192,192,82091,1,0,0:0:0:0:
64,192,82436,1,4,1:0:0:0:
448,192,82436,1,4,0:0:0:0:
320,192,82436,1,8,0:0:0:0:
448,192,82780,1,0,0:0:0:0:
192,192,83010,1,0,0:0:0:0:
320,192,83125,1,2,0:0:0:0:
64,192,83125,1,8,0:0:0:0:
448,192,83125,1,0,0:0:0:0:
64,192,83470,1,0,0:0:0:0:
192,192,83700,1,0,0:0:0:0:
320,192,83815,1,8,0:0:0:0:
448,192,83815,1,0,0:0:0:0:
448,192,83987,1,8,0:0:0:0:
64,192,83987,1,0,0:0:0:0:
192,192,83987,1,0,0:0:0:0:
448,192,84160,1,8,0:0:0:0:
192,192,84160,1,0,0:0:0:0:
64,192,84160,1,0,0:0:0:0:
448,192,84504,1,2,0:0:0:0:
320,192,84504,1,8,0:0:0:0:
64,192,84504,1,0,0:0:0:0:
192,192,84677,1,0,0:0:0:0:
320,192,84849,1,0,0:0:0:0:
448,192,85022,1,0,0:0:0:0:
320,192,85194,1,8,0:0:0:0:
64,192,85194,1,4,0:0:0:0:
192,192,85194,1,4,1:0:0:0:
64,192,85539,1,0,0:0:0:0:
192,192,85884,1,8,0:0:0:0:
448,192,85884,1,2,0:0:0:0:
64,192,85884,1,0,0:0:0:0:
448,192,86229,1,0,0:0:0:0:
192,192,86573,1,8,0:0:0:0:
320,192,86573,1,0,0:0:0:0:
192,192,86746,1,8,0:0:0:0:
64,192,86746,1,0,0:0:0:0:
448,192,86746,1,0,0:0:0:0:
64,192,86918,1,8,0:0:0:0:
192,192,86918,1,0,0:0:0:0:
448,192,86918,1,0,0:0:0:0:
64,192,87263,1,8,0:0:0:0:
320,192,87263,1,2,0:0:0:0:
448,192,87263,1,0,0:0:0:0:
192,192,87436,1,0,0:0:0:0:
64,192,87608,1,0,0:0:0:0:
448,192,87780,1,0,0:0:0:0:
192,192,87953,1,4,1:0:0:0:
64,192,87953,1,4,0:0:0:0:
320,192,87953,1,8,0:0:0:0:
64,192,88298,1,0,0:0:0:0:
320,192,88642,1,2,0:0:0:0:
192,192,88642,1,8,0:0:0:0:
448,192,88642,1,0,0:0:0:0:
320,192,88987,1,0,0:0:0:0:
448,192,89332,1,8,0:0:0:0:
192,192,89332,1,0,0:0:0:0:
320,192,89504,1,8,0:0:0:0:
64,192,89504,1,0,0:0:0:0:
192,192,89504,1,0,0:0:0:0:
320,192,89677,1,8,0:0:0:0:
192,192,89677,1,0,0:0:0:0:
64,192,89677,1,0,0:0:0:0:
448,192,90022,1,2,0:0:0:0:
320,192,90022,1,8,0:0:0:0:
64,192,90022,1,0,0:0:0:0:
320,192,90367,1,0,0:0:0:0:
64,192,90711,1,8,0:0:0:0:
448,192,90711,1,4,0:0:0:0:
192,192,90711,1,4,1:0:0:0:
448,192,90826,1,0,0:0:0:0:
192,192,90941,1,0,0:0:0:0:
192,192,91056,1,0,0:0:0:0:
192,192,91401,1,8,0:0:0:0:
320,192,91401,1,2,0:0:0:0:
64,192,91401,1,0,0:0:0:0:
64,192,91516,1,0,0:0:0:0:
448,192,91631,1,0,0:0:0:0:
448,192,91746,1,0,0:0:0:0:
192,192,91861,1,0,0:0:0:0:
192,192,91976,1,0,0:0:0:0:
64,192,92091,128,0,92436:0:0:0:0:
320,192,92263,1,0,0:0:0:0:
448,192,92263,1,0,0:0:0:0:
320,192,92436,1,0,0:0:0:0:
448,192,92436,1,0,0:0:0:0:
64,192,92780,1,8,0:0:0:0:
448,192,92780,1,2,0:0:0:0:
192,192,92780,128,0,93125:0:0:0:0:
320,192,93125,128,0,93470:0:0:0:0:
192,192,93470,1,4,1:0:0:0:
448,192,93470,1,4,0:0:0:0:
64,192,93470,1,8,0:0:0:0:
64,192,93585,1,0,0:0:0:0:
448,192,93700,1,0,0:0:0:0:
448,192,93815,1,0,0:0:0:0:
64,192,94160,1,2,0:0:0:0:
320,192,94160,1,8,0:0:0:0:
192,192,94160,1,0,0:0:0:0:
64,192,94275,1,0,0:0:0:0:
448,192,94390,1,0,0:0:0:0:
448,192,94504,1,0,0:0:0:0:
192,192,94619,1,0,0:0:0:0:
192,192,94734,1,0,0:0:0:0:
448,192,94849,128,0,95194:0:0:0:0:
64,192,95022,1,0,0:0:0:0:
192,192,95022,1,0,0:0:0:0:
64,192,95194,1,0,0:0:0:0:
192,192,95194,1,0,0:0:0:0:
448,192,95539,1,2,0:0:0:0:
320,192,95539,1,8,0:0:0:0:
64,192,95539,1,0,0:0:0:0:
192,192,95711,1,0,0:0:0:0:
448,192,95884,1,0,0:0:0:0:
320,192,96056,1,0,0:0:0:0:
192,192,96229,1,8,0:0:0:0:
64,192,96229,1,4,0:0:0:0:
448,192,96229,1,4,1:0:0:0:
64,192,96344,1,0,0:0:0:0:
320,192,96458,1,0,0:0:0:0:
320,192,96573,1,0,0:0:0:0:
320,192,96918,1,8,0:0:0:0:
192,192,96918,1,2,0:0:0:0:
448,192,96918,1,0,0:0:0:0:
448,192,97033,1,0,0:0:0:0:
64,192,97148,1,0,0:0:0:0:
64,192,97263,1,0,0:0:0:0:
320,192,97378,1,0,0:0:0:0:
320,192,97493,1,0,0:0:0:0:
192,192,97608,128,0,97953:0:0:0:0:
448,192,97780,1,0,0:0:0:0:
64,192,97780,1,0,0:0:0:0:
448,192,97953,1,0,0:0:0:0:
64,192,97953,1,0,0:0:0:0:
448,192,98298,1,8,0:0:0:0:
64,192,98298,1,2,0:0:0:0:
320,192,98298,128,0,98642:0:0:0:0:
192,192,98642,128,0,98987:0:0:0:0:
320,192,98987,1,4,1:0:0:0:
64,192,98987,1,4,0:0:0:0:
448,192,98987,1,8,0:0:0:0:
64,192,99102,1,0,0:0:0:0:
320,192,99217,1,0,0:0:0:0:
320,192,99332,1,0,0:0:0:0:
448,192,99677,1,0,0:0:0:0:
448,192,99792,1,0,0:0:0:0:
64,192,99907,1,0,0:0:0:0:
64,192,100022,1,0,0:0:0:0:
320,192,100137,1,0,0:0:0:0:
320,192,100252,1,0,0:0:0:0:
448,192,100367,128,0,100711:0:0:0:0:
192,192,100367,1,0,0:0:0:0:
64,192,100711,128,0,101056:0:0:0:0:
320,192,101056,128,0,101401:0:0:0:0:
192,192,101401,128,0,101746:0:0:0:0:
448,192,101746,1,0,0:0:0:0:
64,192,101832,1,0,0:0:0:0:
448,192,101918,1,0,0:0:0:0:
192,192,102004,1,0,0:0:0:0:
448,192,102091,1,0,0:0:0:0:
64,192,102263,1,0,0:0:0:0:
320,192,102436,1,0,0:0:0:0:
64,192,102780,1,0,0:0:0:0:
320,192,102867,1,0,0:0:0:0:
64,192,102953,1,0,0:0:0:0:
448,192,103039,1,0,0:0:0:0:
64,192,103125,1,0,0:0:0:0:
320,192,103298,1,0,0:0:0:0:
192,192,103470,1,0,0:0:0:0:
448,192,103556,1,0,0:0:0:0:
64,192,103642,1,0,0:0:0:0:
320,192,103729,1,0,0:0:0:0:
192,192,103815,1,0,0:0:0:0:
448,192,103901,1,0,0:0:0:0:
320,192,103987,1,0,0:0:0:0:
64,192,104073,1,0,0:0:0:0:
192,192,104160,1,0,0:0:0:0:
448,192,104246,1,0,0:0:0:0:
64,192,104332,1,0,0:0:0:0:
320,192,104418,1,0,0:0:0:0:
192,192,104504,1,0,0:0:0:0:
448,192,104591,1,0,0:0:0:0:
64,192,104677,1,0,0:0:0:0:
448,192,104763,1,0,0:0:0:0:
64,192,104849,1,0,0:0:0:0:
320,192,105022,1,0,0:0:0:0:
192,192,105194,1,0,0:0:0:0:
448,192,105539,1,0,0:0:0:0:
192,192,105711,1,0,0:0:0:0:
320,192,105884,1,0,0:0:0:0:
64,192,106142,1,0,0:0:0:0:
448,192,106229,1,0,0:0:0:0:
320,192,106315,1,0,0:0:0:0:
448,192,106401,1,0,0:0:0:0:
192,192,106487,1,0,0:0:0:0:
64,192,106573,1,0,0:0:0:0:
448,192,106660,1,0,0:0:0:0:
192,192,106746,1,0,0:0:0:0:
64,192,106832,1,0,0:0:0:0:
448,192,106918,1,0,0:0:0:0:
192,192,107004,1,0,0:0:0:0:
320,192,107091,1,0,0:0:0:0:
448,192,107177,1,0,0:0:0:0:
192,192,107263,1,0,0:0:0:0:
64,192,107349,1,0,0:0:0:0:
320,192,107436,1,0,0:0:0:0:
192,192,107522,1,0,0:0:0:0:
448,192,107608,1,0,0:0:0:0:
64,192,107780,1,0,0:0:0:0:
320,192,107953,1,0,0:0:0:0:
192,192,108298,1,0,0:0:0:0:
448,192,108470,1,0,0:0:0:0:
64,192,108642,1,0,0:0:0:0:
448,192,108815,1,0,0:0:0:0:
192,192,108901,1,0,0:0:0:0:
320,192,108987,1,0,0:0:0:0:
64,192,109073,1,0,0:0:0:0:
320,192,109160,1,0,0:0:0:0:
192,192,109246,1,0,0:0:0:0:
448,192,109332,1,0,0:0:0:0:
64,192,109418,1,0,0:0:0:0:
192,192,109504,1,0,0:0:0:0:
320,192,109591,1,0,0:0:0:0:
448,192,109677,1,0,0:0:0:0:
64,192,109849,1,0,0:0:0:0:
192,192,109936,1,0,0:0:0:0:
320,192,110022,1,0,0:0:0:0:
448,192,110194,1,0,0:0:0:0:
192,192,110280,1,0,0:0:0:0:
320,192,110367,1,0,0:0:0:0:
64,192,110453,1,0,0:0:0:0:
448,192,110539,1,0,0:0:0:0:
192,192,110625,1,0,0:0:0:0:
320,192,110711,1,0,0:0:0:0:
64,192,110798,1,0,0:0:0:0:
192,192,110884,1,0,0:0:0:0:
320,192,110970,1,0,0:0:0:0:
448,192,111056,1,0,0:0:0:0:
64,192,111142,1,0,0:0:0:0:
320,192,111229,1,0,0:0:0:0:
192,192,111315,1,0,0:0:0:0:
320,192,111401,1,4,0:0:0:0:
448,192,111401,1,0,0:0:0:0:
64,192,111401,128,8,113125:0:0:0:0:
192,192,113125,128,0,113470:0:0:0:0:
64,192,113470,128,0,113815:0:0:0:0:
448,192,113815,128,0,114160:0:0:0:0:
192,192,114160,128,0,114677:0:0:0:0:
448,192,114677,1,0,0:0:0:0:
448,192,114849,128,0,115194:0:0:0:0:
64,192,115194,128,0,115539:0:0:0:0:
192,192,115539,128,0,116229:0:0:0:0:
448,192,116229,128,0,116918:0:0:0:0:
192,192,116918,1,0,0:0:0:0:
320,192,117091,1,0,0:0:0:0:
448,192,117177,1,0,0:0:0:0:
192,192,117263,1,0,0:0:0:0:
320,192,117349,1,0,0:0:0:0:
64,192,117436,1,0,0:0:0:0:
192,192,117522,1,0,0:0:0:0:
320,192,117608,1,0,0:0:0:0:
320,192,117953,128,0,118298:0:0:0:0:
192,192,118298,1,4,1:0:0:0:
64,192,118298,1,4,0:0:0:0:
448,192,118298,1,8,0:0:0:0:
192,192,118642,1,8,0:0:0:0:
320,192,118642,1,2,0:0:0:0:
448,192,118642,1,0,0:0:0:0:
64,192,118815,128,0,118987:0:0:0:0:
320,192,118987,1,0,0:0:0:0:
192,192,119160,1,0,0:0:0:0:
320,192,119160,1,0,0:0:0:0:
448,192,119332,1,2,0:0:0:0:
64,192,119332,1,0,0:0:0:0:
192,192,119332,1,0,0:0:0:0:
320,192,119504,128,0,119677:0:0:0:0:
64,192,119677,1,4,0:0:0:0:
448,192,119677,1,8,0:0:0:0:
192,192,119677,1,0,0:0:0:0:
448,192,119849,1,0,0:0:0:0:
320,192,119849,1,0,0:0:0:0:
448,192,120022,1,2,0:0:0:0:
192,192,120022,1,0,0:0:0:0:
64,192,120022,1,0,0:0:0:0:
448,192,120194,1,0,0:0:0:0:
320,192,120194,1,0,0:0:0:0:
448,192,120367,1,0,0:0:0:0:
192,192,120367,1,0,0:0:0:0:
448,192,120539,1,0,0:0:0:0:
64,192,120539,1,0,0:0:0:0:
448,192,120711,1,2,0:0:0:0:
192,192,120711,1,0,0:0:0:0:
320,192,120711,1,0,0:0:0:0:
448,192,120884,128,0,121056:0:0:0:0:
192,192,121056,1,8,0:0:0:0:
320,192,121056,1,4,0:0:0:0:
64,192,121056,1,0,0:0:0:0:
64,192,121401,1,2,0:0:0:0:
192,192,121401,1,0,0:0:0:0:
320,192,121401,1,0,0:0:0:0:
448,192,121573,128,0,121746:0:0:0:0:
320,192,121746,1,0,0:0:0:0:
64,192,121746,128,0,122436:0:0:0:0:
192,192,121918,1,0,0:0:0:0:
448,192,121918,1,0,0:0:0:0:
320,192,122091,1,2,0:0:0:0:
192,192,122091,1,0,0:0:0:0:
320,192,122436,1,4,0:0:0:0:
448,192,122436,1,8,0:0:0:0:
192,192,122436,1,0,0:0:0:0:
448,192,122608,128,0,122780:0:0:0:0:
64,192,122780,128,2,122953:0:0:0:0:
192,192,122780,1,0,0:0:0:0:
320,192,122953,128,0,123125:0:0:0:0:
192,192,123125,128,0,123298:0:0:0:0:
448,192,123298,128,0,123470:0:0:0:0:
64,192,123298,1,0,0:0:0:0:
192,192,123384,1,0,0:0:0:0:
64,192,123470,128,2,123642:0:0:0:0:
320,192,123470,1,0,0:0:0:0:
320,192,123642,128,0,123815:0:0:0:0:
192,192,123815,1,8,0:0:0:0:
448,192,123815,1,4,0:0:0:0:
64,192,123815,1,0,0:0:0:0:
448,192,124160,128,2,124504:0:0:0:0:
320,192,124160,1,0,0:0:0:0:
64,192,124160,1,0,0:0:0:0:
192,192,124504,1,0,0:0:0:0:
64,192,124591,1,0,0:0:0:0:
320,192,124677,1,0,0:0:0:0:
192,192,124763,1,0,0:0:0:0:
448,192,124849,1,2,0:0:0:0:
320,192,124849,1,0,0:0:0:0:
64,192,124849,1,0,0:0:0:0:
192,192,125022,1,0,0:0:0:0:
448,192,125194,1,4,1:0:0:0:
320,192,125194,1,8,0:0:0:0:
64,192,125194,1,4,0:0:0:0:
448,192,125539,1,2,0:0:0:0:
192,192,125539,1,8,0:0:0:0:
64,192,125539,1,0,0:0:0:0:
448,192,125711,1,0,0:0:0:0:
192,192,125711,1,0,0:0:0:0:
64,192,125884,1,0,0:0:0:0:
320,192,125884,1,0,0:0:0:0:
64,192,126056,1,0,0:0:0:0:
320,192,126056,1,0,0:0:0:0:
192,192,126229,1,2,0:0:0:0:
448,192,126229,1,8,0:0:0:0:
320,192,126229,1,0,0:0:0:0:
64,192,126401,128,0,126573:0:0:0:0:
320,192,126573,1,4,0:0:0:0:
192,192,126573,1,8,0:0:0:0:
448,192,126573,1,4,1:0:0:0:
448,192,126918,1,2,0:0:0:0:
64,192,126918,1,0,0:0:0:0:
192,192,126918,1,0,0:0:0:0:
320,192,127091,1,0,0:0:0:0:
320,192,127177,1,0,0:0:0:0:
448,192,127263,1,2,0:0:0:0:
64,192,127263,1,0,0:0:0:0:
192,192,127349,1,0,0:0:0:0:
64,192,127436,1,0,0:0:0:0:
448,192,127608,1,2,0:0:0:0:
192,192,127608,1,0,0:0:0:0:
320,192,127608,1,0,0:0:0:0:
448,192,127780,1,0,0:0:0:0:
192,192,127953,1,2,0:0:0:0:
320,192,127953,1,8,0:0:0:0:
64,192,127953,1,4,0:0:0:0:
192,192,128125,1,0,0:0:0:0:
64,192,128298,1,2,0:0:0:0:
320,192,128298,1,0,0:0:0:0:
448,192,128298,1,0,0:0:0:0:
320,192,128470,1,0,0:0:0:0:
64,192,128642,1,2,0:0:0:0:
192,192,128642,1,0,0:0:0:0:
448,192,128729,1,2,0:0:0:0:
320,192,128729,1,0,0:0:0:0:
64,192,128815,1,0,0:0:0:0:
448,192,128901,1,0,0:0:0:0:
64,192,128987,1,2,0:0:0:0:
320,192,128987,1,0,0:0:0:0:
192,192,128987,128,0,129332:0:0:0:0:
448,192,129332,1,4,1:0:0:0:
64,192,129332,1,4,0:0:0:0:
320,192,129332,1,8,0:0:0:0:
192,192,129504,1,0,0:0:0:0:
320,192,129677,1,2,0:0:0:0:
448,192,129677,1,0,0:0:0:0:
64,192,129677,128,0,130022:0:0:0:0:
192,192,129849,1,0,0:0:0:0:
320,192,129936,1,0,0:0:0:0:
448,192,130022,1,0,0:0:0:0:
192,192,130022,1,0,0:0:0:0:
448,192,130194,1,0,0:0:0:0:
320,192,130194,1,0,0:0:0:0:
448,192,130367,1,2,0:0:0:0:
320,192,130367,1,0,0:0:0:0:
192,192,130367,1,0,0:0:0:0:
64,192,130539,1,0,0:0:0:0:
320,192,130625,1,0,0:0:0:0:
64,192,130711,1,0,0:0:0:0:
192,192,130711,1,0,0:0:0:0:
448,192,130884,1,0,0:0:0:0:
448,192,131056,1,2,0:0:0:0:
320,192,131056,1,0,0:0:0:0:
192,192,131056,1,0,0:0:0:0:
64,192,131229,1,0,0:0:0:0:
320,192,131315,1,0,0:0:0:0:
64,192,131401,128,0,132091:0:0:0:0:
192,192,131401,1,0,0:0:0:0:
448,192,131573,1,0,0:0:0:0:
448,192,131746,1,2,0:0:0:0:
320,192,131746,1,0,0:0:0:0:
192,192,131918,1,0,0:0:0:0:
320,192,132091,1,4,0:0:0:0:
192,192,132091,1,4,1:0:0:0:
448,192,132091,1,0,0:0:0:0:
320,192,132263,1,0,0:0:0:0:
64,192,132436,1,2,0:0:0:0:
192,192,132436,1,0,0:0:0:0:
448,192,132436,128,0,132780:0:0:0:0:
320,192,132608,1,0,0:0:0:0:
192,192,132694,1,0,0:0:0:0:
64,192,132780,1,0,0:0:0:0:
320,192,132867,1,0,0:0:0:0:
192,192,132953,1,0,0:0:0:0:
448,192,133039,1,0,0:0:0:0:
320,192,133125,1,2,0:0:0:0:
64,192,133125,1,0,0:0:0:0:
192,192,133211,1,0,0:0:0:0:
448,192,133298,1,0,0:0:0:0:
64,192,133384,1,0,0:0:0:0:
192,192,133470,1,0,0:0:0:0:
320,192,133470,128,0,133815:0:0:0:0:
448,192,133642,1,0,0:0:0:0:
64,192,133815,1,2,0:0:0:0:
192,192,133815,1,0,0:0:0:0:
448,192,133815,1,0,0:0:0:0:
320,192,133987,1,0,0:0:0:0:
192,192,134073,1,0,0:0:0:0:
448,192,134160,128,0,134504:0:0:0:0:
320,192,134160,1,0,0:0:0:0:
64,192,134332,1,0,0:0:0:0:
192,192,134418,1,0,0:0:0:0:
320,192,134504,1,2,0:0:0:0:
64,192,134504,1,0,0:0:0:0:
192,192,134677,1,0,0:0:0:0:
448,192,134849,1,4,1:0:0:0:
64,192,134849,1,4,0:0:0:0:
320,192,134849,1,8,0:0:0:0:
192,192,135022,1,0,0:0:0:0:
320,192,135194,1,2,0:0:0:0:
64,192,135194,1,0,0:0:0:0:
448,192,135194,128,0,135539:0:0:0:0:
192,192,135367,1,0,0:0:0:0:
64,192,135539,1,0,0:0:0:0:
320,192,135625,1,0,0:0:0:0:
64,192,135711,1,0,0:0:0:0:
192,192,135711,1,0,0:0:0:0:
64,192,135884,1,2,0:0:0:0:
192,192,135884,1,0,0:0:0:0:
320,192,135884,1,0,0:0:0:0:
448,192,136056,1,0,0:0:0:0:
192,192,136142,1,0,0:0:0:0:
448,192,136229,1,0,0:0:0:0:
320,192,136229,1,0,0:0:0:0:
64,192,136401,1,0,0:0:0:0:
448,192,136487,1,0,0:0:0:0:
64,192,136573,1,2,0:0:0:0:
192,192,136573,1,0,0:0:0:0:
320,192,136573,1,0,0:0:0:0:
448,192,136746,1,0,0:0:0:0:
192,192,136832,1,0,0:0:0:0:
448,192,136918,128,0,137608:0:0:0:0:
320,192,136918,1,0,0:0:0:0:
64,192,137091,1,0,0:0:0:0:
320,192,137177,1,0,0:0:0:0:
64,192,137263,1,2,0:0:0:0:
192,192,137263,1,0,0:0:0:0:
320,192,137436,1,0,0:0:0:0:
192,192,137608,1,4,0:0:0:0:
320,192,137608,1,4,1:0:0:0:
64,192,137608,1,0,0:0:0:0:
192,192,137780,1,0,0:0:0:0:
64,192,137953,1,2,0:0:0:0:
320,192,137953,1,0,0:0:0:0:
448,192,137953,1,0,0:0:0:0:
192,192,138125,1,0,0:0:0:0:
320,192,138125,1,0,0:0:0:0:
64,192,138298,1,2,0:0:0:0:
192,192,138298,1,0,0:0:0:0:
320,192,138384,1,2,0:0:0:0:
448,192,138384,1,0,0:0:0:0:
64,192,138470,1,0,0:0:0:0:
448,192,138556,1,0,0:0:0:0:
320,192,138642,1,2,0:0:0:0:
192,192,138642,1,0,0:0:0:0:
64,192,138642,1,0,0:0:0:0:
192,192,138815,1,0,0:0:0:0:
64,192,138987,1,8,0:0:0:0:
320,192,138987,1,4,0:0:0:0:
448,192,138987,128,0,139677:0:0:0:0:
192,192,139160,128,0,139332:0:0:0:0:
64,192,139332,128,0,139504:0:0:0:0:
320,192,139504,128,0,139677:0:0:0:0:
192,192,139677,128,0,139849:0:0:0:0:
64,192,139677,128,0,140367:0:0:0:0:
320,192,139849,128,0,140022:0:0:0:0:
448,192,140022,128,0,140367:0:0:0:0:
192,192,140022,128,0,140194:0:0:0:0:
320,192,140194,128,0,140367:0:0:0:0:
192,192,140367,1,4,0:0:0:0:
448,192,140453,1,0,0:0:0:0:
64,192,140539,1,0,0:0:0:0:
320,192,140625,1,0,0:0:0:0:
64,192,140711,1,0,0:0:0:0:
448,192,140884,1,0,0:0:0:0:
192,192,141056,1,8,0:0:0:0:
64,192,141056,1,0,0:0:0:0:
448,192,141401,1,0,0:0:0:0:
192,192,141487,1,0,0:0:0:0:
448,192,141573,1,0,0:0:0:0:
64,192,141660,1,0,0:0:0:0:
448,192,141746,1,4,0:0:0:0:
320,192,141746,1,4,1:0:0:0:
192,192,141746,1,8,0:0:0:0:
64,192,141832,1,0,0:0:0:0:
448,192,141918,1,0,0:0:0:0:
192,192,142004,1,0,0:0:0:0:
448,192,142091,1,0,0:0:0:0:
64,192,142263,1,0,0:0:0:0:
320,192,142436,1,8,0:0:0:0:
448,192,142436,1,0,0:0:0:0:
64,192,142780,1,0,0:0:0:0:
320,192,142867,1,0,0:0:0:0:
64,192,142953,1,0,0:0:0:0:
448,192,143039,1,0,0:0:0:0:
64,192,143125,1,4,0:0:0:0:
192,192,143125,1,4,1:0:0:0:
320,192,143125,1,8,0:0:0:0:
448,192,143211,1,0,0:0:0:0:
64,192,143298,1,0,0:0:0:0:
320,192,143384,1,0,0:0:0:0:
64,192,143470,1,0,0:0:0:0:
192,192,143642,1,0,0:0:0:0:
320,192,143815,1,4,1:0:0:0:
448,192,143815,1,0,0:0:0:0:
64,192,143815,1,0,0:0:0:0:
64,192,144160,1,0,0:0:0:0:
320,192,144246,1,0,0:0:0:0:
64,192,144332,1,0,0:0:0:0:
448,192,144418,1,0,0:0:0:0:
64,192,144504,1,0,0:0:0:0:
192,192,144504,1,0,0:0:0:0:
448,192,144677,1,0,0:0:0:0:
192,192,144763,1,0,0:0:0:0:
320,192,144849,1,0,0:0:0:0:
448,192,144849,1,0,0:0:0:0:
64,192,144936,1,0,0:0:0:0:
448,192,145022,1,0,0:0:0:0:
192,192,145108,1,0,0:0:0:0:
320,192,145194,1,4,0:0:0:0:
64,192,145194,1,4,1:0:0:0:
448,192,145194,1,0,0:0:0:0:
448,192,145884,1,2,2:0:0:0:
64,192,146229,1,2,2:0:0:0:
192,192,146573,1,2,2:0:0:0:
448,192,146918,1,2,2:0:0:0:
192,192,147263,1,2,2:0:0:0:
448,192,147780,1,2,2:0:0:0:
448,192,147953,1,2,2:0:0:0:
192,192,148298,1,2,2:0:0:0:
320,192,148642,1,2,2:0:0:0:
64,192,149332,1,2,2:0:0:0:
320,192,150022,1,2,2:0:0:0:
64,192,150367,1,2,2:0:0:0:
448,192,150367,1,2,2:0:0:0:
64,192,150711,1,2,2:0:0:0:
192,192,150711,1,2,2:0:0:0:
