osu file format v14

[General]
AudioFilename: REANIMATE.mp3
AudioLeadIn: 0
PreviewTime: 117953
Countdown: 0
SampleSet: None
StackLeniency: 0.5
Mode: 3
LetterboxInBreaks: 0
SpecialStyle: 0
WidescreenStoryboard: 1

[Editor]
DistanceSpacing: 0.8
BeatDivisor: 3
GridSize: 16
TimelineZoom: 2.772

[Metadata]
Title:REANIMATE
TitleUnicode:暗夜苏醒
Artist:Warak
ArtistUnicode:Warak
Creator:puxtu
Version:Lv.3
Source:节奏大师
Tags:o2jam wubstep节奏大师 symphonic drumstep Shiguri Ayyri _Gezo_ Gezoda Nwolf Raiden rhythm master tencent games symphony drumstep reanim8
BeatmapID:893637
BeatmapSetID:411866

[Difficulty]
HPDrainRate:7
CircleSize:4
OverallDifficulty:7
ApproachRate:9.3
SliderMultiplier:2.00000000596047
SliderTickRate:2

[Events]
//Background and Video events
0,0,"Nanomortis.full.1506306.jpg",0,0
//Break Periods
//Storyboard Layer 0 (Background)
//Storyboard Layer 1 (Fail)
//Storyboard Layer 2 (Pass)
//Storyboard Layer 3 (Foreground)
//Storyboard Sound Samples

[TimingPoints]
2436,344.827586206897,4,3,69,50,1,0
2522,-100,4,3,69,20,0,0
13470,-100,4,3,69,50,0,0
46573,-100,4,3,69,50,0,1
68642,-100,4,3,69,50,0,0
101746,-100,4,3,69,20,0,0
111401,-100,4,3,69,50,0,0
113125,-100,4,3,69,20,0,0
117953,-100,4,3,69,50,0,0
118298,-100,4,3,69,50,0,1
140367,-100,4,3,69,50,0,0
145884,-100,4,3,69,20,0,0

[HitObjects]
64,192,2436,5,4,1:0:0:0:
448,192,2436,128,0,5194:0:0:0:0:
320,192,3125,1,0,2:0:0:0:
192,192,3815,1,0,2:0:0:0:
64,192,5194,128,0,7953:2:0:0:0:
192,192,5194,1,0,0:0:0:0:
448,192,5884,1,0,2:0:0:0:
320,192,6573,1,0,2:0:0:0:
192,192,7953,128,0,10711:2:0:0:0:
320,192,7953,1,0,0:0:0:0:
64,192,8642,1,0,2:0:0:0:
320,192,9332,1,0,2:0:0:0:
448,192,9677,1,0,2:0:0:0:
64,192,10022,1,0,2:0:0:0:
448,192,10711,128,0,13470:2:0:0:0:
320,192,10711,1,0,0:0:0:0:
64,192,11056,1,0,2:0:0:0:
192,192,11401,1,0,2:0:0:0:
320,192,11746,1,0,2:0:0:0:
64,192,12091,1,0,2:0:0:0:
320,192,12436,1,0,2:0:0:0:
192,192,12780,1,0,2:0:0:0:
320,192,13125,1,0,2:0:0:0:
64,192,13470,1,4,1:0:0:0:
320,192,13470,128,0,14160:2:0:0:0:
192,192,14160,1,0,2:0:0:0:
448,192,14160,1,2,0:0:0:0:
64,192,15022,1,0,2:0:0:0:
448,192,15194,1,0,2:0:0:0:
320,192,15539,1,0,2:0:0:0:
192,192,15539,1,2,0:0:0:0:
448,192,16229,128,4,16918:1:0:0:0:
192,192,16229,1,0,2:0:0:0:
64,192,16918,1,0,2:0:0:0:
320,192,16918,1,2,0:0:0:0:
64,192,17780,1,0,2:0:0:0:
320,192,17953,1,0,2:0:0:0:
192,192,18298,1,0,2:0:0:0:
448,192,18298,1,2,0:0:0:0:
320,192,18987,1,0,2:0:0:0:
64,192,18987,128,4,19677:1:0:0:0:
192,192,19677,1,0,2:0:0:0:
448,192,19677,1,2,0:0:0:0:
192,192,20539,1,0,2:0:0:0:
320,192,20711,1,0,2:0:0:0:
448,192,21056,1,0,2:0:0:0:
192,192,21056,1,2,0:0:0:0:
320,192,21746,128,0,22436:2:0:0:0:
64,192,21746,1,4,1:0:0:0:
192,192,22436,1,0,2:0:0:0:
448,192,22436,1,2,0:0:0:0:
192,192,23298,1,0,2:0:0:0:
320,192,23470,1,0,2:0:0:0:
448,192,23815,1,2,0:0:0:0:
64,192,23815,1,0,2:0:0:0:
64,192,24504,1,4,1:0:0:0:
448,192,24504,1,0,2:0:0:0:
320,192,24849,1,0,2:0:0:0:
192,192,25194,1,0,2:0:0:0:
448,192,25539,1,0,2:0:0:0:
64,192,25884,1,0,2:0:0:0:
448,192,26229,1,0,2:0:0:0:
192,192,26573,1,0,2:0:0:0:
64,192,26918,1,0,2:0:0:0:
320,192,27263,1,0,2:0:0:0:
64,192,27608,1,0,2:0:0:0:
448,192,27953,1,0,2:0:0:0:
192,192,28298,1,0,0:0:0:0:
64,192,28642,1,0,2:0:0:0:
448,192,28987,1,0,2:0:0:0:
320,192,29332,1,0,2:0:0:0:
64,192,29677,1,0,2:0:0:0:
448,192,30022,1,0,2:0:0:0:
192,192,30367,1,0,2:0:0:0:
320,192,30711,1,0,2:0:0:0:
64,192,31056,1,0,2:0:0:0:
192,192,31401,1,0,2:0:0:0:
320,192,31746,1,0,0:0:0:0:
448,192,32091,1,0,2:0:0:0:
64,192,32780,1,0,2:0:0:0:
192,192,33125,1,0,2:0:0:0:
320,192,33470,1,0,2:0:0:0:
64,192,33815,1,0,2:0:0:0:
448,192,34160,1,0,2:0:0:0:
192,192,34504,1,0,0:0:0:0:
320,192,34849,1,0,2:0:0:0:
64,192,35194,1,0,2:0:0:0:
448,192,35539,1,0,2:0:0:0:
192,192,35884,1,0,2:0:0:0:
320,192,36229,1,0,2:0:0:0:
64,192,36573,1,0,2:0:0:0:
320,192,36918,1,0,2:0:0:0:
448,192,37263,1,0,2:0:0:0:
64,192,37608,1,0,2:0:0:0:
320,192,37953,1,0,2:0:0:0:
192,192,38298,1,0,2:0:0:0:
64,192,38642,1,0,2:0:0:0:
448,192,38987,1,0,2:0:0:0:
192,192,39332,1,0,0:0:0:0:
320,192,39677,1,0,2:0:0:0:
448,192,40022,1,0,2:0:0:0:
64,192,40367,1,0,2:0:0:0:
320,192,40711,1,0,2:0:0:0:
64,192,41056,1,0,2:0:0:0:
448,192,41401,1,0,2:0:0:0:
192,192,41746,1,0,2:0:0:0:
320,192,42091,1,0,2:0:0:0:
64,192,42436,1,0,2:0:0:0:
320,192,42780,1,0,0:0:0:0:
448,192,43125,1,0,2:0:0:0:
192,192,43470,1,0,2:0:0:0:
320,192,43815,1,0,2:0:0:0:
448,192,44160,1,0,0:0:0:0:
64,192,44504,1,0,2:0:0:0:
192,192,44849,1,0,0:0:0:0:
448,192,45194,1,0,2:0:0:0:
192,192,45539,1,2,2:0:0:0:
320,192,45884,128,2,46573:2:0:0:0:
64,192,46573,1,4,1:0:0:0:
448,192,46573,1,8,0:0:0:0:
192,192,46918,1,2,0:0:0:0:
448,192,47436,1,0,0:0:0:0:
192,192,47608,1,2,0:0:0:0:
448,192,47953,128,8,48298:0:0:0:0:
320,192,48298,1,2,0:0:0:0:
64,192,48642,128,0,49332:0:0:0:0:
192,192,48987,1,2,0:0:0:0:
320,192,49332,1,4,1:0:0:0:
192,192,49332,1,8,0:0:0:0:
448,192,49677,1,2,0:0:0:0:
64,192,50194,1,0,0:0:0:0:
320,192,50367,1,2,0:0:0:0:
448,192,50711,128,0,51056:0:0:0:0:
192,192,51056,128,2,51401:0:0:0:0:
320,192,51401,128,0,51746:0:0:0:0:
64,192,51746,1,2,0:0:0:0:
192,192,51918,1,0,0:0:0:0:
448,192,52091,1,8,0:0:0:0:
64,192,52091,1,4,1:0:0:0:
192,192,52436,1,2,0:0:0:0:
64,192,52953,1,0,0:0:0:0:
448,192,53125,1,2,0:0:0:0:
64,192,53470,1,4,1:0:0:0:
448,192,53470,1,8,0:0:0:0:
320,192,53815,1,2,0:0:0:0:
64,192,54160,128,0,54849:0:0:0:0:
320,192,54504,1,0,0:0:0:0:
192,192,54849,1,4,1:0:0:0:
448,192,54849,1,8,0:0:0:0:
320,192,55194,128,2,55539:0:0:0:0:
192,192,55711,1,0,0:0:0:0:
448,192,55884,1,2,0:0:0:0:
64,192,56056,1,0,0:0:0:0:
448,192,56229,128,2,56573:0:0:0:0:
64,192,56573,128,2,56918:0:0:0:0:
192,192,56918,128,8,57263:0:0:0:0:
448,192,57263,1,4,1:0:0:0:
320,192,57608,128,4,57953:1:0:0:0:
64,192,57608,1,8,0:0:0:0:
448,192,57953,1,2,0:0:0:0:
192,192,58298,128,0,58642:0:0:0:0:
320,192,58642,1,2,0:0:0:0:
448,192,58987,128,8,60022:0:0:0:0:
64,192,59332,1,2,0:0:0:0:
192,192,59849,1,0,0:0:0:0:
320,192,60022,1,2,0:0:0:0:
192,192,60367,128,4,60711:1:0:0:0:
448,192,60367,1,8,0:0:0:0:
64,192,60711,1,2,0:0:0:0:
320,192,61056,128,0,61401:0:0:0:0:
448,192,61401,1,2,0:0:0:0:
64,192,61746,128,4,63125:1:0:0:0:
320,192,62091,1,2,0:0:0:0:
448,192,62608,1,0,0:0:0:0:
192,192,62780,1,2,0:0:0:0:
320,192,62953,1,0,0:0:0:0:
448,192,63125,1,8,0:0:0:0:
64,192,63470,128,2,63815:0:0:0:0:
320,192,63470,1,0,0:0:0:0:
320,192,63815,128,0,64160:0:0:0:0:
192,192,64160,1,2,0:0:0:0:
64,192,64504,128,4,65539:1:0:0:0:
320,192,64849,1,2,0:0:0:0:
448,192,65367,1,0,0:0:0:0:
192,192,65539,1,2,0:0:0:0:
64,192,65884,1,8,0:0:0:0:
448,192,65884,128,4,66573:1:0:0:0:
320,192,66229,1,2,0:0:0:0:
192,192,66573,128,2,67263:0:0:0:0:
448,192,66918,1,2,0:0:0:0:
64,192,67263,1,8,0:0:0:0:
320,192,67263,128,4,67953:1:0:0:0:
448,192,67953,128,0,68642:0:0:0:0:
320,192,68642,1,8,0:0:0:0:
192,192,68642,1,4,1:0:0:0:
192,192,69332,1,2,0:0:0:0:
448,192,69332,1,0,0:0:0:0:
320,192,70194,1,0,0:0:0:0:
64,192,70367,1,0,0:0:0:0:
448,192,70711,1,2,0:0:0:0:
320,192,70711,1,0,0:0:0:0:
64,192,71401,1,4,1:0:0:0:
448,192,71401,1,8,0:0:0:0:
192,192,72091,1,2,0:0:0:0:
448,192,72091,1,0,0:0:0:0:
320,192,72953,1,0,0:0:0:0:
64,192,73125,1,0,0:0:0:0:
320,192,73470,1,2,0:0:0:0:
448,192,73470,1,0,0:0:0:0:
192,192,74160,1,4,1:0:0:0:
448,192,74160,1,8,0:0:0:0:
320,192,74849,1,2,0:0:0:0:
64,192,74849,1,0,0:0:0:0:
192,192,75711,1,0,0:0:0:0:
448,192,75884,1,0,0:0:0:0:
64,192,76229,1,2,0:0:0:0:
192,192,76229,1,0,0:0:0:0:
64,192,76918,1,4,1:0:0:0:
448,192,76918,128,8,77608:0:0:0:0:
192,192,77608,128,0,78298:0:0:0:0:
448,192,78298,128,0,78987:0:0:0:0:
64,192,78987,128,0,79677:0:0:0:0:
192,192,79677,1,4,1:0:0:0:
448,192,79677,1,4,0:0:0:0:
448,192,80252,1,0,0:0:0:0:
64,192,80367,1,2,0:0:0:0:
192,192,80941,1,0,0:0:0:0:
320,192,81056,1,8,0:0:0:0:
64,192,81229,1,8,0:0:0:0:
448,192,81401,1,8,0:0:0:0:
64,192,81746,1,2,0:0:0:0:
320,192,82436,1,4,1:0:0:0:
192,192,83010,1,0,0:0:0:0:
448,192,83125,1,2,0:0:0:0:
192,192,83700,1,0,0:0:0:0:
64,192,83815,1,8,0:0:0:0:
448,192,83987,1,8,0:0:0:0:
320,192,84160,1,8,0:0:0:0:
192,192,84504,1,2,0:0:0:0:
448,192,84677,1,0,0:0:0:0:
320,192,84849,1,0,0:0:0:0:
64,192,85022,1,0,0:0:0:0:
448,192,85194,1,8,0:0:0:0:
192,192,85539,1,0,0:0:0:0:
320,192,85884,1,8,0:0:0:0:
64,192,86229,1,0,0:0:0:0:
448,192,86573,1,8,0:0:0:0:
192,192,86746,1,8,0:0:0:0:
320,192,86918,1,8,0:0:0:0:
64,192,87263,1,8,0:0:0:0:
448,192,87436,1,0,0:0:0:0:
192,192,87608,1,0,0:0:0:0:
320,192,87780,1,0,0:0:0:0:
448,192,87953,1,4,1:0:0:0:
64,192,88642,1,2,0:0:0:0:
192,192,89332,1,8,0:0:0:0:
64,192,89504,1,8,0:0:0:0:
320,192,89677,1,8,0:0:0:0:
192,192,90022,1,2,0:0:0:0:
320,192,90711,1,8,0:0:0:0:
64,192,90711,1,4,0:0:0:0:
64,192,91272,1,0,0:0:0:0:
448,192,91401,1,8,0:0:0:0:
320,192,91961,1,0,0:0:0:0:
192,192,92091,1,0,0:0:0:0:
448,192,92263,1,0,0:0:0:0:
64,192,92436,1,0,0:0:0:0:
448,192,92780,1,8,0:0:0:0:
192,192,93470,1,4,1:0:0:0:
320,192,94030,1,0,0:0:0:0:
64,192,94160,1,2,0:0:0:0:
320,192,94720,1,0,0:0:0:0:
448,192,94849,1,0,0:0:0:0:
64,192,95022,1,0,0:0:0:0:
192,192,95194,1,0,0:0:0:0:
320,192,95539,1,2,0:0:0:0:
64,192,95711,1,0,0:0:0:0:
192,192,95884,1,0,0:0:0:0:
448,192,96056,1,0,0:0:0:0:
64,192,96229,1,8,0:0:0:0:
320,192,96789,1,0,0:0:0:0:
192,192,96918,1,8,0:0:0:0:
448,192,97479,1,0,0:0:0:0:
64,192,97608,1,0,0:0:0:0:
320,192,97780,1,0,0:0:0:0:
192,192,97953,1,0,0:0:0:0:
448,192,98298,1,8,0:0:0:0:
320,192,98642,1,0,0:0:0:0:
64,192,98987,1,4,1:0:0:0:
192,192,98987,1,4,0:0:0:0:
320,192,99548,1,0,0:0:0:0:
448,192,99677,1,0,0:0:0:0:
192,192,100237,1,0,0:0:0:0:
320,192,100367,1,0,0:0:0:0:
64,192,100711,1,0,0:0:0:0:
192,192,101056,1,0,0:0:0:0:
320,192,101401,1,0,0:0:0:0:
448,192,101746,1,0,0:0:0:0:
64,192,102091,1,0,0:0:0:0:
320,192,102436,1,0,0:0:0:0:
192,192,102780,1,0,0:0:0:0:
448,192,103125,1,0,0:0:0:0:
64,192,103470,128,0,104504:0:0:0:0:
320,192,104504,1,0,0:0:0:0:
448,192,104849,1,0,0:0:0:0:
192,192,105194,1,0,0:0:0:0:
448,192,105539,1,0,0:0:0:0:
64,192,105711,1,0,0:0:0:0:
320,192,105884,1,0,0:0:0:0:
448,192,106229,128,0,107263:0:0:0:0:
64,192,107263,1,0,0:0:0:0:
320,192,107608,1,0,0:0:0:0:
192,192,107953,1,0,0:0:0:0:
448,192,108298,1,0,0:0:0:0:
64,192,108642,1,0,0:0:0:0:
320,192,108987,1,0,0:0:0:0:
64,192,109332,128,0,110022:0:0:0:0:
448,192,109677,1,0,0:0:0:0:
320,192,110022,1,0,0:0:0:0:
192,192,110367,1,0,0:0:0:0:
448,192,110711,128,0,111401:0:0:0:0:
64,192,111056,1,0,0:0:0:0:
320,192,111401,1,8,0:0:0:0:
192,192,111401,128,4,113125:0:0:0:0:
448,192,113125,1,0,0:0:0:0:
64,192,113470,1,0,0:0:0:0:
320,192,113815,1,0,0:0:0:0:
192,192,114160,1,0,0:0:0:0:
448,192,114677,1,0,0:0:0:0:
64,192,114849,1,0,0:0:0:0:
320,192,115194,1,0,0:0:0:0:
192,192,115539,128,0,116229:0:0:0:0:
448,192,116229,128,0,116918:0:0:0:0:
64,192,116918,128,0,117608:0:0:0:0:
192,192,116918,1,0,0:0:0:0:
320,192,117953,1,0,0:0:0:0:
64,192,118298,128,4,118642:1:0:0:0:
448,192,118298,1,4,0:0:0:0:
192,192,118642,1,8,0:0:0:0:
320,192,119160,1,0,0:0:0:0:
64,192,119332,1,2,0:0:0:0:
448,192,119677,128,4,121056:0:0:0:0:
64,192,120022,1,2,0:0:0:0:
192,192,120539,1,0,0:0:0:0:
320,192,120711,1,2,0:0:0:0:
64,192,120884,1,0,0:0:0:0:
192,192,121056,1,8,0:0:0:0:
320,192,121401,1,2,0:0:0:0:
64,192,121918,1,0,0:0:0:0:
448,192,122091,1,2,0:0:0:0:
64,192,122436,1,4,0:0:0:0:
320,192,122436,1,8,0:0:0:0:
192,192,122780,1,2,0:0:0:0:
448,192,123298,1,0,0:0:0:0:
192,192,123470,1,2,0:0:0:0:
64,192,123470,1,0,0:0:0:0:
448,192,123642,1,0,0:0:0:0:
64,192,123815,1,8,0:0:0:0:
320,192,124160,128,2,124504:0:0:0:0:
192,192,124160,1,0,0:0:0:0:
448,192,124677,1,0,0:0:0:0:
64,192,124849,1,2,0:0:0:0:
320,192,125194,1,4,1:0:0:0:
192,192,125194,128,8,126573:0:0:0:0:
448,192,125539,1,2,0:0:0:0:
64,192,126056,1,0,0:0:0:0:
448,192,126229,1,2,0:0:0:0:
320,192,126401,1,0,0:0:0:0:
64,192,126573,1,4,0:0:0:0:
448,192,126918,1,2,0:0:0:0:
192,192,127091,1,0,0:0:0:0:
320,192,127263,1,2,0:0:0:0:
64,192,127436,1,0,0:0:0:0:
448,192,127608,1,2,0:0:0:0:
320,192,127953,1,2,0:0:0:0:
192,192,128298,1,2,0:0:0:0:
64,192,128642,128,2,128987:0:0:0:0:
448,192,128987,1,2,0:0:0:0:
320,192,129332,128,4,129677:1:0:0:0:
192,192,129332,1,4,0:0:0:0:
448,192,129677,1,2,0:0:0:0:
448,192,130194,1,0,0:0:0:0:
192,192,130367,1,2,0:0:0:0:
64,192,130711,1,0,0:0:0:0:
320,192,131056,1,2,0:0:0:0:
192,192,131573,1,0,0:0:0:0:
448,192,131746,1,2,0:0:0:0:
320,192,131918,1,0,0:0:0:0:
64,192,132091,1,4,0:0:0:0:
192,192,132091,1,4,1:0:0:0:
320,192,132436,1,2,0:0:0:0:
64,192,133125,1,2,0:0:0:0:
448,192,133470,128,0,133815:0:0:0:0:
192,192,133815,1,2,0:0:0:0:
64,192,134160,128,0,134504:0:0:0:0:
320,192,134504,1,2,0:0:0:0:
448,192,134677,1,0,0:0:0:0:
192,192,134849,1,4,1:0:0:0:
64,192,134849,1,4,0:0:0:0:
320,192,135194,1,2,0:0:0:0:
64,192,135711,1,0,0:0:0:0:
448,192,135884,1,2,0:0:0:0:
192,192,136229,1,0,0:0:0:0:
320,192,136573,1,2,0:0:0:0:
64,192,137091,5,0,0:0:0:0:
320,192,137263,1,2,0:0:0:0:
192,192,137436,1,0,0:0:0:0:
64,192,137608,5,4,0:0:0:0:
448,192,137608,128,4,138298:1:0:0:0:
320,192,137953,1,2,0:0:0:0:
192,192,138298,128,2,138987:0:0:0:0:
448,192,138642,1,2,0:0:0:0:
64,192,138987,1,8,0:0:0:0:
320,192,138987,128,4,139677:0:0:0:0:
448,192,139677,128,0,140367:0:0:0:0:
192,192,140367,1,4,0:0:0:0:
64,192,140367,128,0,140884:0:0:0:0:
448,192,140884,1,0,0:0:0:0:
192,192,141056,1,8,0:0:0:0:
320,192,141401,128,0,141746:0:0:0:0:
192,192,141746,1,4,0:0:0:0:
448,192,141746,128,4,142263:1:0:0:0:
64,192,142263,1,0,0:0:0:0:
320,192,142436,1,8,0:0:0:0:
192,192,142780,128,0,143125:0:0:0:0:
448,192,143125,1,4,0:0:0:0:
64,192,143125,128,4,143642:1:0:0:0:
192,192,143642,1,0,0:0:0:0:
320,192,143815,1,4,1:0:0:0:
448,192,143815,1,0,0:0:0:0:
192,192,144160,128,0,144504:0:0:0:0:
320,192,144504,1,0,0:0:0:0:
192,192,144849,1,0,0:0:0:0:
448,192,145194,1,4,0:0:0:0:
64,192,145194,1,4,1:0:0:0:
320,192,145884,1,2,2:0:0:0:
192,192,146573,1,2,2:0:0:0:
448,192,147263,1,2,2:0:0:0:
64,192,147953,1,2,2:0:0:0:
192,192,148642,1,2,2:0:0:0:
320,192,149332,1,2,2:0:0:0:
320,192,150022,1,2,2:0:0:0:
64,192,150367,1,2,2:0:0:0:
448,192,150711,1,2,2:0:0:0:
